osu file format v9

[General]
AudioFilename: moonlight shadow .mp3
AudioLeadIn: 0
PreviewTime: 37011
Countdown: 0
SampleSet: Soft
StackLeniency: 0.7
Mode: 0
LetterboxInBreaks: 1

[Editor]
Bookmarks: 85972,125871,95522
DistanceSpacing: 1.3
BeatDivisor: 8
GridSize: 8

[Metadata]
Title:Moonlight Shadow
Artist:KOKIA
Creator:Tonoko
Version:Shadow
Source:
Tags:Ningen-tte Sonna Mono ne Mike Oldfield deepsea

[Difficulty]
HPDrainRate:7
CircleSize:5
OverallDifficulty:7
ApproachRate:7
SliderMultiplier:1.2
SliderTickRate:0.5

[Events]
//Background and Video events
0,0,"11.jpg"
//Break Periods
2,97021,110811
2,156116,170371
2,186361,188984
//Storyboard Layer 0 (Background)
//Storyboard Layer 1 (Fail)
//Storyboard Layer 2 (Pass)
//Storyboard Layer 3 (Foreground)
//Storyboard Sound Samples
//Background Colour Transformations
3,100,163,162,255

[TimingPoints]
36,465.314669044942,4,1,1,36,1,0
79953,-200,4,1,1,30,0,0
82164,-100,4,1,1,40,0,0
84955,-100,4,2,1,50,0,0
86002,-100,4,2,1,60,0,0
86468,-100,4,2,1,70,0,0
86933,-100,4,2,1,80,0,0
87747,-100,4,1,1,40,0,0
92400,-100,4,2,1,50,0,0
93738,-100,4,2,1,60,0,0
93971,-100,4,2,1,70,0,0
95192,-100,4,1,1,30,0,0
95716,-100,4,1,1,38,0,0
96007,-100,4,1,1,46,0,0
96239,-100,4,1,1,52,0,0
96472,-100,4,1,1,58,0,0
96705,-100,4,1,1,64,0,0
111246,-100,4,2,1,50,0,0
124158,-100,4,2,1,57,0,0
124624,-100,4,2,1,65,0,0
125089,-100,4,2,1,71,0,0
125554,-100,4,2,1,74,0,0
126019,-100,4,2,1,84,0,0
126485,-100,4,2,1,60,0,0
139514,-200,4,2,1,50,0,0
140095,-100,4,2,1,37,0,0
141026,-100,4,2,1,24,0,0
141724,-100,4,2,1,50,0,0
170806,-100,4,1,1,40,0,0
176971,-100,4,1,1,41,0,0
177437,-100,4,1,1,48,0,0
177902,-100,4,1,1,53,0,0
178600,-100,4,2,1,50,0,0
182323,-100,4,2,1,57,0,0
182788,-100,4,2,1,64,0,0
183253,-100,4,2,1,71,0,0
183718,-100,4,2,1,78,0,0
184184,-100,4,2,1,62,0,0
184882,-100,4,2,1,72,0,0
185347,-100,4,2,1,81,0,0
185812,-100,4,2,1,87,0,0
189419,-100,4,1,1,40,0,0
197096,-100,4,2,1,50,0,0
204541,-100,4,1,1,30,0,0
208264,-100,4,2,1,50,0,0
212103,-100,4,2,1,57,0,0
212335,-100,4,2,1,67,0,0
212568,-100,4,2,1,77,0,0
212801,-100,4,2,1,84,0,0
213499,-100,4,2,1,90,0,0
213964,-200,4,2,1,50,0,0

[Colours]
Combo1 : 138,254,118
Combo2 : 60,157,255
Combo3 : 228,137,252
Combo4 : 255,255,255

[HitObjects]
80,96,21905,5,0
80,96,22138,1,0
176,40,22371,2,0,B|240:32|304:64,1,120,4|8
368,144,23069,1,0
256,160,23301,2,0,B|288:176|288:216,2,60,0|0|8
384,232,23999,1,0
464,288,24232,6,0,B|456:328|416:352,1,60
312,312,24697,2,0,B|280:328|264:360,1,60
136,336,25162,1,0
184,248,25395,1,8
96,192,25628,1,8
208,56,26093,5,0
288,56,26326,1,0
316,64,26442,1,0
340,80,26558,1,8
416,96,26791,2,0,B|400:160|320:184,1,120
256,192,27489,5,8
360,328,27954,1,0
120,296,28420,1,8
152,56,28885,1,0
392,88,29350,1,8
120,160,29816,6,0,B|-16:216,1,120,0|8
200,176,30514,1,0
280,192,30746,2,0,B|184:288,1,120,0|8
360,208,31444,1,0
440,224,31677,2,0,B|384:352,1,120,0|8
416,136,32375,5,0
432,104,32491,1,0
448,72,32608,1,0
360,208,32840,1,0
320,288,33073,1,8
88,64,33538,6,0,B|168:64,1,60
224,120,34003,1,8
360,168,34236,2,0,B|300:168,1,60
416,256,34934,5,0
384,320,35167,1,0
320,288,35399,1,0
64,320,35865,1,8
288,32,36330,1,0
32,64,36795,1,8
200,152,37261,6,0,B|184:224,1,60,4|0
384,96,37726,2,0,B|400:32,1,60,0|0
248,40,38191,1,0
288,104,38424,1,0
328,168,38657,1,8
472,224,39122,6,0,B|408:256,1,60
304,272,39587,2,0,B|176:336,1,120,0|0
80,320,40285,1,0
0,248,40518,1,8
80,184,40983,6,0,B|112:216|176:192,1,90,0|0
200,200,41449,2,0,B|248:224|304:192,1,90,8|0
304,164,41914,2,0,B|344:220|316:300,1,120
256,320,42612,5,0
192,272,42844,1,0
192,192,43077,1,0
256,144,43310,1,8
192,192,43542,1,0
192,272,43775,1,8
256,320,44008,1,0
328,288,44240,6,0,B|360:248|344:200,1,90,8|0
384,184,44706,2,0,B|352:120|288:112,1,120
160,32,45636,5,8
128,104,45869,1,0
80,168,46102,1,8
16,216,46334,1,0
80,168,46567,1,8
144,216,46800,1,0
216,256,47032,1,0
296,288,47265,2,0,B|352:320|424:312,1,120
448,232,47963,6,0,B|424:178,1,60,0|0
352,256,48428,2,0,B|368:328,1,60,8|0
256,352,48894,1,8
256,232,49126,1,8
160,256,49359,2,0,B|144:320,1,60,0|8
64,216,49824,2,0,B|88:152,1,60
168,80,50289,2,0,B|240:136|352:96,1,180
416,192,51220,1,8
296,192,51453,1,8
120,192,51685,5,8
152,192,51802,1,0
181,201,51918,1,8
203,222,52034,1,8
225,243,52151,2,0,B|273:299|353:267,1,120,12|0
416,224,52849,1,0
344,184,53081,2,0,B|336:120,1,60
488,256,53547,2,0,B|496:328,1,60,8|0
480,168,54012,5,0
352,272,54477,1,0
488,256,54943,1,8
344,184,55408,1,8
136,144,55873,6,0,B|56:144,1,60
176,216,56339,1,0
216,288,56571,2,0,B|296:288,1,60
320,32,57269,5,0
416,256,57735,1,0
96,128,58200,1,0
192,352,58665,1,0
312,48,59130,5,0
352,208,59363,1,0
328,128,59596,2,0,B|400:112,2,60,0|0|8
440,184,60294,5,0
448,224,60410,1,0
456,264,60526,2,0,B|320:296,1,120
352,368,61224,1,0
328,208,61457,2,0,B|192:240,1,120
112,352,62155,2,0,B|228:324,1,120
192,144,62853,1,8
96,264,63318,5,0
64,104,63551,1,0
80,184,63784,2,0,B|152:168,2,60
424,112,64714,5,0
488,152,64947,1,0
376,224,65180,1,0
400,296,65412,1,0
264,168,65645,1,0
232,240,65878,1,0
136,152,66110,1,8
152,224,66343,1,0
24,224,66575,1,8
88,272,66808,1,0
168,352,67041,5,4
344,336,67273,1,0
256,344,67506,2,0,B|240:216,1,120,0|8
232,144,68204,2,0,B|224:64,2,60,8|8|0
232,144,68902,5,0
336,104,69135,1,0
440,136,69367,1,0
440,136,69833,1,8
440,232,70065,1,0
344,264,70298,1,8
192,256,70763,6,0,B|128:264|96:328,2,120,0|0|8
56,176,72159,5,0
128,152,72392,1,0
176,88,72625,1,8
176,88,72857,1,0
176,88,73090,1,0
288,152,73323,1,0
408,96,73555,1,8
256,272,74021,5,0
256,272,74253,1,0
176,264,74486,1,0
136,328,74719,1,0
288,344,74951,1,0
368,352,75184,1,0
312,208,75416,1,8
288,136,75649,1,0
264,64,75882,6,0,B|176:64,1,60,4|0
120,136,76347,2,0,B|192:136,1,60
216,208,76812,2,0,B|144:208,2,60,8|0|12
336,296,77743,5,8
264,272,77976,1,0
336,216,78208,1,0
408,200,78441,1,0
336,136,78674,1,0
264,112,78906,1,8
336,56,79139,1,0
408,80,79372,1,0
480,136,79604,1,8
408,160,79837,1,0
336,136,80070,2,0,B|336:239|232:239|208:167|256:103,1,240,0|4
480,192,82396,5,8
32,192,82862,1,0
256,192,83327,1,8
256,192,83559,1,0
256,192,83792,1,0
256,32,84257,5,8
256,352,84723,1,0
184,96,85188,5,0
216,168,85421,1,0
128,120,85653,1,2
184,176,85886,1,0
88,160,86119,1,0
160,192,86351,1,2
64,208,86584,1,0
104,216,86700,1,0
144,224,86817,1,2
64,264,87049,1,2
144,256,87282,1,2
232,248,87515,1,4
256,352,87980,5,8
256,352,88213,1,8
256,352,88445,1,8
192,64,88911,1,0
224,208,89376,1,4
64,160,89841,5,8
256,352,90307,1,0
256,352,90539,1,0
256,352,90772,1,8
345,110,91237,1,0
501,316,91702,1,8
224,208,92168,1,4
248,40,92633,5,0
328,40,92866,1,0
288,104,93098,2,0,B|240:216,1,120
280,224,93680,1,0
320,232,93796,1,2
360,240,93913,1,0
400,248,94029,2,0,B|450:378,2,120,2|2|4
400,248,95425,5,8
368,272,95541,1,0
336,296,95658,1,0
304,320,95774,1,0
272,344,95890,1,8
200,312,96123,1,8
128,280,96356,1,8
192,240,96588,1,8
256,192,96821,1,4
136,56,111711,5,4
136,56,111944,1,0
136,56,112176,2,0,B|88:72|88:136|152:152,1,120,8|8
184,184,112874,2,0,B|184:264,2,60,0|8|0
248,184,113572,2,0,B|248:120,2,60,0|0|8
272,240,114270,1,0
328,240,114503,1,8
328,240,114619,1,0
328,240,114736,1,8
352,184,114968,1,8
448,192,115434,6,0,B|488:224|488:264|448:296,1,120,0|8
512,296,116132,2,0,B|368:296,1,120,0|8
336,296,116829,1,8
293,253,117062,1,0
293,193,117295,2,0,B|293:113,2,60,0|0|8
160,192,118225,2,0,B|160:256,2,60,0|0|8
128,136,118923,2,0,B|24:136,2,90,0|0|8
160,80,119854,1,0
160,80,120087,2,0,B|176:56|256:56|280:88,1,120,0|8
328,112,120785,1,0
392,80,121017,2,0,B|392:208,2,120,8|8|8
456,112,122181,1,0
456,112,122413,1,8
432,224,122879,5,0
432,224,123111,1,0
432,224,123344,2,0,B|464:248|464:312|432:336,1,120,8|0
376,336,124042,1,0
336,288,124275,2,0,B|256:288,1,60,8|0
168,336,124740,2,0,B|248:336,1,60,8|0
72,288,125205,2,0,B|160:288,1,60,8|0
232,240,125670,2,0,B|160:240,1,60,8|8
136,192,126136,2,0,B|76:192,1,60,8|8
184,80,126601,6,0,B|272:80,1,60,4|0
280,96,126950,1,0
312,112,127066,2,0,B|392:112,1,60,8|0
372,172,127532,2,0,B|444:172,2,60,0|0|8
372,232,128230,1,0
328,272,128462,1,0
328,272,128579,1,0
328,272,128695,1,0
288,312,128928,1,8
288,312,129160,2,0,B|160:312,1,120,0|0
168,312,129858,1,8
168,312,130091,1,8
120,272,130324,6,0,B|88:256|88:184|120:160,1,120,0|8
114,104,131022,1,0
114,104,131254,2,0,B|49:103,2,60,0|0|8
160,61,131952,1,0
160,61,132185,2,0,B|231:60,2,60,0|8|8
160,120,132883,1,0
160,176,133115,1,8
160,176,133232,1,0
160,176,133348,1,8
216,176,133581,5,0
216,176,133813,2,0,B|296:176,2,60,0|4|0
176,224,134511,1,8
176,224,134744,2,0,B|96:224,2,60,0|4|0
176,288,135442,1,8
200,344,135675,1,0
264,344,135907,1,0
288,288,136140,1,8
288,288,136256,1,0
288,288,136373,1,8
232,288,136605,2,0,B|232:144,1,120
280,128,137303,6,0,B|360:128,1,60,8|0
352,216,137769,2,0,B|408:272,1,60
272,288,138234,2,0,B|256:368,1,60,8|0
144,264,138699,2,0,B|72:288,1,60,8|0
80,160,139165,2,0,B|32:104,1,60,8|0
184,24,139630,2,0,B|184:160,2,120,4|4|4
256,96,141956,5,8
256,96,142189,1,0
256,96,142422,2,0,B|256:8,2,60,8|0|8
200,144,143120,1,0
104,144,143352,1,4
256,344,143818,5,8
256,344,144050,1,0
256,344,144283,2,0,B|256:272,1,60,8|0
288,232,144748,5,4
288,232,144981,2,0,B|376:232,2,60,0|8|0
256,176,145679,2,0,B|176:176,2,60,0|0|8
256,112,146377,1,0
312,80,146610,1,8
368,112,146842,1,0
368,176,147075,5,8
368,176,147191,1,0
368,176,147308,1,0
312,208,147540,2,0,B|360:280,2,60,8|0|8
256,240,148238,1,8
192,272,148471,1,8
112,240,148704,1,8
16,272,148936,1,12
352,192,149402,5,0
352,192,149634,1,0
352,192,149867,2,0,B|440:192,2,60,8|0|8
304,136,150565,1,0
304,56,150797,1,4
104,192,151263,5,8
104,192,151495,1,0
104,192,151728,2,0,B|176:192,1,60,8|0
216,224,152193,2,0,B|216:312,1,60
248,168,152659,2,0,B|248:88,1,60
304,200,153124,2,0,B|384:200,1,60,8|0
272,256,153589,2,0,B|304:280|304:352|256:372,2,120,0|8|8
272,128,154985,5,0
272,128,155102,1,0
272,128,155218,1,0
272,64,155451,2,0,B|352:64,2,60,8|8|8
96,80,171271,5,4
168,56,171504,1,0
312,64,171737,1,8
240,88,171969,1,0
208,184,172202,1,8
280,160,172435,1,0
280,160,172551,1,0
280,160,172667,1,8
352,136,172900,1,8
464,184,173133,5,4
320,232,173365,1,0
392,208,173598,1,8
432,272,173831,2,0,B|256:336,1,180,8|8
232,264,174761,5,8
88,312,174994,1,0
160,288,175226,2,0,B|128:216,1,60,0|8
40,192,175692,2,0,B|156:140,1,120,0|8
300,76,176390,2,0,B|244:100,1,60,8|0
160,56,176855,5,4
196,124,177088,1,8
236,192,177320,1,0
276,260,177553,1,8
348,232,177786,1,0
276,260,178018,1,8
204,288,178251,1,8
132,316,178484,5,0
132,316,178716,2,0,B|132:180,1,120,0|8
132,140,179414,1,0
132,140,179647,2,0,B|132:68,2,60,8|0|8
188,140,180345,1,0
188,140,180578,2,0,B|276:140,2,60,0|8|8
188,196,181276,1,8
244,196,181508,1,8
244,196,181625,1,0
244,196,181741,1,8
284,236,181974,5,8
244,276,182206,1,0
188,276,182439,2,0,B|124:276,1,60,8|0
28,220,182904,2,0,B|100:220,1,60,8|0
188,148,183369,2,0,B|124:148,1,60,8|0
28,52,183835,2,0,B|100:52,1,60,8|0
220,52,184300,5,10
300,52,184533,1,2
356,124,184765,1,4
276,124,184998,1,0
252,196,185231,1,2
332,196,185463,1,0
364,268,185696,1,2
324,268,185812,1,0
284,268,185929,1,2
244,340,186161,1,4
251,86,189884,6,0,B|224:72|192:80,1,60,8|0
216,168,190349,1,8
242,250,190582,2,0,B|216:256|184:248,1,60,0|8
288,320,191280,5,0
288,320,191512,1,0
288,320,191745,1,0
64,256,192210,1,8
128,32,192676,1,0
352,96,193141,1,8
120,112,193606,6,0,B|136:40|216:16,1,120,0|8
336,56,194537,2,0,B|408:72|432:152,1,120,0|8
392,272,195468,2,0,B|376:344|296:368,1,120,0|8
176,328,196398,2,0,B|104:312|80:232,1,120
448,128,197329,5,0
448,128,197562,1,0
448,128,197794,2,0,B|480:152|480:216|448:240,1,120,8|0
392,304,198492,1,0
336,240,198725,2,0,B|256:240,1,60,8|0
224,304,199190,2,0,B|160:304,1,60,0|0
128,224,199655,2,0,B|208:224,1,60,8|0
240,160,200121,2,0,B|320:160,2,60,0|0|8
136,24,201051,5,0
232,48,201284,1,0
328,56,201517,1,8
448,120,201982,1,0
368,152,202215,1,0
288,168,202447,1,8
176,224,202913,1,0
242,251,203145,1,0
312,264,203378,1,8
384,328,203843,1,0
330,352,204076,1,0
272,360,204309,1,8
128,136,204774,6,0,B|120:72|176:32,1,120,0|8
176,32,205472,1,0
176,32,205705,1,8
368,40,206170,5,8
336,112,206403,1,0
288,176,206635,1,8
232,232,206868,1,8
160,264,207101,1,8
224,304,207333,1,0
248,320,207450,1,0
272,328,207566,1,8
344,344,207798,1,8
424,352,208031,1,8
416,192,208496,6,0,B|416:128,2,60,0|0|8
256,192,209427,2,0,B|192:192,2,60,0|0|8
96,192,210358,2,0,B|96:256,2,60,0|0|8
256,192,211288,1,0
236,316,211754,6,0,B|316:316,1,60,8|0
353,271,212219,2,0,B|385:207,1,60,4|0
363,142,212684,2,0,B|299:78,1,60,8|0
232,64,213150,6,0,B|160:80,1,60,0|0
112,176,213615,2,0,B|122:238,1,60,8|0
256,312,214080,2,0,B|256:192,2,120,4|0|4
