osu file format v7

[General]
AudioFilename: hikari no naka ni.mp3
AudioLeadIn: 0
PreviewTime: 193030
Countdown: 0
SampleSet: Soft
StackLeniency: 0.2
Mode: 0
LetterboxInBreaks: 1

[Editor]
Bookmarks: 12298,29859,41566,53274,64981,76688,88396,100103,111810,117664,123518,146932,158640,195225,247908
DistanceSpacing: 1.5
BeatDivisor: 4
GridSize: 8

[Metadata]
Title:Hikari no Naka ni
Artist:KOKIA
Creator:Open [no map]
Version:Yami
Source:Artonelico III
Tags:Artonelico Artonelico3 GUST banpresto SAKI

[Difficulty]
HPDrainRate:5
CircleSize:5
OverallDifficulty:7
SliderMultiplier:1.4
SliderTickRate:0.5

[Events]
//Background and Video events
0,0,"bg.jpg"
//Break Periods
2,123717,134325
2,135425,143106
2,170546,247008
//Storyboard Layer 0 (Background)
//Storyboard Layer 1 (Fail)
//Storyboard Layer 2 (Pass)
//Storyboard Layer 3 (Foreground)
//Storyboard Sound Samples
//Background Colour Transformations
3,100,163,162,255

[TimingPoints]
24006,731.707317073171,4,2,1,20,1,0
26932,-100,4,2,1,20,0,1
27664,-100,4,2,1,30,0,0
29859,-100,4,2,1,30,0,0
76688,-100,4,2,1,80,0,1
87847,-100,4,2,1,70,0,0
96262,-200,4,2,1,70,0,0
99188,-100,4,2,1,70,0,0
100103,-100,4,2,1,70,0,1
111627,-200,4,2,1,70,0,0
112359,-200,4,2,1,70,0,0
123518,-200,4,2,1,70,0,1
124249,-200,4,2,1,70,0,0

[Colours]
Combo1 : 151,227,238
Combo2 : 254,133,126

[HitObjects]
46,262,12298,1,2
63,235,12481,1,2
209,173,13030,1,2
196,198,13213,1,2
303,143,13579,1,0
325,116,13762,1,6
364,124,13945,1,0
382,97,14127,1,2
448,251,14859,1,0
328,262,15225,5,2
355,291,15408,1,2
198,219,15957,1,2
219,245,16140,1,2
95,178,16688,1,2
51,111,17054,1,8
466,262,18152,5,2
449,235,18335,1,2
303,173,18884,1,2
316,198,19067,1,2
209,143,19433,1,0
187,116,19616,1,6
148,124,19798,1,0
130,97,19981,1,2
64,251,20713,1,0
184,262,21079,5,2
157,291,21262,1,2
323,217,21811,1,2
302,241,21994,1,2
419,171,22542,1,2
446,149,22725,1,0
466,120,22908,1,8
463,85,23091,1,0
435,63,23274,1,0
400,57,23457,1,2
365,60,23640,1,2
332,73,23823,1,2
304,94,24006,5,6
279,120,24188,1,2
144,150,24737,1,2
117,184,24920,1,2
170,272,25286,1,2
203,292,25469,1,2
245,291,25652,1,0
285,276,25835,1,2
256,112,26566,1,2
256,112,26932,5,6
344,294,29859,5,4
390,270,30042,1,0
431,237,30225,1,0
456,191,30408,1,0
464,139,30591,1,0
115,122,32054,1,0
72,153,32237,1,0
39,194,32420,1,0
20,243,32603,1,0
55,281,32786,5,0
102,264,32969,1,0
144,233,33152,1,0
172,188,33335,1,0
181,136,33518,1,0
363,115,34798,1,0
394,73,34981,1,0
445,80,35164,1,0
477,120,35347,1,0
491,170,35530,1,0
485,222,35713,5,4
436,201,35896,1,0
410,154,36079,1,0
394,103,36262,1,0
387,50,36445,1,0
436,201,38091,1,0
400,162,38274,1,0
378,114,38457,1,0
364,63,38640,5,0
436,201,39554,1,0
389,175,39737,1,0
354,134,39920,1,0
330,87,40103,5,0
277,92,40286,1,0
229,119,40469,1,0
199,162,40652,1,0
146,162,40835,5,0
101,190,41018,1,0
65,229,41201,1,0
50,279,41384,1,0
94,305,41566,5,4
145,294,41749,1,0
183,258,41932,1,0
184,65,43762,1,0
235,76,43945,1,0
274,109,44127,1,0
292,157,44310,1,0
255,194,44493,5,0
220,157,44676,1,0
238,109,44859,1,0
277,76,45041,1,0
328,65,45224,1,0
220,157,46506,1,0
238,109,46689,1,0
290,104,46871,1,0
334,132,47054,1,0
364,175,47237,1,0
379,225,47420,5,4
296,290,48518,1,0
343,268,48701,1,0
379,225,48884,5,0
512,257,49798,1,0
466,283,49981,1,0
416,264,50164,1,0
379,225,50347,5,0
466,283,51262,1,0
416,264,51445,1,0
379,225,51628,1,0
355,178,51810,5,0
303,186,51993,1,0
268,225,52176,1,0
170,186,52542,1,0
128,218,52725,1,0
76,206,52908,1,0
34,171,53091,1,0
24,119,53274,5,4
212,221,55652,1,0
238,173,55835,1,0
270,213,56018,1,0
293,165,56201,1,4
404,61,58579,1,0
444,99,58762,1,0
473,145,58945,1,0
443,188,59127,5,0
391,179,59310,1,0
348,147,59493,1,0
318,103,59676,1,0
304,52,59859,1,0
189,120,61688,1,0
144,147,61871,1,0
113,189,62054,1,0
27,250,62969,1,0
79,230,63152,1,0
113,189,63335,1,0
149,150,63518,5,0
198,168,63701,1,0
240,198,63884,1,0
276,235,64066,1,0
327,246,64249,5,0
360,286,64432,1,0
412,279,64615,1,0
454,248,64798,1,0
481,203,64981,5,4
255,247,67542,1,0
255,299,67725,1,0
258,89,70469,1,0
258,141,70652,1,0
256,192,73762,5,4
98,128,74676,1,0
149,118,74859,1,0
193,90,75042,1,0
206,39,75225,5,0
257,27,75408,1,0
307,39,75591,1,0
349,70,75774,1,0
389,103,75957,5,0
408,151,76140,1,0
459,139,76323,1,0
491,98,76506,1,0
463,54,76688,6,0,B|405:39|346:75,1,105,4|0
312,45,77420,1,0
312,97,77603,1,0
266,70,77786,1,0
261,122,77969,1,0
261,122,78701,1,0
214,98,78884,1,0
212,150,79066,1,0
167,122,79249,1,0
164,174,79432,1,0
116,157,79615,6,0,B|186:169|210:244,1,105
245,191,80347,1,0
277,232,80530,1,0
299,184,80713,1,0
328,227,80896,1,0
350,179,81079,1,0
485,120,82176,1,0
436,100,82359,1,0
395,66,82542,6,0,B|337:55|293:99,1,105,4|0
259,58,83274,1,0
247,109,83457,1,0
211,70,83640,1,0
196,120,83823,1,0
159,82,84006,2,0,B|94:57|8:72,2,140
191,123,85652,1,0
216,77,85835,1,0
247,119,86018,1,0
331,67,86384,1,0
307,113,86566,1,0
274,71,86749,1,0
249,117,86932,1,0
91,208,88030,6,0,B|41:217,1,35
91,208,88396,2,0,B|152:201|187:143,1,105,4|0
146,113,89127,2,0,B|169:95|197:87,1,35
210,135,89493,2,0,B|229:126|248:100,1,35
212,66,89859,1,0
263,75,90042,1,0
243,26,90225,1,0
459,189,90774,1,0
432,234,90957,1,0
401,190,91140,1,0
379,238,91323,6,0,B|327:260|261:248,1,105
247,206,92054,1,0
219,250,92237,1,0
194,203,92420,1,0
165,247,92603,1,0
140,200,92786,1,0
115,246,92969,1,0
89,200,93152,1,0
60,244,93335,1,0
135,105,93884,5,0
176,73,94066,1,0
222,49,94249,2,0,B|279:19|370:23,2,140,4|0|0
175,74,95896,1,0
133,106,96079,1,0
99,146,96262,1,0
148,162,96445,2,0,B|182:154|183:112,1,52.5
256,352,98274,6,0,B|256:248,1,87.5
225,201,99371,1,0
286,167,99554,1,0
225,132,99737,1,0
281,90,99920,1,0
217,60,100103,6,0,B|139:62|76:116,2,140,4|0|0
287,59,101749,1,0
354,76,101932,1,0
412,113,102115,1,0
448,172,102298,1,0
411,112,102481,1,0
351,74,102664,1,0
283,56,102847,1,0
217,60,103030,2,0,B|139:62|76:116,2,140
219,129,104676,1,0
220,199,104859,1,0
223,268,105042,1,0
117,192,105591,5,0
52,165,105774,1,0
58,234,105957,2,0,B|98:281|156:290,1,105,4|0
213,306,106688,2,0,B|240:311|268:308,3,35
247,309,107420,1,0
481,154,108518,1,0
439,208,108701,1,0
410,144,108884,6,0,B|383:92|331:67,1,105
337,70,109615,2,0,B|365:34,1,35
337,70,109981,2,0,B|316:24,1,35
267,63,110347,1,0
197,71,110530,1,0
134,102,110713,1,0
74,320,111445,6,0,B|39:327,1,35
74,320,111810,2,0,B|116:312|141:308,1,52.5,4|0
191,285,112542,1,0
259,297,112725,1,0
322,327,112908,1,0
372,375,113091,1,0
440,361,113274,1,0
489,311,113457,1,0
474,242,113640,1,0
411,209,113823,1,0
419,278,114006,1,0
351,260,114188,1,0
289,226,114371,1,0
244,171,114554,1,0
304,136,114737,1,0
255,85,114920,1,0
185,95,115103,1,0
126,133,115286,1,0
88,73,115469,1,0
45,128,115652,1,0
71,192,115835,1,0
34,251,116018,1,0
68,312,116201,1,0
114,259,116384,1,0
162,209,116566,1,0
226,182,116749,1,0
264,240,116932,5,0
303,182,117115,1,0
350,130,117298,1,0
411,96,117481,1,0
479,81,117664,1,4
303,182,118579,1,0
350,130,118762,1,0
390,73,118945,1,0
392,3,119128,5,0
303,182,120042,1,0
359,141,120225,1,0
426,122,120408,1,0
494,134,120591,6,0,B|520:164|523:183|517:204|502:216|481:203|460:199|434:205|428:221|432:238|448:244|460:260|459:272|457:287|443:296|424:284|407:292|412:310|411:323|402:342|385:355,1,280,4|0
256,192,135225,5,4
256,344,144006,6,0,B|256:80,1,245
256,32,146932,6,0,B|200:29|136:45|96:82,1,140
116,116,148579,1,0
138,163,148762,1,0
178,196,148945,1,0
224,220,149127,1,0
273,237,149310,1,0
324,247,149493,1,0
366,277,149676,1,0
384,326,149859,6,0,B|331:369|235:356,1,140
198,351,151506,1,0
147,338,151688,1,0
101,311,151871,1,0
73,266,152054,1,0
77,213,152237,1,0
115,177,152420,1,0
164,158,152603,1,0
216,157,152786,6,0,B|300:162|347:91,1,140
371,59,154432,1,0
418,36,154615,1,0
468,50,154798,1,0
500,90,154981,1,0
504,142,155164,1,0
491,193,155347,1,0
453,229,155530,1,0
404,251,155713,6,0,B|326:279|259:226,1,140
270,234,157542,1,0
39,338,158274,1,0
91,334,158457,1,0
143,328,158640,6,0,B|225:323|289:291,1,140
326,275,160286,1,0
371,249,160469,1,0
413,218,160652,1,0
439,172,160835,1,0
446,120,161018,1,0
427,70,161201,1,0
384,39,161384,1,0
334,23,161566,6,0,B|258:7|172:41,1,140
152,62,163213,1,0
122,105,163396,1,0
116,157,163579,1,0
137,204,163762,1,0
184,227,163945,1,0
236,227,164127,1,0
287,218,164310,1,0
338,207,164493,6,0,B|387:211|411:178,1,70,0|0
431,138,165407,1,0
385,112,165590,1,0
345,147,165773,1,0
338,208,165957,6,0,B|387:204|411:237,1,70
431,276,166872,1,0
385,302,167055,1,0
345,267,167238,1,0
338,207,167420,6,0,B|400:230|435:186|481:214,2,140
32,32,247908,5,0
32,32,249371,5,0
