osu file format v10

[General]
AudioFilename: Kokia - Fate.mp3
AudioLeadIn: 0
PreviewTime: 46356
Countdown: 0
SampleSet: Soft
StackLeniency: 0.7
Mode: 0
LetterboxInBreaks: 0

[Editor]
Bookmarks: 19240,46933,76356,102317,117894,133471,160586,192317
DistanceSpacing: 1
BeatDivisor: 4
GridSize: 4

[Metadata]
Title:Fate
TitleUnicode:
Artist:KOKIA
ArtistUnicode:
Creator:meiikyuu
Version:Twin Blades
Source:Break Blade
Tags:broken lunarsakuya collab
BeatmapID:168612
BeatmapSetID:55606

[Difficulty]
HPDrainRate:7
CircleSize:4
OverallDifficulty:7
ApproachRate:8
SliderMultiplier:2
SliderTickRate:2

[Events]
//Background and Video events
0,0,"blade1.jpg"
//Break Periods
2,9097,18531
2,104088,117185
//Storyboard Layer 0 (Background)
//Storyboard Layer 1 (Fail)
//Storyboard Layer 2 (Pass)
//Storyboard Layer 3 (Foreground)
Sprite,Foreground,Centre,"SB\meiifate2.png",320,240 F,0,18992,19280,0,1 M,0,18992,46396,457,393 S,0,18992,46396,0.6 F,0,19280,45963,1 F,0,45963,46396,1,0 F,0,76107,76396,0,1 S,0,76107,102357,0.6 F,0,76396,102213,1 F,0,102213,102357,1,0 F,0,117646,117934,0,1 S,0,117646,133223,0.6 F,0,117934,132790,1 F,0,132790,133223,1,0 F,0,160915,161203,0,1 S,0,160915,192069,0.6 F,0,161203,191636,1 F,0,191636,192069,1,0
Sprite,Foreground,Centre,"SB\lunarfate2.png",320,240 M,0,46684,,444,396 F,0,46684,46973,0,1 S,0,46684,76107,0.6 F,0,46973,75674,1 F,0,75674,76107,1,0 F,0,133223,133511,0,1 S,0,133223,160915,0.6 F,0,133511,160482,1 F,0,160482,160915,1,0 F,0,192069,192357,0,1 S,0,192069,218319,0.6 F,0,192357,218174,1 F,0,218174,218319,1,0
//Storyboard Sound Samples
//Background Colour Transformations
3,100,163,162,255

[TimingPoints]
1973,576.923076923077,3,2,1,65,1,0
5434,-100,3,2,1,20,0,0
19280,-100,3,2,1,65,0,0
46973,-83.3333333333333,3,2,1,65,0,1
74665,-83.3333333333333,3,2,0,50,0,1
76396,-83.3333333333333,3,2,1,65,0,0
117934,-100,3,2,1,65,0,0
133511,-83.3333333333333,3,2,1,65,0,1
149088,-117.647058823529,3,2,1,65,0,1
149665,-100,3,2,1,65,0,1
160338,-100,3,2,1,30,0,1
160626,-100,3,2,1,65,0,1
190626,-100,3,2,0,50,0,1
191780,-83.3333333333333,3,2,1,65,0,1
192357,-83.3333333333333,3,2,1,65,0,0

[Colours]
Combo1 : 0,255,128
Combo2 : 83,83,168
Combo3 : 0,128,255
Combo4 : 0,128,128

[HitObjects]
256,192,5435,12,4,8897,0:0:0
212,104,19281,6,0,B|200:152|232:192|232:192|280:244|252:300,1,200,4|0,0:0|0:0,0:0:0
372,208,20146,1,0,0:0:0
257,290,20434,1,0,0:0:0
140,208,20724,1,0,0:0:0
208,96,21012,2,0,B|256:72|304:96,1,100,4|0,0:0|0:0,0:0:0
329,304,21589,2,0,B|320:352|256:396|188:356|181:286,1,200
256,172,22454,1,0,0:0:0
128,107,22743,6,0,B|132:160|176:192,1,100,4|0,0:0|0:0,0:0:0
171,319,23320,2,0,B|224:316|256:272,1,100
340,64,23897,2,0,B|288:68|256:112,1,100
336,192,24474,1,2,0:0:0
404,264,24762,1,0,0:0:0
172,96,25050,2,0,B|200:156|308:156|340:96,1,200
256,40,25916,1,0,0:0:0
256,344,26204,5,4,0:0:0
172,288,26493,2,0,B|200:228|308:228|340:288,1,200
412,220,27358,1,0,0:0:0
339,288,27647,1,0,0:0:0
220,168,27935,2,0,B|179:129|185:77,1,100,2|0,0:0|0:0,0:0:0
322,203,28512,2,0,B|294:256|256:276,1,100
132,188,29089,1,0,0:0:0
256,76,29377,5,0,0:0:0
256,128,29522,1,0,0:0:0
256,176,29666,2,0,B|256:280,1,100,4|0,0:0|0:0,0:0:0
404,244,30243,1,0,0:0:0
256,128,30531,1,0,0:0:0
108,244,30820,1,0,0:0:0
256,312,31108,1,0,0:0:0
424,144,31397,6,0,B|388:48,1,100,2|0,0:0|0:0,0:0:0
123,50,31974,2,0,B|88:144,1,100,0|0,0:0|0:0,0:0:0
336,196,32550,1,0,0:0:0
324,236,32695,1,0,0:0:0
300,268,32839,1,0,0:0:0
264,284,32983,1,0,0:0:0
228,268,33127,6,0,B|160:204|208:128|208:128|264:152,1,200,6|0,0:0|0:0,0:0:0
392,306,33993,2,0,B|300:268,1,100
256,72,34570,1,0,0:0:0
414,211,34858,2,0,B|425:261|392:306,1,100,2|0,0:0|0:0,0:0:0
120,306,35435,2,0,B|82:235|101:154,1,150
108,120,36012,1,0,0:0:0
296,188,36300,1,0,0:0:0
200,156,36589,6,0,B|184:208|220:256,1,100,6|0,0:0|0:0,0:0:0
392,220,37166,2,0,B|408:168|372:120,1,100
216,251,37743,1,0,0:0:0
340,340,38031,1,0,0:0:0
460,252,38320,1,2,0:0:0
412,108,38608,1,0,0:0:0
140,189,38897,2,0,B|168:112|260:112|287:189,1,200
214,259,39762,1,0,0:0:0
68,124,40050,6,0,B|96:72|144:52,1,100,4|0,0:0|0:0,0:0:0
287,191,40627,2,0,B|304:228|484:264|452:76|296:112|348:264|392:296,1,300
256,368,41781,1,2,0:0:0
171,184,42070,2,0,B|208:124|304:124|340:184,1,200
256,244,42935,1,0,0:0:0
256,44,43223,1,0,0:0:0
256,192,43512,12,0,46397,0:0:0
208,192,46974,6,0,B|152:80|224:24|288:24|372:80|300:204,1,360.000008583069,4|0,0:0|0:0,0:0:0
256,320,48127,1,0,0:0:0
144,244,48416,1,0,0:0:0
132,216,48560,1,0,0:0:0
132,184,48704,2,0,B|144:116|224:92,1,120.000002861023,6|0,0:0|0:0,0:0:0
404,52,49281,2,0,B|392:120|312:144,1,120.000002861023
256,312,49858,1,0,0:0:0
256,312,50147,6,0,B|188:288|180:216,1,120.000002861023,0|6,0:0|0:0,0:0:0
196,120,50723,1,0,0:0:0
196,120,50868,1,0,0:0:0
196,120,51012,2,0,B|140:12,2,120.000002861023
240,208,51877,1,0,0:0:0
108,188,52166,2,0,B|68:120|96:32|164:-8|260:8|304:96,1,360.000008583069,6|0,0:0|0:0,0:0:0
400,192,53320,5,0,0:0:0
300,296,53608,1,0,0:0:0
156,312,53897,2,0,B|84:304|64:224,1,120.000002861023,4|0,0:0|0:0,0:0:0
60,208,54329,1,0,0:0:0
60,176,54473,1,0,0:0:0
228,144,54762,1,0,0:0:0
400,76,55050,2,0,B|432:132|388:212,1,120.000002861023
228,144,55627,5,6,0:0:0
256,248,55916,1,0,0:0:0
256,248,56060,1,0,0:0:0
256,248,56204,2,0,B|348:336,2,120.000002861023,0|2|2,0:0|0:0|0:0,0:0:0
328,112,57070,1,0,0:0:0
184,40,57358,6,0,B|132:-4|52:4|4:88|48:156,1,239.999992675781,4|0,0:0|0:0,0:0:0
100,268,58223,1,0,0:0:0
100,268,58368,1,0,0:0:0
100,268,58512,1,0,0:0:0
240,228,58800,1,0,0:0:0
240,228,58945,1,0,0:0:0
240,228,59089,2,0,B|140:133,1,120.000002861023,6|0,0:0|0:0,0:0:0
340,340,59666,5,0,0:0:0
428,220,59954,1,0,0:0:0
384,44,60243,1,4,0:0:0
208,16,60531,1,0,0:0:0
108,88,60820,6,0,B|136:136|136:224|136:224|172:208|236:212,1,239.999992675781,4|0,0:0|0:0,0:0:0
332,128,61685,1,0,0:0:0
332,128,61829,1,0,0:0:0
332,128,61973,2,0,B|392:168|404:228,2,120.000002861023,0|0|6,0:0|0:0|0:0,0:0:0
276,248,62839,1,0,0:0:0
276,248,63127,1,0,0:0:0
184,332,63416,1,0,0:0:0
184,332,63560,1,0,0:0:0
184,332,63704,2,0,B|104:332|64:284,1,120.000002861023
56,148,64281,5,6,0:0:0
188,44,64570,1,0,0:0:0
220,36,64714,1,0,0:0:0
252,40,64858,1,0,0:0:0
368,132,65147,2,0,B|488:132,2,120.000002861023
368,132,66012,2,0,B|420:208|368:272|280:288|240:224,1,240.000005722046,4|0,0:0|0:0,0:0:0
284,152,66877,1,0,0:0:0
300,332,67166,5,0,0:0:0
120,232,67454,1,0,0:0:0
100,44,67743,2,0,B|184:12|264:104|336:64,1,239.999992675781,4|0,0:0|0:0,0:0:0
432,188,68608,1,0,0:0:0
432,188,68897,1,0,0:0:0
312,264,69185,1,0,0:0:0
312,264,69329,1,0,0:0:0
312,264,69473,6,0,B|196:296,1,120.000002861023,2|0,0:0|0:0,0:0:0
304,148,70050,2,0,B|420:119,1,120.000002861023
188,180,70627,2,0,B|72:132,1,120.000002861023,0|0,0:0|0:0,0:0:0
256,192,71204,12,0,72935,0:0:0
256,84,73223,5,0,0:0:0
256,84,73368,1,0,0:0:0
256,84,73512,2,0,B|384:84,1,120.000002861023,0|2,0:0|0:0,0:0:0
372,224,74089,1,0,0:0:0
192,320,74377,1,0,0:0:0
48,192,74666,5,6,0:0:0
464,192,75243,1,6,0:0:0
256,192,75820,6,0,B|256:224,4,30.0000007152558,0|0|0|0|2,0:0|0:0|0:0|0:0|0:0,0:0:0
184,96,76397,5,4,0:0:0
216,68,76541,1,0,0:0:0
256,60,76685,1,0,0:0:0
296,68,76829,1,0,0:0:0
328,96,76973,1,0,0:0:0
396,212,77262,1,2,0:0:0
316,300,77550,1,2,0:0:0
316,300,77695,1,0,0:0:0
316,300,77839,1,0,0:0:0
204,140,78127,5,0,0:0:0
204,172,78272,1,0,0:0:0
204,204,78416,1,0,0:0:0
204,236,78560,1,0,0:0:0
204,268,78704,1,2,0:0:0
272,52,78993,2,0,B|336:60|372:120,1,120.000002861023,2|0,0:0|0:0,0:0:0
384,156,79425,1,0,0:0:0
396,196,79570,1,0,0:0:0
396,236,79714,1,0,0:0:0
388,276,79858,5,4,0:0:0
276,320,80147,1,0,0:0:0
236,128,80435,1,4,0:0:0
136,292,80723,1,0,0:0:0
88,160,81012,2,0,B|96:96|156:56,1,120.000002861023,4|0,0:0|0:0,0:0:0
236,128,81589,1,6,0:0:0
236,128,81877,2,0,B|278:42|374:26|442:66|470:154|430:222,1,360.000008583069,0|0,0:0|0:0,0:0:0
324,164,83031,1,0,0:0:0
320,196,83175,1,0,0:0:0
304,224,83320,6,0,B|256:264|188:248,1,120.000002861023,6|0,0:0|0:0,0:0:0
168,276,83752,1,0,0:0:0
136,296,83897,1,0,0:0:0
32,224,84185,1,2,0:0:0
104,60,84473,2,0,B|144:108|144:172,1,120.000002861023,2|0,0:0|0:0,0:0:0
224,240,85050,5,4,0:0:0
244,216,85195,1,0,0:0:0
268,192,85339,1,0,0:0:0
288,168,85483,1,0,0:0:0
308,144,85627,1,0,0:0:0
248,52,85916,2,0,B|312:4|384:68,1,120.000002861023,2|2,0:0|0:0,0:0:0
424,136,86493,5,0,0:0:0
360,332,86781,1,4,0:0:0
160,248,87070,1,0,0:0:0
236,52,87358,1,4,0:0:0
396,152,87647,5,0,0:0:0
340,304,87935,1,4,0:0:0
188,232,88223,1,0,0:0:0
248,80,88512,1,6,0:0:0
188,232,88800,2,0,B|124:196|120:128,1,120.000002861023
244,132,89377,2,0,B|304:160|300:244,2,120.000002861023
324,56,90243,6,0,B|448:56,1,120.000002861023,6|0,0:0|0:0,0:0:0
408,152,90820,2,0,B|360:208|420:280,1,120.000002861023
360,300,91252,1,0,0:0:0
308,272,91397,2,0,B|276:328|204:328,1,120.000002861023
100,136,91973,2,0,B|140:80|216:76,1,120.000002861023,4|0,0:0|0:0,0:0:0
224,112,92406,1,0,0:0:0
236,148,92550,1,0,0:0:0
172,292,92839,1,0,0:0:0
228,312,92983,1,0,0:0:0
280,284,93127,1,0,0:0:0
344,188,93416,6,0,B|392:232|400:296,2,120.000002861023,0|6|0,0:0|0:0|0:0,0:0:0
272,96,94281,2,0,B|240:56|192:60|160:108,1,120.000002861023
196,164,94714,1,0,0:0:0
172,232,94858,2,0,B|141:270|93:266|70:230,1,120.000002861023
272,96,95435,6,0,B|294:60|342:56|373:94,1,120.000002861023,4|0,0:0|0:0,0:0:0
397,162,95868,1,0,0:0:0
371,231,96012,2,0,B|393:266|441:270|472:232,2,120.000002861023,0|2|2,0:0|0:0|0:0,0:0:0
256,192,96876,1,0,0:0:0
184,80,97166,5,4,0:0:0
164,116,97310,1,0,0:0:0
144,152,97454,1,0,0:0:0
120,188,97598,1,0,0:0:0
96,224,97743,1,2,0:0:0
272,192,98031,1,0,0:0:0
316,96,98320,2,0,B|344:40,2,60.0000014305115
360,324,98897,5,4,0:0:0
376,284,99041,1,0,0:0:0
392,244,99185,1,0,0:0:0
408,204,99329,1,0,0:0:0
420,164,99473,1,2,0:0:0
256,56,99762,2,0,B|256:180,1,120.000002861023
256,220,100195,1,0,0:0:0
256,260,100339,1,0,0:0:0
144,136,100627,5,4,0:0:0
172,104,100772,1,0,0:0:0
208,84,100916,1,0,0:0:0
248,76,101060,1,0,0:0:0
288,80,101204,1,2,0:0:0
468,192,101493,1,0,0:0:0
324,232,101781,5,0,0:0:0
296,264,101925,1,0,0:0:0
256,276,102070,1,0,0:0:0
216,264,102214,1,0,0:0:0
188,232,102358,1,4,0:0:0
396,140,117935,6,0,B|344:144|300:120,1,100,4|0,0:0|0:0,0:0:0
256,32,118512,1,2,0:0:0
256,208,118800,1,0,0:0:0
115,140,119089,2,0,B|168:144|212:120,1,100,0|4,0:0|0:0,0:0:0
340,260,119666,1,4,0:0:0
340,260,119954,2,0,B|392:236|412:192,1,100,0|0,0:0|0:0,0:0:0
256,68,120531,1,0,0:0:0
100,192,120820,1,0,0:0:0
124,224,120964,1,0,0:0:0
136,264,121108,1,0,0:0:0
144,304,121252,1,0,0:0:0
160,336,121397,6,0,B|208:364|260:336,1,100,4|0,0:0|0:0,0:0:0
380,192,121973,1,2,0:0:0
256,338,122262,1,0,0:0:0
132,192,122550,1,0,0:0:0
256,46,122839,2,0,B|256:148,1,100,4|4,0:0|0:0,0:0:0
256,244,123416,1,0,0:0:0
412,120,123704,2,0,B|496:48,1,100,2|0,0:0|0:0,0:0:0
332,200,124281,5,0,0:0:0
300,232,124425,1,0,0:0:0
256,244,124570,1,0,0:0:0
212,232,124714,1,0,0:0:0
180,200,124858,1,4,0:0:0
132,96,125147,5,0,0:0:0
80,204,125435,1,2,0:0:0
148,304,125723,1,0,0:0:0
364,304,126012,1,0,0:0:0
432,204,126300,1,4,0:0:0
380,96,126589,1,4,0:0:0
380,96,126877,6,0,B|328:120|312:184,1,100
236,68,127454,1,0,0:0:0
140,148,127743,1,0,0:0:0
120,204,127887,1,0,0:0:0
136,260,128031,1,0,0:0:0
184,296,128175,1,0,0:0:0
244,292,128320,6,0,B|344:264,1,100,4|0,0:0|0:0,0:0:0
248,40,128897,2,0,B|151:66,1,100,0|0,0:0|0:0,0:0:0
256,162,129473,2,0,B|355:133,1,100
344,264,130050,1,4,0:0:0
240,324,130339,1,0,0:0:0
128,288,130627,1,0,0:0:0
84,176,130916,1,0,0:0:0
144,72,131204,1,0,0:0:0
260,36,131493,1,0,0:0:0
368,92,131780,5,4,0:0:0
256,164,132070,1,0,0:0:0
376,212,132358,2,0,B|440:208|456:152,1,100,4|0,0:0|0:0,0:0:0
256,132,132935,1,0,0:0:0
256,164,133079,1,0,0:0:0
256,200,133223,1,0,0:0:0
256,232,133368,1,0,0:0:0
256,264,133512,6,0,B|196:312|120:284|80:208|132:136,1,240.000005722046,6|0,0:0|0:0,0:0:0
256,44,134377,1,0,0:0:0
256,340,134666,1,0,0:0:0
256,124,134954,1,0,0:0:0
256,124,135098,1,0,0:0:0
256,124,135243,2,0,B|304:199|416:196|458:124,1,239.999992675781,6|0,0:0|0:0,0:0:0
356,268,136108,1,0,0:0:0
356,60,136397,1,0,0:0:0
256,124,136685,5,0,0:0:0
256,124,136829,1,0,0:0:0
256,124,136973,2,0,B|196:176|108:144,1,120.000002861023,4|0,0:0|0:0,0:0:0
224,288,137550,2,0,B|296:276|348:304,1,120.000002861023,0|0,0:0|0:0,0:0:0
341,300,138127,1,0,0:0:0
420,80,138416,1,0,0:0:0
420,80,138704,2,0,B|352:64|268:128|224:140|156:100,1,240.000005722046,6|0,0:0|0:0,0:0:0
187,114,139570,1,0,0:0:0
76,288,139858,5,0,0:0:0
256,336,140147,1,0,0:0:0
436,288,140435,1,6,0:0:0
456,120,140723,1,0,0:0:0
456,120,140868,1,0,0:0:0
456,120,141012,2,0,B|336:68,1,120.000002861023
188,108,141589,2,0,B|300:160,1,120.000002861023
412,148,142165,6,0,B|432:240|364:324,1,180.000004291535,6|0,0:0|0:0,0:0:0
308,316,142743,2,0,B|245:239|265:147,1,180.000004291535
204,148,143320,2,0,B|223:239|161:316,1,180.000004291535
256,192,143897,12,0,145627,0:0:0
256,116,145916,5,0,0:0:0
192,216,146204,1,0,0:0:0
308,308,146493,1,0,0:0:0
420,188,146781,1,0,0:0:0
344,32,147070,1,0,0:0:0
160,48,147358,6,0,B|72:80|56:192|132:248,1,240.000005722046,4|0,0:0|0:0,0:0:0
256,324,148223,1,0,0:0:0
256,284,148368,1,0,0:0:0
256,244,148512,1,0,0:0:0
256,204,148656,1,0,0:0:0
256,164,148800,1,0,0:0:0
368,248,149089,6,0,B|436:264|476:188|428:132,1,169.999992907048,6|0,0:0|0:0,0:0:0
256,40,149954,1,0,0:0:0
120,296,150243,6,0,B|88:248|108:180,1,100
208,104,150820,2,0,B|240:152|220:220,1,100,6|0,0:0|0:0,0:0:0
224,199,151252,1,0,0:0:0
224,199,151397,1,0,0:0:0
336,248,151685,1,0,0:0:0
144,164,151973,1,0,0:0:0
340,96,152262,1,0,0:0:0
256,28,152550,2,0,B|240:100|280:184|256:244,1,200,6|0,0:0|0:0,0:0:0
256,344,153416,1,0,0:0:0
104,192,153704,5,0,0:0:0
256,28,153993,1,0,0:0:0
404,88,154281,2,0,B|448:132|432:188,1,100,6|0,0:0|0:0,0:0:0
434,178,154714,1,0,0:0:0
434,178,154858,1,0,0:0:0
320,168,155147,2,0,B|224:208,2,100
200,120,156012,6,0,B|140:40,1,100,4|0,0:0|0:0,0:0:0
240,272,156589,2,0,B|300:352,1,100
284,160,157166,2,0,B|336:64,1,100
156,232,157743,2,0,B|104:328,1,100,4|0,0:0|0:0,0:0:0
108,319,158175,1,0,0:0:0
108,319,158320,1,0,0:0:0
76,128,158608,5,0,0:0:0
172,52,158897,1,0,0:0:0
292,88,159185,1,0,0:0:0
256,192,159473,12,0,160339,0:0:0
432,192,160627,5,0,0:0:0
256,56,160916,1,0,0:0:0
80,192,161204,2,0,B|168:240|200:364,1,200,6|0,0:0|0:0,0:0:0
48,328,162070,1,0,0:0:0
159,147,162358,1,0,0:0:0
359,230,162647,1,0,0:0:0
240,96,162935,2,0,B|184:100|152:160,1,100,2|0,0:0|0:0,0:0:0
144,180,163368,1,0,0:0:0
140,208,163512,1,0,0:0:0
320,184,163800,6,0,B|376:160|380:100,1,100
140,208,164377,1,0,0:0:0
304,328,164666,2,0,B|432:296|432:144,1,200,6|0,0:0|0:0,0:0:0
320,168,165531,2,0,B|340:108|284:64,1,100
192,216,166108,2,0,B|172:276|228:320,2,100,0|4|0,0:0|0:0|0:0,0:0:0
304,56,166974,1,0,0:0:0
304,56,167118,1,0,0:0:0
304,56,167262,1,0,0:0:0
248,140,167550,2,0,B|288:176|352:176,1,100
424,116,168127,6,0,B|464:172|448:240|392:276|344:280,1,200,6|0,0:0|0:0,0:0:0
500,264,168993,1,0,0:0:0
340,176,169281,1,0,0:0:0
192,264,169570,1,0,0:0:0
140,96,169858,2,0,B|188:120,1,50,6|0,0:0|0:0,0:0:0
240,40,170147,2,0,B|264:88,1,50
318,148,170435,2,0,B|360:112|344:56,1,100,0|0,0:0|0:0,0:0:0
224,212,171012,1,0,0:0:0
248,240,171156,1,0,0:0:0
280,260,171300,1,0,0:0:0
108,176,171589,6,0,B|168:84,1,100,6|0,0:0|0:0,0:0:0
272,136,172166,1,0,0:0:0
272,136,172310,1,0,0:0:0
272,136,172454,2,0,B|324:152|376:128,1,100
336,284,173031,1,0,0:0:0
336,284,173320,5,4,0:0:0
168,244,173608,1,0,0:0:0
128,68,173897,1,4,0:0:0
168,244,174184,1,0,0:0:0
340,252,174473,1,0,0:0:0
344,80,174762,1,0,0:0:0
340,252,175050,6,0,B|336:308|392:372|452:308|448:252,1,200,6|0,0:0|0:0,0:0:0
256,84,175916,1,0,0:0:0
160,192,176204,1,0,0:0:0
256,300,176493,1,0,0:0:0
104,92,176781,2,0,B|32:136|36:232|84:280,1,200,6|0,0:0|0:0,0:0:0
160,192,177647,1,0,0:0:0
256,48,177935,6,0,B|304:68|320:120,1,100
256,336,178512,2,0,B|208:316|191:263,2,100,4|0|0,0:0|0:0|0:0,0:0:0
256,48,179377,1,0,0:0:0
396,192,179666,1,0,0:0:0
256,336,179954,1,0,0:0:0
116,192,180243,1,4,0:0:0
116,192,180531,2,0,B|184:216|232:180|324:208,1,200
248,317,181397,6,0,B|300:324|340:284,1,100
340,100,181974,2,0,B|300:60|236:68,1,100,6|0,0:0|0:0,0:0:0
216,68,182406,1,0,0:0:0
188,80,182550,1,0,0:0:0
184,196,182839,1,0,0:0:0
188,80,183127,1,0,0:0:0
180,316,183416,1,0,0:0:0
188,80,183704,6,0,B|128:76|96:132,1,100,4|0,0:0|0:0,0:0:0
180,316,184281,2,0,B|231:319|264:272,1,100
102,122,184858,1,0,0:0:0
124,148,185002,1,0,0:0:0
152,164,185147,1,0,0:0:0
188,172,185291,1,0,0:0:0
216,176,185435,6,0,B|252:228|252:228|312:184|408:208,1,200,6|0,0:0|0:0,0:0:0
384,64,186300,1,0,0:0:0
468,204,186589,1,0,0:0:0
384,348,186877,1,0,0:0:0
292,204,187166,1,4,0:0:0
292,204,187454,1,0,0:0:0
156,68,187743,5,0,0:0:0
156,68,187887,1,0,0:0:0
156,68,188031,1,0,0:0:0
72,192,188320,1,0,0:0:0
156,316,188608,1,0,0:0:0
156,316,188752,1,0,0:0:0
156,316,188897,1,6,0:0:0
300,249,189185,2,0,B|304:308|256:332,1,100
404,196,189761,6,0,B|460:216,1,50
334,110,190048,2,0,B|378:86,1,50
240,80,190337,2,0,B|264:32,1,50
172,168,190626,5,6,0:0:0
172,204,191204,1,6,0:0:0
252,372,191781,6,0,B|264:344|264:344|248:336|248:336|264:324|264:324|248:316|248:316|264:304|264:304|248:296|248:296|264:284|264:284|248:276|248:276|264:264|264:264|248:256|248:256|264:244|264:244|252:224,1,239.999992675781,0|4,0:0|0:0,0:0:0
256,184,192502,1,0,0:0:0
256,140,192647,1,0,0:0:0
256,100,192791,1,0,0:0:0
256,60,192935,6,0,B|324:20|448:56,1,180.000004291535
448,92,193512,2,0,B|408:136|420:208,1,120.000002861023
320,292,194089,1,6,0:0:0
288,268,194233,1,0,0:0:0
248,256,194377,1,0,0:0:0
204,260,194522,1,0,0:0:0
168,284,194666,1,0,0:0:0
132,52,194954,2,0,B|172:104|148:168,1,120.000002861023
56,232,195531,5,0,0:0:0
48,192,195675,1,0,0:0:0
64,152,195820,2,0,B|140:100|248:136,1,180.000004291535,4|0,0:0|0:0,0:0:0
236,192,196397,2,0,B|344:224|424:144,1,180.000004291535,4|0,0:0|0:0,0:0:0
448,204,196974,2,0,B|420:324|328:360,1,180.000004291535,4|0,0:0|0:0,0:0:0
292,352,197550,1,0,0:0:0
144,208,197839,1,0,0:0:0
144,208,198127,6,0,B|304:220|368:76|224:-20|96:76|160:236|352:208,1,480.000011444092,0|6,0:0|0:0,0:0:0
344,176,199425,1,0,0:0:0
392,160,199570,1,0,0:0:0
440,176,199714,1,0,0:0:0
468,216,199858,1,0,0:0:0
372,44,200147,1,0,0:0:0
248,100,200435,1,0,0:0:0
212,124,200579,1,0,0:0:0
168,128,200724,1,0,0:0:0
80,200,201012,5,6,0:0:0
112,228,201156,1,0,0:0:0
136,264,201300,1,0,0:0:0
148,304,201445,1,0,0:0:0
152,344,201589,1,0,0:0:0
268,272,201877,2,0,B|276:196|340:152,1,120.000002861023
424,60,202454,5,0,0:0:0
424,60,202599,1,0,0:0:0
424,60,202743,2,0,B|448:168|368:236,1,180.000004291535,4|0,0:0|0:0,0:0:0
256,236,203320,2,0,B|256:52,1,180.000004291535,4|0,0:0|0:0,0:0:0
88,60,203897,2,0,B|64:168|144:236,1,180.000004291535,4|0,0:0|0:0,0:0:0
328,144,204473,2,0,B|316:92|256:52|256:52|192:96|184:148,1,239.999992675781,4|0,0:0|0:0,0:0:0
256,312,205339,2,0,B|256:176,1,120.000002861023
164,268,205916,5,0,0:0:0
108,104,206204,1,4,0:0:0
108,104,206349,1,0,0:0:0
108,104,206493,2,0,B|184:88|236:152,1,120.000002861023
256,40,207070,1,0,0:0:0
404,104,207358,2,0,B|328:88|276:152,1,120.000002861023
140,236,207935,2,0,B|172:336|256:360|256:360|344:332|380:228,1,360.000008583069,6|0,0:0|0:0,0:0:0
140,236,209089,1,0,0:0:0
378,232,209377,1,0,0:0:0
140,148,209666,6,0,B|172:48|256:24|256:24|344:52|380:156,1,360.000008583069,4|0,0:0|0:0,0:0:0
256,312,210820,1,0,0:0:0
256,120,211108,1,0,0:0:0
256,312,211397,1,4,0:0:0
256,312,211541,1,0,0:0:0
256,312,211685,2,0,B|368:260,1,120.000002861023
188,228,212262,2,0,B|88:160,1,120.000002861023,2|2,0:0|0:0,0:0:0
176,48,212839,1,0,0:0:0
312,96,213127,5,6,0:0:0
328,136,213272,1,0,0:0:0
360,168,213416,1,0,0:0:0
400,184,213560,1,0,0:0:0
440,184,213704,1,0,0:0:0
424,64,213993,1,0,0:0:0
360,272,214281,1,0,0:0:0
216,112,214570,1,0,0:0:0
200,288,214858,5,6,0:0:0
184,248,215002,1,0,0:0:0
152,216,215147,1,0,0:0:0
112,200,215291,1,0,0:0:0
72,200,215435,1,0,0:0:0
88,320,215724,1,0,0:0:0
216,112,216012,1,0,0:0:0
256,96,216156,1,0,0:0:0
296,112,216300,1,0,0:0:0
352,264,216589,5,6,0:0:0
304,280,216733,1,0,0:0:0
256,288,216877,1,0,0:0:0
208,280,217022,1,0,0:0:0
160,264,217166,1,0,0:0:0
256,48,217454,1,0,0:0:0
144,136,217743,5,0,0:0:0
200,160,217887,1,0,0:0:0
256,176,218031,1,0,0:0:0
312,160,218175,1,0,0:0:0
368,136,218320,1,4,0:0:0
