osu file format v10

[General]
AudioFilename: Kokia - Fate.mp3
AudioLeadIn: 0
PreviewTime: 46356
Countdown: 0
SampleSet: Soft
StackLeniency: 0.7
Mode: 0
LetterboxInBreaks: 0

[Editor]
Bookmarks: 19240,46933,76356,102317,117894,133471,160586,192317
DistanceSpacing: 0.8
BeatDivisor: 4
GridSize: 4

[Metadata]
Title:Fate
TitleUnicode:Fate
Artist:KOKIA
ArtistUnicode:KOKIA
Creator:meiikyuu
Version:Normal
Source:Break Blade
Tags:broken lunarsakuya collab
BeatmapID:168819
BeatmapSetID:55606

[Difficulty]
HPDrainRate:3
CircleSize:3
OverallDifficulty:3
ApproachRate:4
SliderMultiplier:1.5
SliderTickRate:2

[Events]
//Background and Video events
0,0,"blade1.jpg"
//Break Periods
2,9096,17960
2,104088,116614
//Storyboard Layer 0 (Background)
//Storyboard Layer 1 (Fail)
//Storyboard Layer 2 (Pass)
//Storyboard Layer 3 (Foreground)
//Storyboard Sound Samples
//Background Colour Transformations
3,100,163,162,255

[TimingPoints]
1973,576.923076923077,3,2,1,50,1,0
5434,-100,3,2,1,20,0,0
19280,-100,3,2,1,65,0,0
46973,-90.9090909090909,3,2,1,65,0,1
74665,-90.9090909090909,3,2,1,65,0,1
76396,-90.9090909090909,3,2,1,65,0,0
117934,-100,3,2,1,65,0,0
133511,-90.9090909090909,3,2,1,65,0,1
190626,-100,3,2,1,65,0,1
191780,-90.9090909090909,3,2,1,65,0,1
192357,-90.9090909090909,3,2,1,65,0,0

[Colours]
Combo1 : 0,255,128
Combo2 : 83,83,168
Combo3 : 0,128,255
Combo4 : 0,128,128

[HitObjects]
256,192,5434,12,4,8896,0:0:0
64,240,19280,6,0,B|136:292|216:236,2,150,4|0|0,0:0|0:0|0:0,0:0:0
136,144,21011,1,4,0:0:0
256,124,21588,2,0,B|328:104|328:104|376:120|384:168,2,150,0|0|4,0:0|0:0|0:0,0:0:0
256,244,23319,2,0,B|272:332|376:324,1,150
440,228,24473,2,0,B|472:152,1,75,2|0,0:0|0:0,0:0:0
460,100,25049,2,0,B|428:64|400:56|400:56|368:64|336:100,1,150
256,184,26203,6,0,B|224:220|196:228|196:228|164:220|134:186,2,150,4|0|0,0:0|0:0|0:0,0:0:0
340,96,27934,2,0,B|380:72|382:37,1,75,2|0,0:0|0:0,0:0:0
384,128,28511,2,0,B|429:139|455:116,1,75
392,184,29088,2,0,B|415:224|459:228,1,75
452,284,29665,2,0,B|384:284|328:336|328:336|240:296|236:192,1,300,2|0,0:0|0:0,0:0:0
128,160,31396,5,0,0:0:0
224,88,31973,1,0,0:0:0
340,112,32549,1,0,0:0:0
412,208,33126,6,0,B|392:260|352:268|352:268|340:304|296:320,1,150,4|0,0:0|0:0,0:0:0
256,208,34280,1,0,0:0:0
199,312,34857,2,0,B|172:304|160:268|160:268|120:260|100:208,1,150
168,108,36011,2,0,B|208:88|232:48,1,75
260,108,36588,6,0,B|260:148|304:184,1,75,2|0,0:0|0:0,0:0:0
352,176,37165,2,0,B|391:166|408:130,2,75
256,268,38319,2,0,B|196:280|124:220|132:128|196:76|276:92,1,300,2|0,0:0|0:0,0:0:0
332,180,40049,5,2,0:0:0
416,264,40626,2,0,B|388:324|332:336|332:336|312:372,1,150
256,368,41492,1,0,0:0:0
196,368,41780,2,0,B|178:336|178:336|122:324|94:264,1,150,2|0,0:0|0:0,0:0:0
192,196,42934,2,0,B|272:196,1,75
256,192,43511,12,0,46396,0:0:0
180,192,46973,6,0,B|188:244|256:284|256:284|320:244|336:191,1,247.500007553101,4|0,0:0|0:0,0:0:0
296,128,48126,2,0,B|256:112|215:128,1,82.5000025177003
180,56,48703,2,0,B|260:24|340:57,1,165.000005035401,2|0,0:0|0:0,0:0:0
404,84,49569,2,0,B|492:84,2,82.5000025177003
396,148,50434,5,2,0:0:0
308,244,51011,1,0,0:0:0
176,244,51588,2,0,B|88:244,1,82.5000025177003
28,244,52165,1,2,0:0:0
104,136,52742,1,0,0:0:0
224,192,53319,2,0,B|248:232|300:228,1,82.5000025177003
348,188,53896,6,0,B|356:116|424:100|424:100|468:140,2,165.000005035401,2|0|0,0:0|0:0|0:0,0:0:0
296,232,55338,2,0,B|252:249|198:226,1,82.5000025177003,0|2,0:0|0:0,0:0:0
164,188,55915,2,0,B|156:116|88:100|88:100|44:140,1,165.000005035401
36,192,56780,1,0,0:0:0
116,296,57357,6,0,B|160:224|256:196|352:224|396:296,1,330.000010070801,6|0,0:0|0:0,0:0:0
256,324,59088,1,4,0:0:0
256,192,59665,1,4,0:0:0
256,60,60242,1,0,0:0:0
256,124,60530,1,0,0:0:0
312,160,60819,6,0,B|392:192|448:132|452:52|368:12,1,247.500007553101,6|0,0:0|0:0,0:0:0
316,12,61972,1,0,0:0:0
192,52,62549,2,0,B|115:21|59:81|55:161|124:193,1,247.500007553101,2|0,0:0|0:0,0:0:0
188,212,63703,2,0,B|228:192|272:204,1,82.5000025177003
332,216,64280,6,0,B|404:248|404:340|404:340|308:376,1,247.500007553101,6|0,0:0|0:0,0:0:0
256,344,65434,2,0,B|256:256,2,82.5000025177003,0|0|2,0:0|0:0|0:0,0:0:0
197,373,66299,2,0,B|108:340|108:340|108:248|180:216,1,247.500007553101
196,152,67453,1,0,0:0:0
256,124,67742,6,0,B|304:96|376:112|392:200,1,165.000005035401,2|0,0:0|0:0,0:0:0
332,216,68607,2,0,B|320:256|332:296,2,82.5000025177003
264,216,69472,2,0,B|252:260|218:283,1,82.5000025177003,2|0,0:0|0:0,0:0:0
200,204,70049,2,0,B|160:226|120:219,1,82.5000025177003
164,148,70626,2,0,B|119:135|92:95,1,82.5000025177003
256,192,71203,12,0,74088,0:0:0
256,264,74665,5,6,0:0:0
256,264,75242,1,6,0:0:0
152,72,76396,6,0,B|108:80|88:124,2,82.5000025177003,4|0|0,0:0|0:0|0:0,0:0:0
216,92,77261,2,0,B|220:136|264:168,1,82.5000025177003
256,228,77838,1,0,0:0:0
256,292,78126,2,0,B|220:317|216:361,2,82.5000025177003,4|0|0,0:0|0:0|0:0,0:0:0
324,292,78992,2,0,B|416:328,1,82.5000025177003
452,284,79569,1,0,0:0:0
452,220,79857,6,0,B|444:172|412:144,1,82.5000025177003,4|0,0:0|0:0,0:0:0
352,172,80434,2,4,B|320:136|320:88,1,82.5000025177003,4|0,0:0|0:0,0:0:0
256,84,81011,2,0,B|232:128|188:148,1,82.5000025177003,4|0,0:0|0:0,0:0:0
156,192,81588,2,0,B|100:224|104:296|104:296|160:336,1,165.000005035401,4|0,0:0|0:0,0:0:0
256,260,82742,1,0,0:0:0
373,320,83319,6,0,B|408:296|408:296|412:224|356:192,1,165.000005035401,4|0,0:0|0:0,0:0:0
256,108,84472,2,0,B|228:144|256:196,1,82.5000025177003
288,240,85049,2,0,B|311:281|283:317,1,82.5000025177003,4|0,0:0|0:0,0:0:0
228,352,85626,1,0,0:0:0
172,320,85915,2,0,B|128:304|76:324,2,82.5000025177003
228,352,86780,5,4,0:0:0
256,224,87357,1,4,0:0:0
276,92,87934,1,4,0:0:0
380,172,88511,2,0,B|364:212|316:228,1,82.5000025177003,4|0,0:0|0:0,0:0:0
256,224,89088,2,0,B|200:152|96:152|40:228,1,247.500007553101
44,292,90242,5,6,0:0:0
160,356,90819,1,0,0:0:0
256,264,91396,2,0,B|348:264,1,82.5000025177003
404,264,91972,1,6,0:0:0
336,152,92549,1,0,0:0:0
204,148,93126,2,0,B|152:144|112:108,1,82.5000025177003
60,120,93703,6,0,B|32:196|96:244|96:244|96:316|168:336,1,247.500007553101,6|0,0:0|0:0,0:0:0
216,332,94857,2,0,B|304:332,1,82.5000025177003
361,329,95434,2,0,B|416:316|416:244|416:244|480:196|452:120,1,247.500007553101,6|0,0:0|0:0,0:0:0
452,56,96588,2,0,B|404:40|364:72,1,82.5000025177003
340,124,97165,6,0,B|364:180|344:228|344:228|268:256,1,165.000005035401,6|0,0:0|0:0,0:0:0
224,248,98030,2,0,B|168:227|168:227|148:179|172:123,1,165.000005035401
172,59,98896,2,0,B|256:32|333:59,1,165.000005035401
416,160,100049,1,0,0:0:0
320,252,100626,5,6,0:0:0
212,180,101203,1,0,0:0:0
244,56,101780,1,0,0:0:0
376,36,102357,1,4,0:0:0
256,328,117934,6,0,B|320:360|380:320|380:256|380:256|444:216|420:140,1,300,4|0,0:0|0:0,0:0:0
340,60,119665,2,0,B|340:119|256:179|256:179|172:119|172:47,1,300,4|0,0:0|0:0,0:0:0
89,147,121396,2,0,B|68:216|132:256|132:256|132:320|192:360|256:328,1,300,4|0,0:0|0:0,0:0:0
256,208,123126,2,0,B|196:168|208:100|248:72|248:72|296:104|356:92|376:32,1,300,4|0,0:0|0:0,0:0:0
400,164,124857,6,0,B|408:252|348:304,1,150,4|0,0:0|0:0,0:0:0
256,372,126011,1,0,0:0:0
159,300,126588,2,0,B|104:252|112:164,1,150,4|0,0:0|0:0,0:0:0
188,72,127742,2,0,B|232:72|264:112,1,75
256,160,128319,6,0,B|232:196|235:230,1,75,4|0,0:0|0:0,0:0:0
308,188,128896,2,0,B|316:230|343:252,1,75
368,172,129472,2,0,B|404:195|438:192,1,75
256,192,130049,12,0,132934,0:0:0
181,158,133511,6,0,B|216:120|300:120|329:160,1,165.000005035401,6|0,0:0|0:0,0:0:0
320,228,134376,2,0,B|320:276|280:308,1,82.5000025177003
220,300,134953,2,0,B|187:274|187:226,2,82.5000025177003,0|2|0,0:0|0:0|0:0,0:0:0
92,260,136107,2,0,B|64:224|68:184,1,82.5000025177003
68,116,136684,1,0,0:0:0
104,60,136972,2,0,B|136:112|196:120|196:120|260:84,1,165.000005035401,2|0,0:0|0:0,0:0:0
256,160,137838,6,0,B|256:248,1,82.5000025177003
256,308,138415,1,0,0:0:0
300,356,138703,2,0,B|332:304|392:296|392:296|456:332,1,165.000005035401,2|0,0:0|0:0,0:0:0
400,196,139857,1,0,0:0:0
428,68,140434,6,0,B|364:64|316:116|316:180,1,165.000005035401,2|0,0:0|0:0,0:0:0
300,231,141299,2,0,B|260:247|206:228,1,82.5000025177003
260,108,142165,6,0,B|266:65|244:24,1,82.5000025177003,2|0,0:0|0:0,0:0:0
201,105,142742,2,0,B|175:70|128:56,1,82.5000025177003
153,145,143319,2,0,B|110:139|68:160,1,82.5000025177003
256,192,143896,12,0,146203,0:0:0
256,316,146780,5,0,0:0:0
372,252,147357,2,0,B|388:164|316:100,1,165.000005035401,6|0,0:0|0:0,0:0:0
192,103,148511,2,0,B|124:164|140:252,2,165.000005035401,0|2|0,0:0|0:0|0:0,0:0:0
256,220,150242,2,0,B|256:308,1,82.5000025177003
320,316,150819,6,0,B|424:304|448:216|448:216|416:136,1,247.500007553101,2|0,0:0|0:0,0:0:0
392,88,151972,1,0,0:0:0
260,68,152549,2,0,B|156:80|132:168|132:168|164:248,1,247.500007553101,2|0,0:0|0:0,0:0:0
188,296,153703,1,0,0:0:0
256,184,154280,5,2,0:0:0
356,268,154857,1,0,0:0:0
464,192,155434,2,0,B|472:140|456:108,1,82.5000025177003
392,124,156011,6,0,B|376:84|388:43,1,82.5000025177003,6|0,0:0|0:0,0:0:0
328,108,156588,2,0,B|288:91|268:53,1,82.5000025177003
268,136,157165,2,0,B|228:151|188:140,1,82.5000025177003
148,192,157742,2,0,B|196:264|292:304|388:264|428:184,1,330.000010070801,4|0,0:0|0:0,0:0:0
356,80,159472,5,0,0:0:0
424,192,160049,1,0,0:0:0
352,288,160626,2,0,B|328:328|272:340,1,82.5000025177003
236,336,161203,6,0,B|152:316|152:316|104:248|140:152,1,247.500007553101,6|0,0:0|0:0,0:0:0
196,192,162357,2,0,B|288:192,1,82.5000025177003
340,208,162934,2,0,B|372:121|324:53|324:53|240:33,1,247.500007553101,2|0,0:0|0:0,0:0:0
172,32,164088,1,0,0:0:0
88,128,164665,6,0,B|84:212|152:284,1,165.000005035401,2|0,0:0|0:0,0:0:0
256,204,165819,1,0,0:0:0
300,252,166107,1,0,0:0:0
365,277,166396,2,0,B|428:212|424:128,1,165.000005035401,2|0,0:0|0:0,0:0:0
308,96,167549,2,0,B|216:124,1,82.5000025177003
164,136,168126,6,0,B|80:136|44:220|44:220|88:312,1,247.500007553101,2|0,0:0|0:0,0:0:0
140,268,169280,2,0,B|216:324,1,82.5000025177003
256,272,169857,6,0,B|250:229|272:188,1,82.5000025177003,2|0,0:0|0:0,0:0:0
315,269,170434,2,0,B|341:234|388:220,1,82.5000025177003
363,309,171011,2,0,B|406:303|448:324,1,82.5000025177003
480,268,171588,2,0,B|504:176|480:88|400:44,1,247.500007553101,6|0,0:0|0:0,0:0:0
364,96,172742,2,0,B|332:124|284:128,1,82.5000025177003
224,128,173319,6,0,B|181:124|149:96,1,82.5000025177003,4|0,0:0|0:0,0:0:0
100,144,173896,2,0,B|60:164|8:152,2,82.5000025177003,4|0|2,0:0|0:0|0:0,0:0:0
132,200,174761,1,0,0:0:0
116,264,175049,6,0,B|160:336|256:364|352:336|396:264,1,330.000010070801,6|0,0:0|0:0,0:0:0
256,240,176780,1,0,0:0:0
256,108,177357,1,0,0:0:0
368,176,177934,2,0,B|440:128,1,82.5000025177003
400,76,178511,6,0,B|336:76|336:76|304:4|204:8|176:76|176:76|96:76,1,330.000010070801,2|0,0:0|0:0,0:0:0
100,208,180242,1,0,0:0:0
196,300,180819,1,0,0:0:0
256,184,181396,2,0,B|296:100,1,82.5000025177003
356,116,181973,6,0,B|436:84|492:144|496:224|412:264,1,247.500007553101,2|0,0:0|0:0,0:0:0
360,264,183126,1,0,0:0:0
256,184,183703,2,0,B|176:152|120:212|116:292|200:332,1,247.500007553101,2|0,0:0|0:0,0:0:0
252,332,184857,1,0,0:0:0
256,184,185434,6,0,B|256:96|256:96|168:56|100:116,1,247.500007553101,6|0,0:0|0:0,0:0:0
88,176,186588,2,0,B|68:216|92:264,1,82.5000025177003
108,320,187165,2,0,B|169:374|257:334|257:334|257:246,1,247.500007553101,4|0,0:0|0:0,0:0:0
312,208,188319,2,0,B|356:228|368:272,1,82.5000025177003
424,232,188896,6,0,B|460:144|424:64,1,165.000005035401,4|0,0:0|0:0,0:0:0
360,80,189761,2,0,B|316:96|272:72,1,82.5000025177003
212,76,190338,1,0,0:0:0
168,128,190626,5,6,0:0:0
168,128,191203,1,6,0:0:0
104,244,191780,6,0,B|180:288|280:272,1,165.000005035401,0|4,0:0|0:0,0:0:0
368,192,192934,1,0,0:0:0
256,124,193511,1,0,0:0:0
144,192,194088,1,4,0:0:0
172,320,194665,2,0,B|256:344|336:320,1,165.000005035401
440,244,195819,5,4,0:0:0
404,116,196396,1,4,0:0:0
292,44,196973,2,0,B|256:60|204:60,1,82.5000025177003,4|0,0:0|0:0,0:0:0
148,48,197549,2,0,B|108:80|104:124,1,82.5000025177003,4|0,0:0|0:0,0:0:0
164,144,198126,2,0,B|208:192|192:256|192:256|140:288,1,165.000005035401
256,364,199280,1,4,0:0:0
358,279,199857,6,0,B|320:256|320:256|304:192|348:144,1,165.000005035401
256,48,201011,2,0,B|256:132,2,82.5000025177003,4|0|0,0:0|0:0|0:0,0:0:0
188,48,201876,2,0,B|148:72|136:124,1,82.5000025177003
140,180,202453,2,0,B|140:272,1,82.5000025177003,0|4,0:0|0:0,0:0:0
256,324,203319,5,4,0:0:0
344,224,203896,1,4,0:0:0
312,96,204473,2,0,B|256:100|232:144|232:144|212:184|168:184,2,165.000005035401,4|0|0,0:0|0:0|0:0,0:0:0
404,192,206203,6,0,B|416:236|400:288,1,82.5000025177003,2|0,0:0|0:0,0:0:0
352,316,206780,2,0,B|308:344|260:344|260:344|196:304,1,165.000005035401
232,180,207934,2,0,B|188:152|140:152|140:152|76:192,2,165.000005035401,2|0|0,0:0|0:0|0:0,0:0:0
280,56,209665,6,0,B|328:40|380:40,1,82.5000025177003,6|0,0:0|0:0,0:0:0
376,104,210242,2,0,B|440:128|452:188|452:188|440:252,1,165.000005035401
324,180,211396,2,0,B|260:204|248:264|248:264|260:328,1,165.000005035401,2|0,0:0|0:0,0:0:0
384,344,212549,1,0,0:0:0
328,224,213126,6,0,B|352:168|332:120|332:120|256:92,1,165.000005035401,6|0,0:0|0:0,0:0:0
212,100,213992,2,0,B|156:121|156:121|136:169|160:225,1,165.000005035401
160,288,214857,2,0,B|244:324|340:284,1,165.000005035401,6|0,0:0|0:0,0:0:0
408,192,216011,1,0,0:0:0
320,92,216588,5,6,0:0:0
236,192,217165,1,0,0:0:0
156,88,217742,2,0,B|108:104|92:144,1,82.5000025177003
92,204,218319,1,4,0:0:0
