osu file format v9

[General]
AudioFilename: EXEC_COSMOFLIPS .mp3
AudioLeadIn: 0
PreviewTime: 104237
Countdown: 0
SampleSet: Soft
StackLeniency: 0.7
Mode: 0
LetterboxInBreaks: 1

[Editor]
Bookmarks: 51031,53399
DistanceSpacing: 1
BeatDivisor: 4
GridSize: 4

[Metadata]
Title:EXEC_COSMOFLIPS/.
Artist:KOKIA
Creator:galvenize
Version:Normal
Source:Ar tonelico 3
Tags:Qoga Knell of ar ciel Tyria

[Difficulty]
HPDrainRate:3
CircleSize:4
OverallDifficulty:4
ApproachRate:5
SliderMultiplier:1
SliderTickRate:1

[Events]
//Background and Video events
0,0,"bg.png"
//Break Periods
2,59140,73530
2,129993,144583
//Storyboard Layer 0 (Background)
//Storyboard Layer 1 (Fail)
//Storyboard Layer 2 (Pass)
//Storyboard Layer 3 (Foreground)
//Storyboard Sound Samples
//Background Colour Transformations
3,100,163,162,255

[TimingPoints]
520,394.736842105263,4,2,1,40,1,0
8316,-133.333333333333,4,2,1,40,0,0
9302,-100,4,2,1,40,0,0
11473,-133.333333333333,4,2,1,40,0,0
12445,-100,4,2,1,40,0,0
20552,-100,4,2,1,5,0,0
20947,-100,4,2,1,35,0,0
21144,-100,4,2,1,40,0,0
33564,-133.333333333333,4,2,1,40,0,0
39287,-100,4,2,1,40,0,0
58842,-100,4,2,1,5,0,0
59039,-100,4,2,1,40,0,0
74631,-100,4,2,1,30,0,0
74829,-100,4,2,1,40,0,0
87248,-133.333333333333,4,2,1,40,0,0
103052,-133.333333333333,4,2,1,5,0,0
103250,-133.333333333333,4,2,1,40,0,0
104631,-83.3333333333333,4,2,1,40,0,0
128301,-133.333333333333,4,2,1,40,0,0
145669,-100,4,2,1,30,0,0
145881,-100,4,2,1,40,0,0
164616,-133.333333333333,4,2,1,40,0,0
169368,-133.333333333333,4,2,1,5,0,0
170537,-100,4,2,1,40,0,0
172511,-133.333333333333,4,2,1,40,0,0
173498,-100,4,2,1,40,0,0
183169,-83.3333333333333,4,2,1,40,0,0
183677,-83.3333333333333,4,2,1,40,0,1
195519,-83.3333333333333,4,2,1,40,0,0
199368,-133.333333333333,4,2,1,40,0,0
204105,-133.333333333333,4,2,1,5,0,0

[Colours]
Combo1 : 89,168,193
Combo2 : 52,90,154
Combo3 : 245,194,245

[HitObjects]
100,120,6441,1,0
112,220,6835,2,0,B|172:224|220:184,1,100,8|0
308,196,7625,2,0,B|342:225|402:221,1,100,2|0
328,292,8414,2,0,B|296:296|256:280|256:280|220:296|176:292,1,149.999995529652,8|2
104,224,9598,6,0,B|112:192|108:160,1,50
104,124,9993,2,0,B|44:116|36:40,2,100,8|0|2
204,124,11177,1,0
256,40,11572,2,0,B|308:40|332:96|404:96,1,150,8|2
420,192,12756,5,0
404,292,13151,1,8
304,280,13546,2,0,B|276:284|256:296|256:296|232:284|200:276,1,100,0|2
212,180,14335,2,0,B|240:176|260:164|260:164|284:176|316:184,2,100,0|8|0
160,96,15519,1,2
256,60,15914,6,8,B|304:84|364:56,1,100,0|8
396,152,16704,2,0,B|343:162|313:221,1,100,0|2
220,204,17493,2,8,B|219:149|176:117,1,100,0|8
68,284,18677,1,2
256,192,18875,12,0,20651
256,132,21046,5,4
176,192,21441,1,0
256,252,21835,1,2
336,192,22230,2,8,B|388:192,1,50
436,192,22625,6,0,B|440:264|492:292,2,100,8|0|2
428,92,23809,1,8
328,80,24204,2,0,B|272:80|256:108|220:108,1,100,8|0
240,208,24993,2,0,B|296:208|312:180|348:180,1,100,2|8
348,280,25783,5,8
256,316,26177,1,0
164,280,26572,1,2
256,100,27362,5,8
256,200,27756,1,0
208,288,28151,2,0,B|236:292|256:304|256:304|280:292|312:288,2,100,2|8|8
120,340,29335,1,0
140,240,29730,1,2
52,192,30125,6,8,B|80:168|88:136,1,50
116,116,30519,2,0,B|172:140|224:116,1,100,8|0
284,48,31309,2,0,B|228:24|176:48,2,100,2|8|8
372,96,32493,2,0,B|416:56|484:60,2,100,0|2|8
304,168,33677,6,0,B|288:248|328:328,1,149.999995529652,8|2
256,352,34862,1,8
189,314,35256,2,0,B|224:248|208:168,1,149.999995529652,8|2
256,112,36441,1,8
312,60,36835,6,0,B|344:28|392:28|424:68|408:116,1,149.999995529652,8|2
356,160,38019,1,8
296,208,38414,2,0,B|264:240|272:288|310:309|352:296,1,149.999995529652,8|2
436,244,39598,2,8,B|440:216|436:188,1,50
424,144,39993,5,8
364,64,40388,1,0
304,144,40783,2,0,B|276:148|256:160|256:160|232:148|204:140,1,100,2|8
148,64,41572,1,8
256,232,42362,5,2
304,320,42756,1,8
256,340,42954,1,8
212,320,43151,1,8
256,192,43348,12,2,45519
308,160,45914,5,8
308,160,46112,1,8
308,160,46309,2,0,B|308:132|308:132|328:96|308:60,1,100,4|0
208,60,47098,2,0,B|208:88|208:88|188:124|208:160,1,100,2|8
160,244,47888,2,0,B|204:244|204:244|256:216|308:244|308:244|364:244,1,200,0|2
304,328,49072,5,8
256,344,49269,1,8
208,328,49467,1,8
124,276,49862,2,0,B|92:276|92:276|64:300|20:276,1,100,0|2
80,192,50651,1,8
20,112,51046,2,0,B|56:80|112:56|168:80|216:120,1,200,0|2
300,88,52230,5,8
276,132,52427,1,8
328,132,52625,1,8
428,140,53019,2,0,B|400:192|432:244,1,100,0|2
380,324,53809,1,8
380,324,54204,2,0,B|356:324|356:324|324:312|300:324|300:324|264:324,1,100,8|0
282,324,54993,1,2
256,228,55388,6,8,B|208:264,1,50
168,252,55783,2,0,B|140:248|116:224|120:192|140:168,1,100,8|0
100,100,56572,2,0,B|128:104|152:128|148:160|128:184,1,100,2|8
232,192,57362,2,0,B|332:172|332:228|440:184,2,200,0|2|0
148,232,74730,5,4
148,132,75125,2,0,B|156:96|156:96|200:92|212:52,1,100,0|2
308,64,75914,2,8,B|315:91|359:95|359:95|367:131,1,100
376,232,76704,1,0
376,232,77098,1,2
296,288,77493,5,8
264,248,77691,1,8
236,208,77888,2,0,B|180:236|128:200,1,100,8|0
140,108,78677,2,0,B|196:80|248:116,1,100,2|8
324,156,79467,2,0,B|364:156|364:156|404:176|432:152,2,100,8|0|2
256,344,81046,5,8
316,264,81441,2,0,B|288:220|308:152,1,100,0|2
204,168,82230,2,0,B|220:220|192:264,2,100,8|8|0
256,84,83414,1,2
356,76,83809,6,8,B|396:32,2,50
316,168,84598,2,0,B|300:220|320:268,1,100,0|2
392,336,85388,2,8,B|404:284|388:232,1,100,8|8
432,148,86177,1,0
464,52,86572,1,2
376,96,86967,1,8
332,188,87362,6,0,B|256:220|172:184,1,149.999995529652,8|2
140,132,88546,1,0
208,96,88941,2,0,B|236:72|264:88|284:52,2,74.9999977648259,8|0|2
140,132,90125,1,0
92,188,90519,6,0,B|132:268|84:336,2,149.999995529652,8|2|8
56,120,92493,1,0
88,52,92888,1,2
164,44,93283,1,0
236,68,93677,2,0,B|312:88|400:64,1,149.999995529652,8|2
304,192,95256,6,0,B|228:172|140:196,1,149.999995529652,8|2
100,244,96441,1,0
156,296,96835,2,0,B|232:316|320:292,2,149.999995529652,8|2|0
256,192,98612,12,0,103151
184,36,104335,5,8
184,36,104533,1,8
184,36,104730,2,0,B|192:69|192:69|168:120|220:152,1,120.000002861023,4|0
328,124,105519,2,0,B|319:157|319:157|343:208|291:240,1,120.000002861023,2|8
196,292,106309,6,0,B|164:348|112:316|88:356,2,120.000002861023,8|0|2
256,188,107493,1,8
276,132,107691,1,8
332,156,107888,1,8
412,248,108283,2,0,B|412:216|428:192|428:192|412:168|412:132,1,120.000002861023,0|2
340,36,109072,1,8
340,36,109467,2,0,B|272:136|120:124,1,240.000005722046,8|2
160,240,110651,5,8
196,288,110848,1,8
240,248,111046,1,8
304,148,111441,2,0,B|364:112|440:156,1,120.000002861023,0|2
440,28,112230,1,8
324,64,112625,2,0,B|260:88|200:60,2,120.000002861023,8|0|2
260,168,113809,6,8,B|288:140|332:144,2,60.0000014305115
256,288,114598,1,0
184,192,114993,1,2
256,96,115388,1,0
332,192,115783,1,8
332,192,116572,1,2
256,284,116967,5,8
208,324,117164,1,8
196,264,117362,1,12
120,172,117756,2,0,B|88:196|52:184,2,60.0000014305115,0|0|2
169,62,118546,1,8
224,164,118941,2,0,B|344:184|452:96,1,240.000005722046,8|2
464,220,120125,5,8
448,276,120322,1,8
404,232,120519,1,8
312,308,120914,2,0,B|280:304|256:288|256:288|228:304|172:316,1,120.000002861023,0|2
256,200,121704,1,8
152,144,122098,2,0,B|184:100|256:84|336:100|376:148,1,240.000005722046,8|2
256,200,123283,5,8
256,260,123480,1,8
204,232,123677,2,0,B|136:216|136:136,1,120.000002861023,8|0
192,40,124467,2,0,B|256:16|312:40,1,120.000002861023,2|8
364,68,125059,1,8
388,124,125256,2,0,B|404:196|476:224,2,120.000002861023,8|0|2
288,188,126441,5,8
256,240,126638,1,8
228,188,126835,1,8
256,72,127230,1,0
256,72,127625,1,2
140,100,128019,1,8
140,100,128414,2,0,B|84:164|136:240,1,149.999995529652,8|2
352,104,145783,6,0,B|256:36|164:108,1,200,4|2
124,132,146769,2,0,B|60:132,2,50
168,160,147362,2,0,B|264:228|356:156,1,200,8|2
448,192,148546,1,0
360,244,148941,6,0,B|256:292|148:236,1,200,8|2
132,212,149927,2,0,B|64:212,2,50
168,176,150519,2,0,B|272:128|380:184,1,200,8|2
411,178,151506,1,0
352,40,152098,6,0,B|256:72|140:40,1,200,8|2
108,64,153085,2,0,B|68:8,2,50
136,104,153677,2,0,B|160:184|128:256,1,150,8|0
176,272,154467,2,0,B|200:216|268:224,1,100,2|0
324,296,155256,6,0,B|416:232|392:112,1,200,8|2
380,72,156243,2,0,B|440:56,2,50
336,96,156835,2,0,B|280:184|144:156,1,200,8|2
112,140,157822,2,0,B|56:104,3,50,0|0|0|8
256,40,159204,5,2
384,192,159993,1,8
256,344,160783,1,2
178,281,161177,1,0
218,251,161375,1,0
172,230,161572,6,0,B|120:192|120:87|177:50,1,200,8|2
256,105,162756,1,0
339,53,163151,2,0,B|392:87|392:192|340:230,1,200,8|2
192,164,164730,6,0,B|124:194|145:278|216:315|264:259,1,224.999993294478,0|0
324,216,166309,2,0,B|391:185|370:101|299:64|251:120,1,224.999993294478,0|0
256,192,167888,12,0,169467
80,92,170651,6,8,B|80:148,1,50
80,192,171046,1,4
172,228,171441,1,0
256,172,171835,1,2
340,228,172230,1,0
432,192,172625,2,0,B|440:100|340:72,1,149.999995529652,8|2
256,84,173809,5,8
256,132,174006,1,8
256,184,174204,1,8
204,268,174598,2,0,B|260:284|308:268,2,100,0|2|8
156,180,175783,2,0,B|256:144|352:180,1,200,8|2
304,92,176967,5,8
256,76,177164,1,8
208,92,177362,1,8
124,144,177756,2,0,B|120:172|100:192|100:192|120:212|120:240,1,100,0|2
212,192,178546,1,8
212,192,178941,2,0,B|316:192,2,100,8|0|2
256,284,180125,5,8
256,284,180322,1,8
256,284,180519,1,8
348,248,180914,1,0
309,155,181309,2,0,B|281:107|309:51,1,100,2|8
205,59,182098,2,0,B|228:168|132:252,1,200,8|2
212,340,183283,5,8
236,284,183480,1,8
276,328,183677,2,0,B|344:316|372:260,1,120.000002861023,4|0
372,140,184467,2,0,B|345:86|277:74,1,120.000002861023,10|8
248,192,185256,2,0,B|120:192,2,120.000002861023,8|0|2
368,192,186441,5,8
428,192,186638,1,8
452,248,186835,2,0,B|484:188|440:128,1,120.000002861023,8|0
404,88,187427,1,0
344,100,187625,2,0,B|308:112|288:128|288:128|264:112|228:100,1,120.000002861023,2|8
216,160,188217,1,8
216,160,188414,2,0,B|260:172|276:216|244:252|208:256,2,120.000002861023,8|0|2
144,64,189598,5,8
88,84,189796,1,8
132,124,189993,2,0,B|64:160|80:228,1,120.000002861023,8|0
192,180,190783,2,0,B|206:241|138:277,1,120.000002861023,2|8
80,280,191375,1,8
140,276,191572,6,0,B|208:308|276:268,1,120.000002861023,8|0
256,216,192164,1,0
255,278,192362,2,0,B|304:308|372:276,1,120.000002861023,2|8
416,236,192954,5,8
456,192,193151,1,8
384,96,193546,1,0
304,188,193941,2,0,B|328:120|296:56,2,120.000002861023,2|8|8
256,312,195519,1,2
156,248,195914,5,8
152,188,196112,1,8
100,220,196309,1,8
96,100,196704,1,0
212,128,197098,1,2
296,40,197493,1,0
380,124,197888,1,8
380,124,198677,1,2
204,276,199467,6,0,B|152:212|196:128,1,149.999995529652,8|2
308,276,201046,2,0,B|360:212|316:128,1,149.999995529652,8|2
256,40,202625,6,0,B|256:192,2,149.999995529652,8|2|0
256,192,204401,12,0,207756
