osu file format v9

[General]
AudioFilename: im - exec cosmoflips.mp3
AudioLeadIn: 1000
PreviewTime: 46434
Countdown: 0
SampleSet: Normal
StackLeniency: 0.6
Mode: 0
LetterboxInBreaks: 0
UseSkinSprites: 1

[Editor]
DistanceSpacing: 1.6
BeatDivisor: 4
GridSize: 4

[Metadata]
Title:EXEC_COSMOFLIPS/.
Artist:KOKIA
Creator:Beren
Version:Tiria
Source:Ar tonelico III
Tags:pieces qoga knell of ar ciel tyria Kiiwa vivicat Bless DarkRingSystem

[Difficulty]
HPDrainRate:2
CircleSize:4
OverallDifficulty:2
ApproachRate:4
SliderMultiplier:1.12
SliderTickRate:1

[Events]
//Background and Video events
0,0,"BG.jpg"
//Break Periods
2,59469,73930
2,130521,144983
//Storyboard Layer 0 (Background)
//Storyboard Layer 1 (Fail)
//Storyboard Layer 2 (Pass)
//Storyboard Layer 3 (Foreground)
//Storyboard Sound Samples
//Background Colour Transformations
3,100,163,162,255

[TimingPoints]
1048,394.736842105263,4,1,1,50,1,0
1237,-100,4,2,1,50,0,0
2618,-100,4,1,1,50,0,0
2816,-100,4,2,1,50,0,0
4197,-100,4,1,1,50,0,0
4395,-100,4,2,1,50,0,0
5594,-100,4,1,1,50,0,0
6368,-100,4,2,1,20,0,0
6763,-100,4,2,1,40,0,0
7272,-100,4,1,1,50,0,0
7469,-100,4,2,1,40,0,0
8851,-100,4,1,1,50,0,0
9048,-100,4,2,1,40,0,0
10429,-100,4,1,1,50,0,0
10627,-100,4,2,1,40,0,0
12008,-100,4,1,1,50,0,0
12206,-100,4,2,1,40,0,0
13587,-100,4,1,1,50,0,0
13785,-100,4,2,1,40,0,0
15166,-100,4,1,1,50,0,0
15364,-100,4,2,1,40,0,0
16745,-100,4,1,1,50,0,0
16943,-100,4,2,1,40,0,0
17535,-100,4,1,1,50,0,0
17732,-100,4,2,1,40,0,0
21482,-100,4,1,1,50,0,0
21679,-100,4,2,1,30,0,0
23061,-100,4,1,1,50,0,0
23258,-100,4,2,1,30,0,0
24640,-100,4,1,1,50,0,0
24837,-100,4,2,1,30,0,0
26219,-100,4,1,1,50,0,0
26416,-100,4,2,1,30,0,0
27798,-100,4,1,1,50,0,0
27921,-100,4,2,1,30,0,0
29377,-100,4,1,1,50,0,0
29574,-100,4,2,1,30,0,0
30956,-100,4,1,1,50,0,0
31153,-100,4,2,1,30,0,0
32535,-100,4,1,1,50,0,0
32732,-100,4,2,1,30,0,0
46745,-100,4,1,1,50,0,0
46943,-100,4,2,1,40,0,0
48324,-100,4,1,1,50,0,0
48522,-100,4,2,1,40,0,0
49903,-100,4,1,1,50,0,0
50101,-100,4,2,1,40,0,0
51556,-100,4,1,1,50,0,0
51679,-100,4,2,1,40,0,0
53061,-100,4,1,1,50,0,0
53258,-100,4,2,1,40,0,0
54640,-100,4,1,1,50,0,0
54837,-100,4,2,1,40,0,0
56219,-100,4,1,1,50,0,0
56416,-100,4,2,1,40,0,0
57008,-100,4,1,1,50,0,0
57206,-100,4,2,1,40,0,0
57798,-100,4,1,1,50,0,0
57995,-100,4,2,1,40,0,0
58587,-100,4,1,1,50,0,0
58785,-100,4,2,1,40,0,0
75166,-100,4,1,1,50,0,0
75364,-100,4,2,1,30,0,0
76745,-100,4,1,1,50,0,0
76943,-100,4,2,1,30,0,0
78398,-100,4,1,1,50,0,0
78522,-100,4,2,1,30,0,0
79903,-100,4,1,1,50,0,0
80046,-100,4,2,1,30,0,0
81482,-100,4,1,1,50,0,0
81679,-100,4,2,1,30,0,0
83061,-100,4,1,1,50,0,0
83258,-100,4,2,1,30,0,0
84640,-100,4,1,1,50,0,0
84837,-100,4,2,1,30,0,0
86219,-100,4,1,1,50,0,0
86416,-100,4,2,1,30,0,0
103580,-200,4,2,1,30,0,0
105141,-100,4,1,1,50,0,0
105339,-100,4,2,1,30,0,0
106720,-100,4,1,1,50,0,0
106918,-100,4,2,1,30,0,0
108299,-100,4,1,1,50,0,0
108620,-100,4,2,1,30,0,0
109878,-100,4,1,1,50,0,0
110076,-100,4,2,1,30,0,0
111457,-100,4,1,1,30,0,0
111664,-100,4,2,1,30,0,0
113036,-100,4,1,1,50,0,0
113233,-100,4,2,1,30,0,0
114615,-100,4,1,1,50,0,0
114812,-100,4,2,1,30,0,0
116194,-100,4,1,1,50,0,0
116391,-100,4,2,1,30,0,0
117773,-100,4,1,1,50,0,0
117970,-100,4,2,1,30,0,0
119352,-100,4,1,1,50,0,0
119549,-100,4,2,1,30,0,0
120931,-100,4,1,1,50,0,0
121128,-100,4,2,1,30,0,0
122510,-100,4,1,1,50,0,0
122707,-100,4,2,1,30,0,0
124089,-100,4,1,1,50,0,0
124286,-100,4,2,1,30,0,0
125688,-100,4,1,1,50,0,0
125885,-100,4,2,1,30,0,0
127247,-100,4,1,1,50,0,0
127444,-100,4,2,1,30,0,0
128036,-100,4,1,1,30,0,0
128233,-100,4,2,1,30,0,0
128826,-100,4,1,1,50,0,0
129033,-100,4,2,1,50,0,0
146219,-100,4,1,1,30,0,0
146416,-100,4,2,1,30,0,0
169995,-100,4,2,1,10,0,0
170784,-100,4,2,1,30,0,0
171467,-100,4,1,1,50,0,0
173258,-100,4,2,1,30,0,0
174615,-100,4,1,1,50,0,0
174837,-100,4,2,1,30,0,0
176194,-100,4,1,1,50,0,0
176416,-100,4,2,1,30,0,0
176983,-100,4,1,1,50,0,0
177206,-100,4,2,1,30,0,0
177773,-100,4,1,1,50,0,0
177995,-100,4,2,1,30,0,0
179352,-100,4,1,1,50,0,0
179574,-100,4,2,1,30,0,0
180931,-100,4,1,1,50,0,0
181153,-100,4,2,1,30,0,0
181720,-100,4,1,1,50,0,0
181943,-100,4,2,1,30,0,0
184089,-100,4,1,1,50,0,0
184311,-100,4,2,1,30,0,0
185668,-100,4,1,1,50,0,0
185890,-100,4,2,1,30,0,0
187247,-100,4,1,1,50,0,0
187469,-100,4,2,1,30,0,0
188826,-100,4,1,1,50,0,0
189048,-100,4,2,1,30,0,0
190404,-100,4,1,1,50,0,0
190627,-100,4,2,1,30,0,0
191983,-100,4,1,1,50,0,0
192206,-100,4,2,1,30,0,0
193562,-100,4,1,1,50,0,0
193785,-100,4,2,1,30,0,0
194352,-100,4,1,1,50,0,0
194574,-100,4,2,1,30,0,0
195141,-100,4,1,1,50,0,0
195364,-100,4,2,1,30,0,0
195931,-100,4,1,1,50,0,0
196153,-100,4,2,1,30,0,0
196720,-100,4,1,1,50,0,0
196943,-100,4,2,1,30,0,0
198299,-100,4,1,1,50,0,0
198704,-100,4,2,1,30,0,0
199878,-100,4,1,1,50,0,0
200192,-100,4,1,1,5,0,0
200587,-100,4,2,1,30,0,0
201457,-100,4,1,1,50,0,0
201771,-100,4,1,1,5,0,0
202166,-100,4,1,1,50,0,0
203350,-100,4,1,1,5,0,0
203745,-100,4,1,1,50,0,0
206697,-100,4,2,1,30,0,0
207092,-100,4,2,0,35,0,0
207487,-100,4,2,0,30,0,0
207882,-100,4,2,0,25,0,0
208276,-100,4,2,0,20,0,0

[Colours]
Combo1 : 255,166,210
Combo2 : 255,128,128
Combo3 : 255,162,117
Combo4 : 171,224,99
Combo5 : 116,160,182
Combo6 : 86,171,171
Combo7 : 102,175,230
Combo8 : 215,135,228

[HitObjects]
160,160,1047,2,0,B|196:104|276:124,1,112,8|0
352,224,2626,2,0,B|316:280|236:260,1,112,8|0
160,160,4205,2,0,B|196:104|276:124,1,112,8|0
252,208,4995,2,0,B|204:240|204:240|240:288|204:340|204:340|272:380,1,224,0|4
256,192,6179,12,0,7363
256,56,8153,6,0,B|256:-4,2,56
188,112,8942,2,0,B|144:160|176:216,2,112
248,180,10126,6,0,B|280:232|240:300,1,112
320,236,10916,2,0,B|311:296|236:322,1,112
336,344,11705,2,0,B|279:366|219:315,1,112
168,260,12495,2,0,B|144:204|72:180,1,112
112,100,13284,6,0,B|188:92|228:40,1,112,0|0
280,116,14074,2,0,B|244:172|288:224,2,112
348,172,15258,2,0,B|384:224|452:216,1,112
448,128,16047,2,0,B|344:216|232:152,1,224
184,84,17232,2,0,B|136:120|156:200,1,112
68,212,18021,2,0,B|88:276|160:288,2,112,8|0|0
148,172,19205,2,0,B|311:240|364:112|256:4|144:112|186:243|377:168,1,448,8|0
456,152,21179,6,0,B|428:140|424:108,1,56,2|0
468,104,21574,2,0,B|503:146|499:212,2,112,0|0|0
404,40,22758,2,0,B|364:56|344:88,1,56,2|0
396,96,23153,2,0,B|372:116|364:152,1,56
412,152,23548,2,0,B|396:216|324:240,1,112
256,260,24337,6,0,B|280:208|224:188|268:136,2,112,2|0|0
308,188,25521,2,0,B|256:156|200:188,1,112,0|2
256,260,26311,2,0,B|300:288|372:256,1,112,0|0
368,172,27100,2,0,B|252:84|148:184,1,224,0|0
256,288,28679,6,0,B|296:332|380:312,2,112
256,108,30258,2,0,B|216:64|132:84,2,112,2|0|0
404,208,31837,2,0,B|288:272,1,112,2|0
204,260,32626,2,0,B|96:200,1,112
152,128,33416,2,0,B|264:56|376:144,1,224,2|0
360,280,35784,6,0,B|248:352|132:272,1,224,0|2
256,140,37363,2,0,B|240:192|272:192|252:264,1,112
312,320,38153,2,0,B|256:352|188:320,1,112,2|0
252,252,38942,2,0,B|180:248|136:200,2,112
256,168,40126,6,0,B|216:124|140:136,1,112
256,168,40916,2,0,B|200:180|172:240,1,112,0|2
184,328,41705,2,0,B|244:344,1,56,0|0
252,300,42100,2,0,B|316:300,1,56,2|0
296,256,42495,2,0,B|360:228,1,56
316,204,42890,2,0,B|276:160|204:160,2,112,2|0|2
256,192,44074,12,0,46047
284,260,46837,6,0,B|216:260,2,56,0|0|2
332,336,47626,2,0,B|380:288|360:216|360:216|400:196|408:132,1,224
256,64,49205,6,0,B|236:96|278:139|256:184,2,112
340,96,50390,2,0,B|336:156|392:208,2,112,2|0|0
424,124,51574,2,0,B|460:156|472:224,1,112,0|2
472,224,52363,2,0,B|464:284|416:320,1,112
344,272,53153,6,0,B|376:208,1,56
324,216,53547,2,0,B|368:184,1,56,2|0
340,148,53942,2,0,B|400:164,1,56
416,204,54337,2,0,B|432:264|380:316,1,112
316,360,55126,2,0,B|292:308|344:248,1,112,2|0
252,224,55916,2,0,B|300:196|288:112,2,112,0|0|2
204,148,57100,2,0,B|184:92|104:84,1,112
140,172,57890,2,0,B|164:224|216:240|292:208|288:132|248:100,1,224
168,192,75258,6,0,B|288:192,1,112,0|2
288,280,76047,2,0,B|376:236|376:140|276:96,2,224
256,192,78021,6,0,B|184:192,2,56
260,104,78811,2,0,B|192:84|152:132,1,112,2|0
156,126,79600,2,0,B|156:190|88:206,1,112
90,205,80390,2,0,B|126:257|194:261,1,112,2|0
256,208,81179,6,0,B|256:76,2,112,0|0|2
304,284,82363,2,0,B|376:260|408:204,1,112
395,222,83153,2,0,B|371:158|443:106,1,112,0|2
424,121,83942,2,0,B|368:140|316:101,1,112
228,104,84732,6,0,B|164:144|108:112,2,112,0|2|0
252,188,85916,2,0,B|312:232,1,56,2|0
268,256,86311,2,0,B|300:304,1,56
256,312,86705,2,0,B|184:320|144:268,1,112,2|0
164,368,87495,2,0,B|96:352|84:280,1,112
208,112,88679,6,0,B|260:108|260:108|268:116|268:116|332:112,1,112
356,192,89469,2,0,B|304:188|304:188|296:196|296:196|232:192,1,112,0|2
228,280,90258,2,0,B|280:276|280:276|288:284|288:284|352:280,1,112
416,240,91048,2,0,B|360:132|232:116,1,224
244,208,92232,6,0,B|300:212|340:284,1,112
268,332,93021,2,0,B|205:312|184:234,1,112,2|0
120,312,93811,2,0,B|56:204|116:92,1,224
184,152,94995,2,0,B|191:85|268:66,1,112
280,156,95784,2,0,B|280:216|216:252,1,112,0|2
224,248,96574,2,0,B|276:216|352:256,1,112
376,168,97363,6,0,B|308:164,2,56,0|0|2
416,184,97955,2,0,B|432:236,2,56,0|2|0
416,140,98548,2,0,B|460:72,2,56,0|0|2
336,96,99337,2,0,B|272:72|208:96,2,112,2|0|2
276,160,100521,6,0,B|224:200,1,56
268,220,100916,2,0,B|244:276,1,56,2|0
292,264,101311,2,0,B|324:320,1,56
344,276,101705,2,0,B|404:296,1,56,2|0
384,252,102100,2,0,B|456:240,1,56
408,208,102495,2,0,B|408:144|332:116,2,112,2|0|0
344,272,103679,2,0,B|312:304|236:312|180:296,1,168,8|8
164,204,105258,6,0,B|103:178|106:112|106:112|56:90|52:25,1,224
144,32,106442,1,0
104,112,106837,2,0,B|40:108|8:156,2,112,0|2|0
180,164,108021,6,0,B|244:176|296:108,1,112
180,164,108811,2,0,B|208:106|168:48,1,112,2|0
180,164,109600,2,0,B|113:140|64:175,1,112
180,164,110390,2,0,B|232:192|300:148,1,112,2|0
320,240,111179,6,0,B|320:316,2,56,2|0|0
376,168,111969,2,0,B|376:108,2,56,0|0|0
300,120,112758,2,0,B|244:80|176:112,1,112
222,192,113548,2,0,B|294:172|302:104,1,112,2|0
376,164,114337,2,0,B|316:188|300:252,1,112
392,244,115126,2,0,B|455:217|460:140,1,112,2|0
400,92,115916,2,0,B|352:55|293:73,2,112,0|0|2
332,148,117100,2,0,B|328:204|260:248,1,112
184,244,117890,6,0,B|132:200,1,56
168,172,118284,2,0,B|140:116,1,56,2|0
188,116,118679,2,0,B|244:80|308:104,2,112
216,152,119666,2,0,B|264:196,1,56,0|2
224,220,120061,2,0,B|256:288,1,56
336,292,120653,6,0,B|384:260|452:288,1,112
444,284,121442,2,0,B|398:265|398:213|422:177,1,112,2|0
415,189,122232,2,0,B|447:133|427:97|383:77,1,112
403,89,123021,2,0,B|368:112|324:112|316:176|408:240|296:268,1,224,2|0
236,212,124205,6,0,B|156:212,1,56,0|0
136,220,124600,1,0
84,292,124995,1,0
168,328,125390,2,0,B|240:328,1,56,2|0
208,364,125784,2,0,B|264:392|332:356,2,112,0|2|0
280,312,126969,6,0,B|340:260,1,56
288,248,127363,2,0,B|320:200,1,56
276,184,127758,2,0,B|292:124,1,56,2|0
248,144,128153,2,0,B|208:108|144:120,1,112
144,120,128942,2,0,B|92:172|120:240,2,112,0|0|0
256,240,146311,6,0,B|252:272|300:304|368:264|328:148|244:152,1,224,4|0
256,240,147890,2,0,B|260:272|212:304|144:264|184:148|268:152,1,224,4|0
312,80,149074,2,0,B|252:56|188:84,1,112
204,256,150258,6,0,B|260:288|336:248,1,112
356,180,151048,2,0,B|408:160|468:180,2,112
308,100,152232,2,0,B|256:136|188:100,1,112,0|4
116,132,153021,6,0,B|176:128|228:200,1,112
304,180,153811,2,0,B|340:132|408:136,1,112
384,224,154600,2,0,B|368:276|280:288,1,112
208,284,155390,2,0,B|140:284|116:224,2,112
164,208,156574,6,0,B|180:248|252:280|324:260|360:192,2,224,4|0|0
212,124,158548,2,0,B|236:152|264:160|292:152|316:108,1,112
260,56,159337,6,0,B|304:16,2,56,2|2|2
260,144,160126,2,0,B|216:188,2,56
180,100,160916,2,0,B|124:100,2,56,2|2|2
204,188,161705,6,0,B|256:220|324:180,2,112
200,276,162890,2,0,B|256:256|320:280,2,112
252,204,164074,2,0,B|232:160|280:128|252:80,2,112
184,264,165258,6,0,B|124:292,1,56,0|0
172,308,165653,2,0,B|160:368,1,56,2|0
196,332,166048,2,0,B|240:372,1,56,0|0
252,328,166442,2,0,B|320:312,1,56,2|0
288,276,166837,2,0,B|322:220|284:148,1,112
224,112,167626,2,0,B|184:168|216:216,1,112
292,168,168416,2,0,B|352:168,2,56
224,112,169205,2,0,B|196:64,1,56
156,48,169600,2,0,B|100:32,1,56,0|4
84,72,169995,2,0,B|44:124|80:180|80:180|48:224|80:288,1,224
256,192,171574,5,0
144,136,173153,6,0,B|256:80|376:144,2,224
200,204,175126,2,0,B|260:176|316:212,2,112,2|0|0
256,272,176311,2,0,B|256:336,2,56,0|0|2
256,184,177100,2,0,B|256:108,2,56
172,156,177890,6,0,B|96:148,1,56
140,188,178284,2,0,B|104:236,1,56,2|0
152,240,178679,2,0,B|164:296,1,56
188,256,179074,2,0,B|248:224|312:264,2,112,0|0|2
204,168,180258,2,0,B|240:100|200:56,1,112
205,62,181048,2,0,B|265:62|333:34,1,112,0|2
314,41,181837,2,0,B|346:81|418:109,1,112
340,168,182626,2,0,B|400:208|456:188,2,112,0|2|0
312,76,184205,6,0,B|196:76,1,112,0|2
112,76,184995,2,0,B|48:76,2,56
184,128,185784,2,0,B|136:176,2,56,0|0|2
256,180,186574,2,0,B|256:240,2,56
328,124,187363,6,0,B|372:172,2,56,0|0|2
400,76,188153,2,0,B|476:76,2,56
312,72,188942,2,0,B|256:104|192:72,1,112,0|2
256,152,189732,2,0,B|224:184|292:240|248:272,1,112
188,312,190521,6,0,B|124:312,1,56
140,268,190916,2,0,B|108:208,1,56,2|0
160,224,191311,2,0,B|172:160,1,56
204,200,191705,2,0,B|272:204|256:304,1,112
348,300,192495,2,0,B|356:248|428:232,1,112,2|0
384,152,193284,2,0,B|320:184|268:128,2,112,0|0|2
340,232,194469,2,0,B|288:200|224:224,2,112
376,152,195653,2,0,B|376:80,2,56,2|0|0
292,120,196442,6,0,B|240:120|240:120|232:112|232:112|176:112,1,112
148,196,197232,2,0,B|200:196|200:196|208:204|208:204|256:204,1,112,2|0
316,272,198021,2,0,B|316:352,2,56
296,184,198811,2,0,B|296:128,2,56,0|0|4
116,204,199995,6,0,B|156:236|180:296|180:296|256:312|300:356,1,224,0|4
396,204,201574,2,0,B|356:236|332:296|332:296|256:312|212:356,1,224,0|4
256,164,203153,2,0,B|224:180|212:208|212:208|224:236|256:208|288:236|300:260|300:260|288:280|256:288,1,224,0|4
256,192,204732,12,0,208482
