osu file format v9

[General]
AudioFilename: im - exec cosmoflips.mp3
AudioLeadIn: 1000
PreviewTime: 46434
Countdown: 0
SampleSet: Soft
StackLeniency: 0.6
Mode: 0
LetterboxInBreaks: 0

[Editor]
DistanceSpacing: 1.4
BeatDivisor: 2
GridSize: 4

[Metadata]
Title:EXEC_COSMOFLIPS/.
Artist:KOKIA
Creator:Beren
Version:Saki
Source:Ar tonelico III
Tags:pieces qoga knell of ar ciel tyria Kiiwa vivicat Bless DarkRingSystem

[Difficulty]
HPDrainRate:3
CircleSize:3
OverallDifficulty:3
ApproachRate:3
SliderMultiplier:0.500000005960464
SliderTickRate:1

[Events]
//Background and Video events
0,0,"BG.jpg"
//Break Periods
2,59469,70660
2,130521,144871
//Storyboard Layer 0 (Background)
//Storyboard Layer 1 (Fail)
//Storyboard Layer 2 (Pass)
//Storyboard Layer 3 (Foreground)
//Storyboard Sound Samples
//Background Colour Transformations
3,100,163,162,255

[TimingPoints]
1048,394.736842105263,4,1,1,25,1,0
1647,-100,4,2,1,20,0,0
2436,-100,4,1,1,40,0,0
3226,-100,4,2,1,20,0,0
4015,-100,4,1,1,50,0,0
4804,-100,4,2,1,20,0,0
5594,-100,4,1,1,50,0,0
6383,-100,4,2,1,20,0,0
6778,-100,4,2,1,40,0,0
7272,-100,4,1,1,60,0,0
7469,-100,4,2,1,40,0,0
8851,-100,4,1,1,50,0,0
9048,-100,4,2,1,40,0,0
10429,-100,4,1,1,50,0,0
10627,-100,4,2,1,40,0,0
12008,-100,4,1,1,50,0,0
12206,-100,4,2,1,40,0,0
13587,-100,4,1,1,50,0,0
13785,-100,4,2,1,40,0,0
15166,-100,4,1,1,50,0,0
15364,-100,4,2,1,40,0,0
16745,-100,4,1,1,50,0,0
16943,-100,4,2,1,40,0,0
17535,-100,4,1,1,50,0,0
17732,-100,4,2,1,40,0,0
18226,-100,4,1,1,50,0,0
18620,-100,4,2,1,20,0,0
19015,-100,4,1,1,50,0,0
19311,-100,4,2,1,30,0,0
21482,-100,4,1,1,50,0,0
21679,-100,4,2,1,30,0,0
23061,-100,4,1,1,50,0,0
23258,-100,4,2,1,30,0,0
24640,-100,4,1,1,50,0,0
24837,-100,4,2,1,30,0,0
26219,-100,4,1,1,50,0,0
26416,-100,4,2,1,30,0,0
27798,-100,4,1,1,50,0,0
27995,-100,4,2,1,30,0,0
29377,-100,4,1,1,50,0,0
29574,-100,4,2,1,30,0,0
30956,-100,4,1,1,50,0,0
31153,-100,4,2,1,30,0,0
32535,-100,4,1,1,50,0,0
32732,-100,4,2,1,30,0,0
34015,-100,4,1,1,50,0,0
34410,-100,4,2,1,30,0,0
46745,-100,4,1,1,50,0,0
46943,-100,4,2,1,40,0,0
48324,-100,4,1,1,50,0,0
48522,-100,4,2,1,40,0,0
49903,-100,4,1,1,50,0,0
50101,-100,4,2,1,40,0,0
51581,-100,4,1,1,50,0,0
51679,-100,4,2,1,40,0,0
53061,-100,4,1,1,50,0,0
53258,-100,4,2,1,40,0,0
54640,-100,4,1,1,50,0,0
54837,-100,4,2,1,40,0,0
56219,-100,4,1,1,50,0,0
56416,-100,4,2,1,40,0,0
57008,-100,4,1,1,50,0,0
57206,-100,4,2,1,40,0,0
57798,-100,4,1,1,50,0,0
57995,-100,4,2,1,40,0,0
58587,-100,4,1,1,30,0,0
58785,-100,4,2,1,40,0,0
71910,-100,4,2,1,30,0,0
75166,-100,4,1,1,50,0,0
75364,-100,4,2,1,30,0,0
76745,-100,4,1,1,50,0,0
76943,-100,4,2,1,30,0,0
78423,-100,4,1,1,50,0,0
78522,-100,4,2,1,30,0,0
79903,-100,4,1,1,50,0,0
80101,-100,4,2,1,30,0,0
81482,-100,4,1,1,50,0,0
81679,-100,4,2,1,30,0,0
83061,-100,4,1,1,50,0,0
83258,-100,4,2,1,30,0,0
84640,-100,4,1,1,50,0,0
84837,-100,4,2,1,30,0,0
86219,-100,4,1,1,50,0,0
86416,-100,4,2,1,30,0,0
87699,-100,4,1,1,50,0,0
88094,-100,4,2,1,30,0,0
97158,-100,4,1,1,30,0,0
105043,-100,4,1,1,50,0,0
105437,-100,4,2,1,30,0,0
106622,-100,4,1,1,50,0,0
107016,-100,4,2,1,30,0,0
108201,-100,4,1,1,50,0,0
108595,-100,4,2,1,30,0,0
109779,-100,4,1,1,50,0,0
110174,-100,4,2,1,30,0,0
111358,-100,4,1,1,50,0,0
111753,-100,4,2,1,30,0,0
112937,-100,4,1,1,50,0,0
113332,-100,4,2,1,30,0,0
114516,-100,4,1,1,50,0,0
114911,-100,4,2,1,30,0,0
116095,-100,4,1,1,50,0,0
116515,-100,4,2,1,30,0,0
117674,-100,4,1,1,50,0,0
118094,-100,4,2,1,30,0,0
119253,-100,4,1,1,50,0,0
119673,-100,4,2,1,30,0,0
120832,-100,4,1,1,50,0,0
121252,-100,4,2,1,30,0,0
122411,-100,4,1,1,50,0,0
122831,-100,4,2,1,30,0,0
123990,-100,4,1,1,50,0,0
124410,-100,4,2,1,30,0,0
125569,-100,4,1,1,50,0,0
125989,-100,4,2,1,30,0,0
127148,-100,4,1,1,50,0,0
127568,-100,4,2,1,30,0,0
128727,-100,4,1,1,50,0,0
130528,-100,4,2,1,30,0,0
146219,-100,4,1,1,30,0,0
146416,-100,4,2,1,30,0,0
169995,-100,4,2,1,5,0,0
170784,-100,4,2,1,30,0,0
171358,-100,4,1,1,50,0,0
171679,-100,4,2,1,30,0,0
172937,-100,4,1,1,50,0,0
173258,-100,4,2,1,30,0,0
174516,-100,4,1,1,50,0,0
174837,-100,4,2,1,30,0,0
176095,-100,4,1,1,50,0,0
176416,-100,4,2,1,30,0,0
176885,-100,4,1,1,50,0,0
177206,-100,4,2,1,30,0,0
177674,-100,4,1,1,50,0,0
177995,-100,4,2,1,30,0,0
179253,-100,4,1,1,50,0,0
179574,-100,4,2,1,30,0,0
180832,-100,4,1,1,50,0,0
181153,-100,4,2,1,30,0,0
181622,-100,4,1,1,50,0,0
181943,-100,4,2,1,30,0,0
182411,-100,4,1,1,50,0,0
182732,-100,4,2,1,30,0,0
183620,-100,4,2,1,30,0,0
184089,-100,4,1,1,50,0,0
184311,-100,4,2,1,30,0,0
185668,-100,4,1,1,50,0,0
185890,-100,4,2,1,30,0,0
187247,-100,4,1,1,50,0,0
187469,-100,4,2,1,30,0,0
188826,-100,4,1,1,50,0,0
189048,-100,4,2,1,30,0,0
190404,-100,4,1,1,50,0,0
190627,-100,4,2,1,30,0,0
191983,-100,4,1,1,50,0,0
192206,-100,4,2,1,30,0,0
193562,-100,4,1,1,50,0,0
193785,-100,4,2,1,30,0,0
194352,-100,4,1,1,50,0,0
194574,-100,4,2,1,30,0,0
195141,-100,4,1,1,50,0,0
195364,-100,4,2,1,30,0,0
195931,-100,4,1,1,50,0,0
196153,-100,4,2,1,30,0,0
196720,-100,4,1,1,50,0,0
196943,-100,4,2,1,30,0,0
198299,-100,4,1,1,50,0,0
199410,-100,4,2,1,30,0,0
199898,-100,4,1,1,50,0,0
200192,-100,4,1,1,5,0,0
200589,-100,4,2,1,30,0,0
201457,-100,4,1,1,50,0,0
201771,-100,4,1,1,5,0,0
202168,-100,4,2,1,50,0,0
203036,-100,4,1,1,50,0,0
203350,-100,4,1,1,5,0,0
203747,-100,4,2,1,50,0,0
206303,-100,4,2,1,45,0,0
206697,-100,4,2,1,40,0,0
207092,-100,4,2,1,35,0,0
207487,-100,4,2,1,30,0,0
207882,-100,4,2,1,25,0,0
208276,-100,4,2,1,20,0,0

[Colours]
Combo1 : 255,166,210
Combo2 : 255,128,128
Combo3 : 255,162,117
Combo4 : 171,224,99
Combo5 : 116,160,182
Combo6 : 86,171,171
Combo7 : 102,175,230
Combo8 : 215,135,228

[HitObjects]
68,52,1048,6,0,B|168:72,1,100.000001192093,12|0
288,140,2626,2,0,B|388:160,1,100.000001192093,12|0
416,296,4205,2,0,B|316:276,1,100.000001192093,12|0
192,216,5784,2,0,B|92:196,1,100.000001192093,12|0
76,128,6969,5,8
132,84,7363,2,0,B|172:64|228:56,2,100.000001192093,12|0|0
212,200,9732,2,0,B|248:248,1,50.0000005960464,0|8
284,296,10521,2,0,B|324:336|376:348,2,100.000001192093,0|0|8
396,208,12890,5,0
404,140,13284,1,0
376,76,13679,2,0,B|336:36|284:24,2,100.000001192093,8|0|8
240,104,16048,1,0
128,188,16837,5,8
172,320,17626,1,8
312,320,18416,1,8
356,188,19205,1,8
104,104,21574,6,0,B|60:72,2,50.0000005960464,12|0|8
148,160,22758,1,0
156,228,23153,2,0,B|172:276|208:312,1,100.000001192093,8|8
256,364,24337,1,0
316,328,24732,6,0,B|368:312,1,50.0000005960464,8|0
412,264,25521,2,0,B|436:216,1,50.0000005960464,8|0
416,152,26311,2,0,B|368:132|340:80,1,100.000001192093,8|8
340,16,27495,1,0
280,52,27890,6,0,B|244:92,1,50.0000005960464,8|0
204,144,28679,1,8
136,168,29074,1,0
96,224,29469,2,0,B|84:252|80:276,2,50.0000005960464,8|0|8
156,264,30653,2,0,B|156:324,2,50.0000005960464,0|8|0
212,224,31837,2,0,B|252:256|280:300,1,100.000001192093,8|8
324,352,33021,6,0,B|372:380,2,50.0000005960464,0|8|0
348,284,34205,2,0,B|388:248|412:196,1,100.000001192093,12|0
396,136,35390,2,0,B|384:108|380:80,2,50.0000005960464,0|8|0
336,176,36574,2,0,B|284:156|244:124,2,100.000001192093,0|8|0
300,236,38547,1,0
256,292,38942,6,0,B|224:332,1,50.0000005960464,8|0
184,272,39732,2,0,B|128:292,1,50.0000005960464,8|0
108,224,40521,2,0,B|80:184|72:128,1,100.000001192093,8|8
72,60,41705,2,0,B|104:64|128:80,1,50.0000005960464,0|8
256,112,42890,2,0,B|256:172,1,50.0000005960464,8|0
256,192,43679,12,0,45258
392,80,46837,6,0,B|428:120,2,50.0000005960464,12|0|8
324,96,48021,1,0
264,128,48416,2,0,B|216:148|176:180,1,100.000001192093,8|8
108,164,49600,1,0
76,228,49995,2,0,B|56:276|52:332,2,100.000001192093,8|8|8
196,304,52363,6,0,B|240:280,1,50.0000005960464,8|0
292,232,53153,2,0,B|320:188|364:152,1,100.000001192093,8|8
408,112,54337,1,0
340,88,54732,2,0,B|308:40,2,50.0000005960464,8|0|8
204,128,56311,5,8
82,58,57100,1,8
12,179,57890,1,8
132,252,58679,1,12
256,192,72100,12,0,75258
128,128,76047,5,0
140,196,76442,1,0
168,260,76837,2,0,B|148:308,2,50.0000005960464,8|0|8
232,228,78021,2,0,B|252:180,2,50.0000005960464,0|8|0
252,296,79205,2,0,B|288:340,1,50.0000005960464,8|0
348,320,79995,2,0,B|400:316|444:288,1,100.000001192093,8|8
356,180,81574,6,0,B|348:120|320:80,2,100.000001192093,8|8|8
328,244,83547,2,0,B|304:296,2,50.0000005960464,0|8|0
284,188,84732,2,0,B|180:212,1,100.000001192093,8|8
116,224,85916,1,0
60,184,86311,2,0,B|32:144,1,50.0000005960464
76,88,87100,2,0,B|108:132,1,50.0000005960464,8|0
172,104,87890,6,0,B|200:64|252:36,2,100.000001192093,0|0|8
156,172,89863,2,0,B|184:216,2,50.0000005960464,0|0|0
224,148,91047,2,0,B|276:148|320:172,1,100.000001192093,8|0
376,216,92232,1,0
320,260,92626,2,0,B|280:288|224:292,1,100.000001192093,8|0
156,284,93811,6,0,B|120:252,1,50.0000005960464,0|8
44,132,94995,2,0,B|68:84,1,50.0000005960464,8|0
136,92,95784,2,0,B|192:96|232:116,1,100.000001192093,8|8
256,180,96969,1,0
256,192,97363,12,8,103679
148,100,104863,6,0,B|112:132,2,50.0000005960464,0|12|0
216,108,106047,1,8
280,132,106442,1,0
336,176,106837,2,0,B|368:216|424:236,1,100.000001192093,8|8
484,252,108021,1,0
436,300,108416,6,0,B|332:336,1,100.000001192093,8|8
272,348,109600,1,0
204,332,109995,2,0,B|156:312|120:264,1,100.000001192093,8|8
100,208,111179,1,0
72,144,111574,6,0,B|52:100,1,50.0000005960464,8|0
116,68,112363,2,0,B|148:24,1,50.0000005960464,8|0
208,64,113153,2,0,B|252:44|304:40,1,100.000001192093,8|8
376,40,114337,1,0
432,80,114732,6,0,B|460:124,1,50.0000005960464,8|0
392,144,115521,2,0,B|392:196,1,50.0000005960464,8|0
380,264,116311,1,8
248,312,117100,1,8
112,280,117890,6,0,B|72:252,1,50.0000005960464,8|0
44,188,118679,2,0,B|28:136,1,50.0000005960464,8|0
72,84,119469,2,0,B|112:40|160:24,1,100.000001192093,8|8
196,80,120653,1,0
224,144,121047,6,0,B|240:192|284:228,1,100.000001192093,8|8
344,252,122232,2,0,B|368:276|372:300,1,50.0000005960464,0|8
236,328,123416,1,8
176,288,123811,6,0,B|144:248,2,50.0000005960464,0|8|0
212,228,124995,2,0,B|240:176,1,50.0000005960464,8|0
276,128,125784,2,0,B|312:92|356:68,1,100.000001192093,8|8
424,48,126969,1,0
424,116,127363,6,0,B|424:172,1,50.0000005960464,8|0
400,232,128153,2,0,B|380:288,1,50.0000005960464,8|0
324,312,128942,1,8
184,320,129732,1,8
104,48,146311,6,0,B|104:156,1,100.000001192093,12|8
168,272,147890,2,0,B|244:348,1,100.000001192093,10|8
304,320,149074,2,0,B|328:308|348:288,1,50.0000005960464,0|10
456,204,150258,2,0,B|422:194|404:180,1,50.0000005960464,8|0
356,140,151047,2,0,B|356:84,2,50.0000005960464,10|0|8
292,168,152232,1,0
228,192,152626,6,0,B|176:220|128:228,1,100.000001192093,10|8
248,312,154205,2,0,B|288:348|348:352,1,100.000001192093,10|8
380,296,155390,2,0,B|400:252,1,50.0000005960464,0|8
428,112,156574,2,0,B|396:76,1,50.0000005960464,8|0
324,68,157363,2,0,B|280:72|220:52,1,100.000001192093,10|8
164,88,158547,2,0,B|128:128,1,50.0000005960464,0|10
112,192,159337,6,0,B|64:204,2,50.0000005960464,0|8|0
184,192,160521,2,0,B|232:200|280:244,1,100.000001192093,10|8
324,284,161705,2,0,B|312:312|292:336,2,50.0000005960464,0|10|0
328,212,162890,2,0,B|324:152|308:108,1,100.000001192093,8|10
172,88,164469,6,0,B|204:52|260:36,2,100.000001192093,8|10|8
164,156,166442,1,0
148,224,166837,2,0,B|110:249|48:272,1,100.000001192093,10|8
192,308,168416,6,0,B|248:300,1,50.0000005960464,10|0
308,284,169205,2,0,B|352:244,1,50.0000005960464,10|0
380,192,169995,2,0,B|384:136|368:92,1,100.000001192093
120,112,171574,5,12
248,56,172363,1,0
380,108,173153,2,0,B|408:148|416:204,1,100.000001192093,8|0
388,264,174337,2,0,B|348:308,1,50.0000005960464,8|8
216,320,175521,1,0
100,240,176311,1,8
68,104,177100,1,8
208,120,177890,6,0,B|260:136|296:172,1,100.000001192093,8|0
388,276,179469,2,0,B|392:308|408:328,2,50.0000005960464,8|0|0
444,148,181048,1,8
320,80,181837,1,8
184,108,182626,2,0,B|132:112|80:140,1,100.000001192093,8|8
80,204,183811,6,0,B|88:256,1,50.0000005960464,8|12
224,292,184995,2,0,B|264:320,2,50.0000005960464,8|0|8
220,152,186574,1,8
288,132,186969,2,0,B|320:84,2,50.0000005960464,0|8|0
320,196,188153,2,0,B|372:208,1,50.0000005960464,8|0
416,260,188942,2,0,B|408:312|376:352,1,100.000001192093,0|8
308,368,190126,1,0
244,340,190521,6,0,B|196:308,1,50.0000005960464,8|0
248,260,191311,2,0,B|224:216,1,50.0000005960464,8|0
204,148,192100,2,0,B|212:96|240:48,1,100.000001192093,8|8
304,68,193284,2,0,B|360:76,1,50.0000005960464,0|8
448,180,194469,1,8
392,308,195258,1,8
260,348,196048,1,8
196,324,196442,6,0,B|140:304,1,50.0000005960464,0|8
84,184,197626,2,0,B|67:155|64:132,1,50.0000005960464,8|0
52,68,198416,1,8
192,84,199205,1,8
324,132,199995,6,0,B|376:160|408:192,1,100.000001192093,8|8
288,268,201574,2,0,B|237:299|194:310,1,100.000001192093,8|8
180,172,203153,2,0,B|178:112|189:69,1,100.000001192093,8|8
256,192,204732,12,0,208482
