osu file format v9

[General]
AudioFilename: im - exec cosmoflips.mp3
AudioLeadIn: 1000
PreviewTime: 46434
Countdown: 0
SampleSet: Soft
StackLeniency: 0.6
Mode: 0
LetterboxInBreaks: 0

[Editor]
DistanceSpacing: 1
BeatDivisor: 4
GridSize: 4

[Metadata]
Title:EXEC_COSMOFLIPS/.
Artist:KOKIA
Creator:Beren
Version:Finnel
Source:Ar tonelico III
Tags:pieces qoga knell of ar ciel tyria Kiiwa vivicat Bless DarkRingSystem

[Difficulty]
HPDrainRate:5
CircleSize:4
OverallDifficulty:6
ApproachRate:7
SliderMultiplier:1.4
SliderTickRate:1

[Events]
//Background and Video events
0,0,"BG.jpg"
//Break Periods
2,59461,71200
2,130721,142253
//Storyboard Layer 0 (Background)
//Storyboard Layer 1 (Fail)
//Storyboard Layer 2 (Pass)
//Storyboard Layer 3 (Foreground)
//Storyboard Sound Samples
//Background Colour Transformations
3,100,163,162,255

[TimingPoints]
1048,394.736842105263,4,2,1,20,1,0
72085,-100,4,2,1,5,0,0
75061,-100,4,1,1,20,0,0
75455,-100,4,2,1,40,0,0
81376,-100,4,2,1,40,0,0
87692,-100,4,2,1,30,0,0
102100,-100,4,2,1,40,0,0
103482,-100,4,1,1,50,0,0
104666,-100,4,2,1,50,0,0
110587,-100,4,2,1,40,0,0
112955,-100,4,2,1,50,0,0
116903,-100,4,2,1,40,0,0
123219,-100,4,2,1,30,0,0
123613,-100,4,2,1,40,0,0
127265,-100,4,2,1,50,0,0
128745,-100,4,2,1,40,0,0
130324,-100,4,1,1,40,0,0
142758,-100,4,2,1,40,0,0
145714,-100,4,2,1,20,0,0
146108,-100,4,2,1,40,0,0
170977,-100,4,2,1,20,0,0
171371,-100,4,2,1,40,0,0
206690,-100,4,2,1,40,0,0
207085,-100,4,2,1,35,0,0
207480,-100,4,2,1,30,0,0
207875,-100,4,2,1,25,0,0
208269,-100,4,2,1,20,0,0

[Colours]
Combo1 : 255,166,210
Combo2 : 255,128,128
Combo3 : 255,162,117
Combo4 : 171,224,99
Combo5 : 116,160,182
Combo6 : 86,171,171
Combo7 : 102,175,230
Combo8 : 215,135,228

[HitObjects]
128,152,1047,2,0,B|24:224|100:324|100:324|104:280|160:280,1,280,8|0
352,80,2626,2,0,B|360:128|424:136,3,70,8|0|0|0
360,192,3416,2,0,B|416:256|392:344,1,140
256,320,4205,6,0,B|168:320|132:208|192:112|192:112|200:192|64:176,1,420,8|0
240,204,5784,2,0,B|208:252|288:292|336:212|344:140,1,210,8|0
344,72,6574,2,8,B|376:144|464:152,1,140,0|8
286,283,7363,6,0,B|336:348|427:327,1,140,12|0
240,200,8153,2,0,B|304:248|387:206,1,140,0|0
200,112,8942,2,0,B|248:216|484:112|384:8|244:28|284:244|456:172,1,420,8|0
368,288,10521,6,0,B|280:280|272:188,1,140,8|0
232,336,11311,2,0,B|172:300|184:200,1,140,0|0
48,304,12100,2,0,B|8:224|120:192|120:192|208:160|184:88,1,280,8|8
336,164,13284,1,0
364,224,13482,1,0
416,264,13679,6,0,B|352:232|280:264,1,140,8|0
312,112,14469,2,0,B|234:130|203:229,1,140,0|0
96,80,15258,1,8
136,240,15653,1,0
296,288,16047,1,0
272,120,16442,5,0
340,132,16640,1,0
392,88,16837,2,0,B|336:152|368:248,1,140,8|0
120,88,17626,2,0,B|176:152|144:248,1,140,8|0
256,320,18416,1,8
256,320,19205,1,2
256,192,19304,12,0,21179
408,56,21574,5,12
456,192,21969,1,0
320,200,22363,2,0,B|368:256|336:352,1,140
192,200,23153,2,0,B|144:256|176:352,2,140,8|0|0
208,64,24337,1,0
256,120,24534,1,0
304,64,24732,5,8
400,168,25126,1,0
400,168,25521,2,0,B|332:168|324:256|400:272,1,140
240,296,26311,2,0,B|200:352|115:350,1,140,8|0
184,232,27100,2,0,B|176:148|240:80,1,140
176,72,27692,1,0
152,136,27890,6,0,B|224:144|288:176,1,140,8|0
328,56,28679,2,0,B|372:108|384:200,1,140
332,232,29271,1,0
312,300,29469,2,0,B|368:372|452:300,1,140,8|0
434,66,30258,2,0,B|356:16|312:80,1,140,0|0
374,112,30850,1,0
384,184,31048,6,0,B|368:272|264:280,1,140,8|0
168,240,31837,2,0,B|144:168|40:176,1,140
48,312,32626,2,0,B|176:234,1,140,8|0
56,176,33416,2,0,B|24:240|51:324,1,140
200,248,34205,6,0,B|256:288|304:248|360:208|432:248,1,210,12|0
480,200,34995,2,0,B|424:144|345:162,1,140
392,328,35784,2,0,B|336:288|288:328|240:376|192:336,1,210,8|0
120,304,36574,2,0,B|160:240|248:272,1,140
304,304,37166,1,0
304,236,37363,6,0,B|432:276|496:156,1,210,8|0
432,104,38153,1,0
304,236,38547,1,0
160,152,38942,2,0,B|88:96|24:152,2,140,8|0|8
160,152,40126,1,0
88,200,40324,1,0
120,280,40521,6,0,B|216:240|360:272,1,210,8|0
376,200,41311,2,0,B|450:192|506:240,1,140
352,304,42100,2,0,B|384:288|408:360|320:424|216:336|300:244|300:244|272:208,1,280,8|0
320,56,43284,1,0
256,112,43482,1,0
192,56,43679,1,8
256,192,43778,12,0,46442
88,176,46837,6,0,B|144:224|136:324,1,140,12|0
200,136,47626,1,0
208,304,48021,1,0
328,176,48416,2,0,B|272:224|280:324,2,140,8|0|0
472,272,49600,1,0
440,192,49797,1,0
472,112,49995,6,0,B|400:104|355:34,1,140,8|0
304,104,50587,1,0
224,136,50784,2,0,B|256:200|248:272,1,140
328,264,51376,1,0
404,276,51574,2,0,B|404:164|452:100|516:184|440:196,1,210,8|0
408,144,52363,2,0,B|312:144|296:40,1,140
384,64,52955,1,0
408,144,53153,6,0,B|272:179,1,140,8|0
192,208,53745,1,0
272,244,53942,2,0,B|424:276,1,140
488,288,54534,1,0
408,340,54732,2,0,B|264:372,2,140,8|0|0
288,192,55916,5,0
216,232,56113,1,0
144,192,56311,2,0,B|104:120|136:48,1,140,8|0
368,192,57100,2,0,B|408:264|376:336,1,140,8|0
144,192,57890,2,0,B|192:288|320:288|368:192,1,280,8|8
256,192,72100,12,0,74863
368,296,75258,6,0,B|312:264|384:208|360:168,1,140,8|0
320,112,75850,1,0
256,88,76047,1,0
136,160,76442,1,0
184,288,76837,1,8
328,288,77232,1,0
384,160,77626,1,0
256,88,78021,5,0
256,88,78219,1,0
256,88,78416,2,0,B|216:160|136:160,1,140,8|0
32,248,79205,2,0,B|104:224|160:296,1,140
280,352,79995,2,0,B|368:336|392:240,1,140,8|0
256,216,80784,2,0,B|208:152|256:88,1,140
376,152,81574,5,8
480,240,81969,2,0,B|408:208|328:248,1,140,0|0
376,152,82758,1,0
480,240,83153,2,0,B|400:240|352:304,1,140,8|0
376,152,83942,1,0
256,88,84337,1,0
136,152,84732,5,8
32,240,85126,2,0,B|104:208|184:248,1,140,0|0
136,152,85916,1,0
32,240,86311,2,0,B|112:240|160:304,1,140,8|0
277,240,87100,2,0,B|197:240|149:304,1,140,0|0
88,176,87890,6,0,B|216:208|200:64|112:64|80:208|232:176,1,280,8|0
304,56,89074,1,0
336,120,89271,1,0
336,192,89469,2,0,B|328:280|248:288,1,140,8|0
336,192,90258,2,0,B|344:280|424:288,1,140,0|0
440,152,91048,6,0,B|432:64|352:56,2,140,8|0|0
440,296,92232,1,0
304,296,92626,1,8
304,152,93021,1,0
440,152,93416,1,0
440,296,93811,1,0
304,296,94205,6,0,B|256:320|200:216,1,140,8|0
160,88,94995,2,0,B|208:64|264:168,1,140,0|0
352,272,95784,2,0,B|408:216|392:144,2,140,8|0|0
216,304,96969,1,0
168,176,97363,6,0,B|120:128|168:96|168:96|248:144|256:72,1,210,8|0
343,176,98153,2,0,B|391:128|343:96|343:96|263:144|255:72,1,210,8|0
256,192,98942,12,8,103679
104,48,104863,5,0
160,92,105061,1,0
104,136,105258,2,0,B|40:184|40:256,1,140,4|0
168,279,106048,2,0,B|116:224|36:256,1,140
88,352,106837,1,8
232,344,107232,2,0,B|269:361|301:344,1,70
360,312,107626,1,0
344,240,108021,5,0
360,312,108219,1,0
416,264,108416,2,0,B|480:216|480:144,1,140,8|0
352,121,109205,2,0,B|404:176|484:144,1,140
432,48,109995,1,8
80,48,110784,1,8
256,112,111179,6,0,B|256:40,2,70,0|0|8
256,112,111969,1,0
184,232,112363,1,0
328,232,112758,1,0
256,352,113153,1,8
256,352,113548,2,0,B|256:208,1,140
192,88,114337,5,0
144,144,114534,1,0
192,200,114732,1,8
320,88,115126,1,0
368,144,115324,1,0
320,200,115521,1,8
192,200,115916,2,0,B|256:152|320:200,1,140,0|8
256,280,117100,1,8
120,320,117495,5,0
72,268,117692,1,0
120,216,117890,2,0,B|168:176|168:128|120:80,1,140,8|0
132,94,118679,1,0
256,32,119074,1,0
376,104,119469,2,0,B|316:245|433:245|467:122|351:122|304:240,1,280,8|0
232,336,120653,6,0,B|264:360|296:336,1,70
264,272,121048,1,8
160,184,121442,1,0
192,48,121837,1,0
336,48,122232,1,0
376,184,122626,1,8
256,152,123416,5,8
256,152,123811,1,0
220,213,124008,1,0
292,213,124205,1,8
320,88,124600,2,0,B|256:47|188:88,1,140,0|0
314,299,125390,2,0,B|381:264|380:185,1,140,0|8
133,188,126179,2,0,B|130:264|199:302,1,140,0|8
288,192,126969,5,0
280,120,127166,1,0
224,72,127363,1,8
224,72,127758,5,0
192,136,127955,1,0
136,176,128153,1,8
48,272,128548,1,0
176,320,128942,2,0,B|194:369|258:401|322:369|342:319,1,210,8|0
341,321,129732,1,8
256,192,130521,1,12
256,192,143153,12,0,145916
96,112,146311,6,0,B|80:192|-8:232,1,140,8|0
128,128,147100,2,0,B|114:207|80:272,1,140,8|0
168,152,147890,2,0,B|168:248,2,70,8|0|0
232,120,148482,1,0
272,64,148679,2,0,B|338:89|440:80,1,140,8|0
416,216,149469,6,0,B|424:144|496:80,1,140,8|0
432,40,150061,1,0
368,64,150258,2,0,B|344:216,1,140,8|0
256,312,151048,1,8
120,272,151442,1,0
144,208,151640,1,0
208,232,151837,1,8
232,168,152034,1,8
296,192,152232,1,0
416,112,152626,6,0,B|454:177|552:184,1,140,8|0
384,128,153416,2,0,B|400:208|456:264,1,140,8|0
344,152,154205,2,0,B|344:248,2,70,8|0|0
280,120,154798,1,0
240,64,154995,2,0,B|176:96|72:80,1,140,8|0
96,216,155784,6,0,B|88:152|16:80,1,140,8|0
88,48,156376,1,0
152,72,156574,2,0,B|168:224,1,140,8|0
256,320,157363,1,8
384,272,157758,1,0
344,216,157955,1,0
272,224,158153,1,8
240,160,158350,1,8
168,168,158548,1,0
344,80,158942,6,0,B|248:16|144:88,1,210
96,40,159732,2,0,B|24:176,1,140,8|0
168,304,160521,6,0,B|264:368|368:296,1,210
416,344,161311,2,0,B|488:208,1,140,8|0
344,224,162100,5,0
448,128,162495,1,0
416,64,162692,1,0
376,120,162890,1,8
256,56,163284,1,0
104,128,163679,2,0,B|32:224|96:352,1,210
152,344,164469,1,8
256,248,164863,1,0
360,344,165258,6,0,B|464:312|464:216|360:160|480:112,1,280,0|8
328,80,166442,1,0
464,120,166837,2,0,B|424:248|272:192,1,210
256,144,167626,2,0,B|176:152|128:248,1,140,8|0
264,288,168416,6,0,B|343:281|400:320,1,140,8|2
248,96,169205,2,0,B|168:102|112:64,1,140,8|2
114,65,169798,1,2
256,192,169995,12,0,171179
176,120,171574,6,0,B|224:232|104:264|104:264|32:272|48:352,1,280,12|0
336,120,173153,2,0,B|288:232|408:264|408:264|480:272|464:352,1,280,8|0
184,312,174732,6,0,B|240:176|96:192|96:192|56:88,1,280,8|0
328,312,176311,2,0,B|272:176|416:192|416:192|456:88,1,280,8|0
256,128,177495,1,0
112,128,177890,6,0,B|96:240|200:256|200:256|298:336,1,280,8|0
256,184,179074,1,0
400,128,179469,2,0,B|416:240|312:256|312:256|213:336,1,280,8|0
80,208,181048,2,0,B|192:208|136:96,1,140,8|0
432,208,181837,2,0,B|320:208|376:96,1,140,8|0
256,192,182626,1,8
256,192,183416,1,8
220,343,183811,5,0
292,343,184008,1,0
256,280,184205,2,0,B|216:280|216:280|176:224|112:264,1,140,12|0
256,280,184995,2,0,B|296:280|296:280|336:224|400:264,1,140,8|0
256,280,185784,2,0,B|256:232|256:232|312:216|256:168|192:112|256:104|256:104|256:40,1,280,8|8
256,38,186969,1,0
136,104,187363,6,0,B|120:168|152:248,1,140,8|0
376,104,188153,2,0,B|392:168|360:248,1,140,8|0
149,241,188942,1,8
256,336,189337,1,0
362,241,189732,1,8
256,144,190126,2,0,B|256:72,1,70
192,48,190521,6,0,B|184:144|96:168,1,140,8|0
412,208,191311,2,0,B|333:153|356:65,1,140,8|0
163,319,192100,2,0,B|250:278|315:342,1,140,8|0
295,325,192890,1,8
295,325,193284,5,0
296,256,193482,1,0
336,200,193679,2,0,B|392:144|464:160,1,140,8|0
176,184,194469,2,0,B|120:240|48:224,1,140,8|0
256,192,195258,1,8
256,192,196048,1,8
216,56,196442,5,0
216,128,196640,1,0
176,184,196837,2,0,B|120:240|48:224,1,140,8|0
336,200,197626,2,0,B|392:144|464:160,1,140,8|0
256,192,198416,1,12
256,192,199205,1,8
256,136,199995,5,8
256,248,200784,1,8
335,112,201574,5,8
176,271,202363,1,8
424,192,203153,5,8
88,192,203942,1,8
256,192,204732,12,0,208482
