osu file format v9

[General]
AudioFilename: im - exec cosmoflips.mp3
AudioLeadIn: 1000
PreviewTime: 46434
Countdown: 0
SampleSet: Soft
StackLeniency: 0.6
Mode: 0
LetterboxInBreaks: 0

[Editor]
DistanceSpacing: 1
BeatDivisor: 4
GridSize: 4

[Metadata]
Title:EXEC_COSMOFLIPS/.
Artist:KOKIA
Creator:Beren
Version:Aoto
Source:Ar tonelico III
Tags:pieces qoga knell of ar ciel tyria Kiiwa vivicat Bless DarkRingSystem

[Difficulty]
HPDrainRate:7
CircleSize:4
OverallDifficulty:7
ApproachRate:8
SliderMultiplier:1.8
SliderTickRate:1

[Events]
//Background and Video events
0,0,"BG.jpg"
//Break Periods
2,59469,71350
2,130721,142403
//Storyboard Layer 0 (Background)
//Storyboard Layer 1 (Fail)
//Storyboard Layer 2 (Pass)
//Storyboard Layer 3 (Foreground)
Sprite,Foreground,Centre,"SB\4.png",320,240 F,0,104271,105061,0,1 M,0,104863,,320,240 F,0,105061,105258,1,0
//Storyboard Sound Samples
//Background Colour Transformations
3,100,163,162,255

[TimingPoints]
1048,394.736842105263,4,1,1,25,1,0
1344,-100,4,1,1,5,0,0
1647,-100,4,2,1,20,0,0
2436,-100,4,1,1,40,0,0
2922,-100,4,1,1,5,0,0
3226,-100,4,2,1,20,0,0
4015,-100,4,1,1,50,0,0
4501,-100,4,1,1,5,0,0
4804,-100,4,2,1,20,0,0
5594,-100,4,1,1,50,0,0
6080,-100,4,1,1,5,0,0
6383,-100,4,2,1,20,0,0
6778,-100,4,2,1,40,0,0
7272,-100,4,1,1,60,0,0
7469,-100,4,2,1,40,0,0
8851,-100,4,1,1,50,0,0
9048,-100,4,2,1,40,0,0
9921,-100,4,2,1,30,0,0
10429,-100,4,1,1,50,0,0
10627,-100,4,2,1,40,0,0
12008,-100,4,1,1,50,0,0
12206,-100,4,2,1,40,0,0
13079,-100,4,2,1,30,0,0
13587,-100,4,1,1,50,0,0
13785,-100,4,2,1,40,0,0
15166,-100,4,1,1,50,0,0
15364,-100,4,2,1,40,0,0
16745,-100,4,1,1,50,0,0
16943,-100,4,2,1,40,0,0
17535,-100,4,1,1,50,0,0
17732,-100,4,2,1,40,0,0
18226,-200,4,1,1,50,0,0
18620,-200,4,2,1,25,0,0
19015,-200,4,1,1,50,0,0
19311,-200,4,2,1,30,0,0
21482,-100,4,1,1,50,0,0
21679,-100,4,2,1,30,0,0
23061,-100,4,1,1,50,0,0
23258,-100,4,2,1,30,0,0
24640,-100,4,1,1,50,0,0
24837,-100,4,2,1,30,0,0
26219,-100,4,1,1,50,0,0
26416,-100,4,2,1,30,0,0
27798,-100,4,1,1,50,0,0
27921,-100,4,2,1,30,0,0
29377,-100,4,1,1,50,0,0
29574,-100,4,2,1,30,0,0
30956,-100,4,1,1,50,0,0
31153,-100,4,2,1,30,0,0
32535,-100,4,1,1,50,0,0
32732,-100,4,2,1,30,0,0
34015,-200,4,1,1,50,0,0
34410,-200,4,2,1,25,0,0
46252,-100,4,2,1,40,0,0
46745,-100,4,1,1,50,0,0
46943,-100,4,2,1,40,0,0
48324,-100,4,1,1,50,0,0
48522,-100,4,2,1,40,0,0
49903,-100,4,1,1,50,0,0
50101,-100,4,2,1,40,0,0
51556,-100,4,1,1,50,0,0
51679,-100,4,2,1,40,0,0
53061,-100,4,1,1,50,0,0
53258,-100,4,2,1,40,0,0
54640,-100,4,1,1,50,0,0
54837,-100,4,2,1,40,0,0
56219,-100,4,1,1,50,0,0
56416,-100,4,2,1,40,0,0
57008,-100,4,1,1,50,0,0
57206,-100,4,2,1,40,0,0
57798,-100,4,1,1,50,0,0
57995,-100,4,2,1,40,0,0
58587,-100,4,1,1,50,0,0
58785,-100,4,2,1,40,0,0
58967,-100,4,2,1,30,0,0
71910,-100,4,2,1,20,0,0
75166,-100,4,1,1,50,0,0
75364,-100,4,2,1,30,0,0
76745,-100,4,1,1,50,0,0
76943,-100,4,2,1,30,0,0
78398,-100,4,1,1,50,0,0
78522,-100,4,2,1,30,0,0
79903,-100,4,1,1,50,0,0
80046,-100,4,2,1,30,0,0
81482,-100,4,1,1,50,0,0
81679,-100,4,2,1,30,0,0
83061,-100,4,1,1,50,0,0
83258,-100,4,2,1,30,0,0
84640,-100,4,1,1,50,0,0
84837,-100,4,2,1,30,0,0
86219,-100,4,1,1,50,0,0
86416,-100,4,2,1,30,0,0
87699,-200,4,1,1,50,0,0
88094,-200,4,2,1,25,0,0
97469,-200,4,1,1,30,0,0
104154,-200,4,2,1,30,0,0
104964,-66.6666666666667,4,2,1,30,0,0
105141,-100,4,1,1,50,0,0
105339,-100,4,2,1,30,0,0
106720,-100,4,1,1,50,0,0
106918,-100,4,2,1,30,0,0
108299,-100,4,1,1,50,0,0
108620,-100,4,2,1,30,0,0
109878,-100,4,1,1,50,0,0
110076,-100,4,2,1,30,0,0
111457,-100,4,1,1,50,0,0
111969,-100,4,1,1,5,0,0
112049,-100,4,2,1,30,0,0
113036,-100,4,1,1,50,0,0
113233,-100,4,2,1,30,0,0
114615,-100,4,1,1,50,0,0
114812,-100,4,2,1,30,0,0
116194,-100,4,1,1,50,0,0
116391,-100,4,2,1,30,0,0
117773,-100,4,1,1,50,0,0
117970,-100,4,2,1,30,0,0
119352,-100,4,1,1,50,0,0
119549,-100,4,2,1,30,0,0
120931,-100,4,1,1,50,0,0
121128,-100,4,2,1,30,0,0
122510,-100,4,1,1,50,0,0
122707,-100,4,2,1,30,0,0
124089,-100,4,1,1,50,0,0
124286,-100,4,2,1,30,0,0
125688,-100,4,1,1,50,0,0
125885,-100,4,2,1,30,0,0
127247,-100,4,1,1,50,0,0
127444,-100,4,2,1,30,0,0
128036,-100,4,1,1,30,0,0
128233,-100,4,2,1,30,0,0
128826,-100,4,1,1,50,0,0
129238,-100,4,1,1,5,0,0
129436,-100,4,1,1,50,0,0
130404,-100,4,2,1,30,0,0
146219,-100,4,1,1,30,0,0
146416,-100,4,2,1,30,0,0
171457,-100,4,1,1,50,0,0
171679,-100,4,2,1,30,0,0
173036,-100,4,1,1,50,0,0
173258,-100,4,2,1,30,0,0
174615,-100,4,1,1,50,0,0
174837,-100,4,2,1,30,0,0
176194,-100,4,1,1,50,0,0
176416,-100,4,2,1,30,0,0
176983,-100,4,1,1,50,0,0
177206,-100,4,2,1,30,0,0
177773,-100,4,1,1,50,0,0
177995,-100,4,2,1,30,0,0
179352,-100,4,1,1,50,0,0
179574,-100,4,2,1,30,0,0
180931,-100,4,1,1,50,0,0
181153,-100,4,2,1,30,0,0
181720,-100,4,1,1,50,0,0
181943,-100,4,2,1,30,0,0
182431,-200,4,1,1,50,0,0
182732,-200,4,2,1,30,0,0
183620,-100,4,2,1,30,0,0
184089,-100,4,1,1,50,0,0
184311,-100,4,2,1,30,0,0
185668,-100,4,1,1,50,0,0
185890,-100,4,2,1,30,0,0
187247,-100,4,1,1,50,0,0
187469,-100,4,2,1,30,0,0
188826,-100,4,1,1,50,0,0
189048,-100,4,2,1,30,0,0
190404,-100,4,1,1,50,0,0
190627,-100,4,2,1,30,0,0
191983,-100,4,1,1,50,0,0
192206,-100,4,2,1,30,0,0
193562,-100,4,1,1,50,0,0
193785,-100,4,2,1,30,0,0
194352,-100,4,1,1,50,0,0
194574,-100,4,2,1,30,0,0
195141,-100,4,1,1,50,0,0
195364,-100,4,2,1,30,0,0
195931,-100,4,1,1,50,0,0
196153,-100,4,2,1,30,0,0
196720,-100,4,1,1,50,0,0
196943,-100,4,2,1,30,0,0
198299,-100,4,1,1,50,0,0
199286,-100,4,2,1,30,0,0
199878,-100,4,1,1,50,0,0
200865,-100,4,2,1,30,0,0
201457,-100,4,1,1,50,0,0
202454,-100,4,2,1,30,0,0
203046,-100,4,1,1,50,0,0
206303,-100,4,1,1,45,0,0
206697,-100,4,1,1,40,0,0
207092,-100,4,1,1,35,0,0
207487,-100,4,1,1,30,0,0
207882,-100,4,1,1,25,0,0
208276,-100,4,2,1,10,0,0

[Colours]
Combo1 : 255,166,210
Combo2 : 255,128,128
Combo3 : 255,162,117
Combo4 : 171,224,99
Combo5 : 116,160,182
Combo6 : 86,171,171
Combo7 : 102,175,230
Combo8 : 215,135,228

[HitObjects]
137,157,1047,2,0,B|134:233|192:273|270:259|322:198|299:110|249:75|163:105,1,360,4|0
210,250,2626,6,0,B|262:306|331:293|377:228|370:148|292:102|231:113|192:194,1,360,4|0
328,264,4205,6,0,B|404:266|444:208|430:130|369:78|281:101|246:151|276:237,1,360,4|0
338,194,5784,6,0,B|394:142|381:72|316:26|236:34|190:112|201:172|282:211,1,360,4|0
116,312,6969,5,8
196,272,7166,1,0
284,280,7363,1,12
464,304,7758,2,0,B|420:288|396:244,1,90,0|0
486,234,8153,2,0,B|430:270|350:250|334:178,1,180,0|0
224,48,8942,2,0,B|280:12|360:32|376:104,2,180,8|0|0
172,220,10126,6,0,B|116:256|36:236|20:164,1,180,8|8
200,136,10916,2,0,B|168:172|172:240,1,90,0|0
324,120,11311,2,0,B|308:74|247:43,1,90,0|0
272,232,11705,2,0,B|319:241|376:204,1,90,0|0
268,164,12100,1,8
428,84,12495,1,0
424,172,12692,1,0
448,260,12890,1,0
272,232,13284,6,0,B|232:260|216:304,1,90,8|0
136,260,13679,1,8
268,136,14074,2,0,B|245:198|307:266|383:234,1,180
316,68,14863,1,0
136,52,15258,2,0,B|92:64|56:104,1,90,8|0
124,164,15653,2,0,B|91:196|80:249,1,90
156,292,16047,1,0
388,164,16442,6,0,B|421:196|432:249,1,90,0|0
352,292,16837,1,8
256,140,17232,1,0
256,156,17626,1,8
256,172,18021,1,0
256,188,18416,2,0,B|256:288,2,90,8|0|8
256,192,19304,12,12,21574
208,248,21969,6,0,B|216:296|256:332,1,90,8|0
304,136,22363,2,0,B|296:88|256:52,1,90,0|0
200,144,22758,2,0,B|152:152|116:192,1,90,8|0
312,240,23153,2,0,B|360:232|396:192,1,90,8|0
420,112,23548,2,0,B|408:156|440:212|480:220,1,135,8|0
479,219,23942,1,0
312,240,24337,6,0,B|288:280|248:300,1,90,8|0
160,328,24732,2,0,B|116:340|68:328,2,90,8|0|8
56,180,25521,2,0,B|72:76,1,90
124,264,25916,2,0,B|108:368,1,90,8|0
208,200,26311,6,0,B|224:96,1,90,8|0
280,280,26705,2,0,B|264:384,1,90,8|0
420,272,27100,2,0,B|380:304|392:356|444:376|484:344|484:304,1,180,0|8
484,304,27692,1,0
360,128,27890,6,0,B|360:72,2,45,8|0|0
388,212,28284,2,0,B|404:256|448:284,1,90,8|0
360,312,28679,2,0,B|344:356|300:384,1,90,0|0
296,244,29074,1,8
388,212,29271,1,0
456,288,29469,1,8
144,148,29863,6,0,B|104:124|88:80,2,90,8|0|0
212,208,30455,1,0
296,244,30653,1,8
288,156,30850,1,0
224,292,31048,6,0,B|252:332|305:331,1,90,8|0
360,112,31442,2,0,B|332:72|279:73,1,90,8|0
224,292,31837,2,0,B|148:344,1,90
360,112,32232,2,0,B|436:60,1,90,8|0
296,204,32626,5,8
268,116,32824,1,0
200,56,33021,1,8
200,56,33416,5,0
268,116,33811,1,8
296,204,34205,2,0,B|288:264|364:316|428:288,1,180,8|0
388,200,35390,5,0
421,290,35784,1,8
476,216,36179,1,0
388,200,36574,1,0
444,128,36969,1,0
356,116,37363,5,8
388,200,37758,1,0
300,188,38153,1,0
332,272,38547,1,0
388,200,38942,5,8
356,116,39337,2,0,B|312:99|280:59,1,90,0|0
196,88,40126,2,0,B|152:105|120:145,1,90,0|8
96,224,40916,2,0,B|91:261|110:305,1,67.5,0|0
104,290,41311,2,0,B|148:273|180:233,1,90,0|0
256,280,42100,6,0,B|256:192,1,90,8|0
216,108,42890,2,0,B|200:68|224:36|256:32|288:40|312:60|296:116,1,180,8|8
256,192,43778,12,0,46047
288,68,46442,5,8
352,132,46640,1,0
388,216,46837,2,0,B|368:276|416:344|488:340,1,180,12|0
472,252,47429,1,0
400,304,47626,2,0,B|368:340|320:344,2,90,0|0|0
324,252,48219,1,0
236,264,48416,6,0,B|172:284|104:236|100:176,1,180,8|0
56,8,49008,2,0,B|92:40|80:96,1,90,0|0
40,248,49600,5,0
100,180,49797,1,0
180,136,49995,2,0,B|220:112|268:120,1,90,8|0
240,208,50390,2,0,B|286:211|321:245,1,90
248,296,50784,2,0,B|284:325|293:373,1,90
320,244,51179,2,0,B|316:196|340:152|388:136,1,135
428,124,51574,2,0,B|416:160|440:196|496:196|516:144|504:116|464:100,2,180,8|0|0
256,200,52758,6,0,B|256:300,2,90,8|0|8
92,272,53547,1,0
168,224,53745,1,0
192,136,53942,2,0,B|184:84|144:52,1,90
104,136,54337,2,0,B|152:152|200:132,1,90
280,112,54732,2,0,B|300:64|392:24|444:56,2,180,8|0|0
296,296,55916,2,0,B|264:308|256:320|256:320|248:308|216:296,1,90,0|0
152,236,56311,5,8
116,196,56705,1,0
212,176,57100,5,8
200,124,57495,1,0
300,176,57890,5,8
312,124,58284,1,0
360,236,58679,5,8
396,196,59074,1,4
256,192,72100,12,12,75258
260,131,75653,5,8
308,56,75850,1,0
324,208,76047,2,0,B|284:244|188:228|170:172,1,180,0|8
404,76,76837,6,0,B|440:104|460:160,1,90,8|0
404,308,77232,2,0,B|440:280|460:224,2,90,8|0|0
348,240,77824,1,0
316,328,78021,2,0,B|244:296|256:216,1,135,8|0
255,220,78416,5,8
160,68,78811,2,0,B|72:48,1,90,8|0
104,132,79205,2,0,B|17:158,1,90
94,216,79600,2,0,B|33:282,1,90,8|0
128,293,79995,6,0,B|116:348,2,45,8|0|0
183,221,80390,2,0,B|232:216|264:188,1,90,8|0
272,96,80784,2,0,B|252:152|280:232|356:240,1,180,0|8
356,64,81574,5,8
272,96,81771,1,0
184,104,81969,2,0,B|136:92|104:48,1,90,8|0
236,184,82363,2,0,B|252:232|208:316|144:328,1,180,0|8
68,172,82955,6,0,B|104:208|144:220,1,90,0|8
312,336,83548,1,8
272,244,83745,1,0
256,136,83942,1,0
256,136,84337,2,0,B|244:88|256:40,1,90,8|0
254,46,84732,5,8
167,204,84929,1,0
347,204,85126,1,8
188,112,85521,5,0
256,228,85719,1,0
328,112,85916,1,8
167,204,86311,6,0,B|124:228|100:268,1,90,8|0
256,228,86705,2,0,B|256:320,1,90,8|0
348,204,87100,2,0,B|391:228|415:268,2,90,0|0|8
256,228,87890,6,0,B|196:244|128:204|120:140,1,180,8|0
100,56,89074,1,0
120,144,89469,2,0,B|132:192|104:232,1,90,8|0
40,172,90258,2,0,B|72:136|120:144,1,90
204,176,91048,5,8
136,236,91442,1,0
224,220,91837,1,0
152,276,92232,1,0
240,256,92626,2,0,B|276:340,2,90,8|0|0
168,204,93811,2,0,B|184:176|224:168,1,67.5
222,168,94205,6,0,B|263:148|283:100,1,90,8|0
252,16,94995,2,0,B|211:36|191:84,1,90,8|0
136,152,95784,2,0,B|112:196|71:218,1,90,8|0
48,128,96574,1,8
136,152,96969,1,0
200,216,97363,1,8
256,192,97462,12,8,103679
203,73,104271,6,0,B|238:96|262:168|256:192,1,135,0|0
385,205,105061,6,0,B|347:224|272:209|256:192,1,135,0|12
196,260,105653,6,0,B|164:304|96:340,1,90
129,320,106048,2,0,B|144:268|220:228|288:268,1,180,8|0
360,304,106640,1,0
424,368,106837,6,0,B|504:320,1,90,8|0
360,304,107232,2,0,B|382:213,1,90
276,264,107626,2,0,B|228:183,1,90,8|0
276,264,108021,5,8
360,304,108219,1,0
424,368,108416,1,8
424,368,108811,1,0
360,304,109008,1,0
276,264,109205,2,0,B|216:264|140:192|156:124,1,180,8|0
140,284,109798,5,0
228,180,109995,1,8
96,212,110192,1,0
224,268,110390,1,0
154,150,110587,1,0
140,284,110784,1,8
380,112,111179,5,0
332,188,111376,1,0
324,280,111574,2,0,B|348:328|320:380|320:380|256:384|212:336|208:248,1,270,8|0
196,160,112363,2,0,B|216:108|256:84,1,90,8|0
324,68,112758,5,0
196,160,112955,1,0
248,8,113153,1,8
300,160,113350,1,0
176,68,113548,1,0
324,68,113745,1,0
196,160,113942,1,8
324,68,114337,5,0
384,136,114534,1,0
372,224,114732,1,8
156,200,115126,5,0
216,272,115324,1,0
304,284,115521,1,8
168,112,115916,5,0
240,52,116113,1,0
328,64,116311,2,0,B|284:40|172:72|160:132,1,180,8|0
216,272,117100,2,0,B|260:296|372:264|384:204,1,180,8|0
384,136,117692,1,0
216,272,117890,6,0,B|152:272|116:296,1,90,12|0
32,196,118284,2,0,B|77:241|119:249,1,90
216,272,118679,2,0,B|260:296|372:264|384:204,1,180,8|0
280,196,119271,1,0
308,292,119469,6,0,B|340:348|392:360,1,90,8|0
376,224,119863,2,0,B|438:240|483:212,1,90
376,127,120258,2,0,B|432:94|444:43,2,90,8|0|0
280,152,120850,1,0
27,91,121048,6,0,B|33:135|129:171|180:160,1,180,8|0
280,152,121640,1,0
336,80,121837,2,0,B|292:104|260:200|300:248,1,180,8|0
352,312,122429,1,0
440,336,122626,6,0,B|396:300|280:320|280:396,1,180,8|0
196,352,123219,1,0
128,292,123416,2,0,B|96:236|104:152|144:108,1,180,8|0
188,52,124008,1,0
436,108,124205,6,0,B|380:140|296:132|252:92,1,180,8|0
188,52,124798,1,0
324,264,124995,2,0,B|261:247|208:181|205:122,1,180,8|0
188,52,125587,1,0
132,298,125784,6,0,B|188:308|248:280,1,90,8|0
324,264,126179,2,0,B|370:231|393:169,1,90
436,108,126574,2,0,B|446:51|418:-7,1,90,8|0
436,108,126969,5,0
380,196,127166,1,0
368,36,127363,5,8
276,72,127561,1,0
288,168,127758,1,0
380,196,127955,5,0
476,184,128153,1,8
512,272,128350,1,0
436,336,128548,1,0
352,284,128745,1,0
268,256,128942,6,0,B|248:312|192:308|176:252|216:224|216:224|224:180|200:104|108:104|64:148,1,360,8|8
77,137,130521,5,4
256,192,143153,12,0,146113
448,76,146311,54,0,B|424:52|424:52|408:76|408:76|432:100|432:156|392:188,1,180,12|0
256,296,147100,2,0,B|200:308|120:264|108:208,1,180,8|0
88,128,147692,1,0
156,67,147890,2,0,B|193:116|173:194|109:217,1,180,10|0
272,64,148482,5,0
272,64,148679,2,0,B|360:40,2,90,8|0|0
272,156,149271,1,0
472,280,149469,6,0,B|424:316|336:288|320:232,1,180,10|0
272,156,150061,1,0
360,180,150258,2,0,B|340:232|296:248|244:248,1,135,8|0
253,247,150653,1,0
168,272,150850,1,0
76,256,151048,6,0,B|80:308|108:348,1,90,10|0
272,156,151442,2,0,B|268:104|240:64,1,90,0|0
96,172,151837,2,0,B|148:168|188:140,1,90,8|0
331,44,152232,2,0,B|279:48|239:76,1,90,0|0
181,145,152626,6,0,B|168:212|236:268|304:244,1,180,10|0
384,240,153219,1,0
332,168,153416,2,0,B|280:204|280:300|352:336,1,180,8|0
384,240,154008,1,0
294,247,154205,2,0,B|307:314|239:370|171:346,1,180,10|0
103,299,154797,53,0
103,299,154995,2,0,B|84:256|84:212,2,90,8|0|0
16,300,155587,1,0
152,156,155784,6,0,B|196:207|165:290|94:303,1,180,10|0
84,212,156376,1,0
96,124,156574,2,0,B|124:152|176:168|240:152,1,135,8|0
222,155,156969,1,0
312,144,157166,1,0
396,112,157363,6,0,B|444:92|472:44,1,90,10|0
464,56,157758,2,0,B|448:105|467:157,1,90,0|0
396,204,158153,1,8
456,272,158350,1,0
404,348,158548,1,0
316,324,158745,1,0
304,232,158942,6,0,B|276:192|232:168,1,90,10|0
172,120,159337,2,0,B|132:92|108:48,1,90,0|0
199,34,159732,2,0,B|194:82|168:125,1,90,8|0
128,196,160126,2,0,B|107:240|68:271,1,90,0|0
40,184,160521,5,10
73,266,160719,1,0
144,320,160916,1,0
228,356,161113,1,0
48,372,161311,53,8
73,266,161508,1,0
132,176,161705,1,0
212,104,161903,1,0
212,104,162100,6,0,B|252:80|256:24,1,90,10|0
255,30,162495,2,0,B|258:76|302:108,1,90
360,172,162890,2,0,B|396:204|416:248,1,90,8|0
480,184,163284,2,0,B|428:208|412:248,1,90
324,256,163679,5,10
252,308,163876,1,0
160,316,164074,2,0,B|112:308|72:268,1,90
93,48,164469,2,0,B|152:64|168:144|136:204,1,180,8|0
68,136,165061,1,0
155,115,165258,6,0,B|192:88|244:80,1,90,10|0
138,200,165653,2,0,B|179:218|212:259,1,90,0|0
56,224,166048,2,0,B|60:269|41:318,1,90,8|0
68,136,166442,1,0
156,116,166640,1,0
364,132,166837,6,0,B|352:188|300:201|256:212|216:176,1,180,10|0
276,112,167429,1,0
304,196,167626,2,0,B|344:292,1,90,8|0
324,316,168021,2,0,B|276:204,1,90
194,227,168416,53,10
216,121,168613,1,0
318,155,168811,1,2
296,260,169008,1,0
371,221,169205,5,10
285,72,169403,1,0
141,160,169600,1,2
225,305,169798,1,0
225,305,171179,6,0,B|296:240,1,90,2|0
312,168,171574,2,0,B|240:188|228:264|296:316|384:288|368:208,1,270,12|0
384,120,172363,2,0,B|396:52|356:16,1,90,0|0
300,88,172758,2,0,B|260:31|206:34,1,90
204,124,173153,6,0,B|135:112|100:152,2,90,12|0|0
172,208,173745,1,0
117,137,173942,2,0,B|65:161|65:261|133:281,1,180,2|0
220,284,174534,1,0
216,376,174732,6,0,B|179:320|253:244|307:264,1,180,12|0
396,268,175324,1,0
472,316,175521,2,0,B|408:316|388:192|456:176,1,180,0|0
508,112,176113,1,0
420,100,176311,6,0,B|300:112,1,90,12|0
324,244,176705,2,0,B|204:256,1,90,0|0
168,136,177100,2,0,B|48:148,1,90,12|0
168,136,177495,5,0
276,248,177692,1,0
330,108,177890,1,12
352,196,178087,5,0
416,260,178284,2,0,B|492:240|464:168|484:144|520:236|516:360|384:376|296:320,1,360
248,252,179271,1,0
204,156,179469,6,0,B|192:96|236:52,1,90,12|0
313,164,179863,2,0,B|371:184|387:244,1,90
248,252,180258,2,0,B|202:292|141:276,1,90
165,280,180653,5,0
380,220,180850,1,0
218,70,181048,1,12
228,100,181442,1,0
236,132,181837,1,12
248,164,182232,1,0
256,196,182626,2,0,B|284:284,2,90,12|0|12
256,196,183811,5,0
360,104,184008,1,0
388,236,184205,2,0,B|428:264|480:256,1,90,12|0
360,104,184600,2,0,B|364:55|331:14,1,90
256,196,184995,2,0,B|211:216|192:265,1,90,8|0
152,336,185390,5,0
194,259,185587,1,0
176,168,185784,2,0,B|144:108|96:92,1,90,12|0
28,124,186179,2,0,B|60:184|108:200,1,90
176,168,186574,1,8
248,116,186771,1,0
328,160,186969,1,8
304,244,187166,1,0
212,252,187363,6,0,B|252:204|356:268|324:324,1,180,12|0
404,296,187955,1,0
476,244,188153,2,0,B|496:192|472:144,1,90,8|0
356,96,188548,2,0,B|336:148|360:196,1,90
403,294,188942,6,0,B|380:240|280:232|250:291,1,180,12|0
168,328,189534,1,0
80,312,189732,2,0,B|20:312|-24:220|16:168,1,180,8|0
60,100,190324,1,0
282,140,190521,6,0,B|264:196|168:204|124:164,1,180,12|0
60,100,191113,1,0
127,166,191311,2,0,B|179:198|183:242,1,90,8|0
96,252,191705,2,0,B|96:308|58:338,1,90
4,264,192100,5,12
182,236,192298,1,0
56,364,192495,1,0
84,188,192692,1,0
168,348,192890,1,8
4,264,193087,1,0
100,280,193284,5,0
100,280,193482,1,0
344,348,193679,5,12
100,280,194074,1,0
168,36,194469,1,12
412,104,194863,1,0
344,348,195258,6,0,B|288:368|216:332|216:192|312:200|408:376|204:312|188:296,1,270
136,308,196048,2,0,B|72:304|16:268,2,90,12|0|0
120,220,196640,5,0
60,152,196837,2,0,B|96:104|196:112|208:196,1,180,12|0
248,260,197429,1,0
304,332,197626,2,0,B|340:380|440:372|452:288,1,180,8|0
476,216,198219,1,0
348,172,198416,5,12
348,172,199205,1,12
420,116,199403,5,0
348,172,199600,1,0
240,176,199798,1,0
120,144,199995,5,12
120,144,200784,1,12
200,48,200982,5,0
340,72,201179,1,0
472,168,201376,1,0
500,348,201574,5,12
500,348,202363,1,12
408,232,202561,5,0
264,160,202758,1,0
92,188,202955,1,0
0,356,203153,5,12
0,356,203942,1,12
256,192,204732,12,0,208482
