osu file format v6

[General]
AudioFilename: KOKIA - Chouwa oto ~with reflection~.mp3
AudioLeadIn: 0
PreviewTime: 48364
Countdown: 0
SampleSet: Soft
StackLeniency: 1
Mode: 0
LetterboxInBreaks: 1

[Editor]
Bookmarks: 15475,115355
DistanceSpacing: 1
BeatDivisor: 2
GridSize: 8

[Metadata]
Title:Chouwa oto ~with reflection~
Artist:KOKIA
Creator:Stickly Man
Version:Normal
Source:Origin: Spirits of the Past
Tags:Japanese Kokia Origin

[Difficulty]
HPDrainRate:4
CircleSize:5
OverallDifficulty:4
SliderMultiplier:0.8
SliderTickRate:1

[Events]
//Background and Video events
0,0,"origin5_resize.jpg"
//Break Periods
2,103363,112510
2,122030,136510
//Storyboard Layer 0 (Background)
//Storyboard Layer 1 (Fail)
//Storyboard Layer 2 (Pass)
//Storyboard Layer 3 (Foreground)
//Storyboard Sound Samples
//Background Colour Transformations
3,100,163,162,255

[TimingPoints]
497,333.333333333333,3,2,0,40,1,0
32330,-100,3,2,0,70,0,0
137812,-100,3,2,0,80,0,1
152988,-100,3,2,0,80,0,0

[Colours]
Combo1 : 0,140,255
Combo2 : 0,167,0
Combo3 : 220,220,0
Combo4 : 255,75,60
Combo5 : 255,175,0

[HitObjects]
72,80,16496,1,2
136,80,16830,1,0
200,80,17163,1,0
264,80,17496,1,2
440,160,18496,5,2
376,160,18830,1,0
312,160,19163,1,0
248,160,19496,1,2
72,232,20496,5,2
136,232,20830,1,0
200,232,21163,1,0
264,232,21496,1,2
440,312,22496,5,2
376,312,22830,1,0
311,312,23163,1,0
248,312,23497,1,2
40,336,24497,5,2
95,304,24830,2,0,B|146:286|122:222,1,80,0|0
65,252,25497,1,2
84,191,25830,1,0
146,179,26163,1,0
146,243,26497,5,2
200,210,26830,2,0,B|219:159|283:183,1,80,0|0
253,240,27497,1,2
312,217,27830,1,0
324,155,28163,1,0
262,172,28497,5,2
278,110,28830,2,0,B|329:91|305:27,1,80,0|0
248,60,29497,1,2
187,39,29830,1,0
128,63,30163,1,0
83,108,30497,5,2
142,132,30830,1,0
201,105,31163,1,0
201,169,31497,1,2
140,189,31830,1,0
83,160,32163,1,0
103,225,32497,5,4
171,293,32997,1,0
239,225,33497,2,2,B|263:185|319:185,2,80
284,270,34497,5,2
352,203,34997,1,0
284,135,35497,2,2,B|244:111|244:55,2,80
329,89,36497,5,2
262,21,36997,1,0
194,89,37497,2,2,B|170:129|114:129,2,80
258,89,38496,1,2
66,89,39496,1,2
232,184,40496,5,2
136,184,40996,1,0
56,128,41496,2,2,B|80:88|136:88,2,80
120,128,42496,5,2
192,64,42996,1,0
288,64,43496,2,2,B|328:88|328:144,2,80
352,64,44496,5,2
352,160,44996,1,0
280,224,45496,2,2,B|240:200|240:144,2,80
218,224,46496,5,2
216,160,46830,1,2
216,160,46996,1,0
280,160,47330,1,2
280,160,47496,1,4
104,152,48496,5,2
104,216,48830,1,0
104,216,48996,1,2
168,216,49330,1,0
168,216,49496,2,0,B|192:176|248:176,2,80
168,280,50496,5,2
232,280,50830,1,0
232,280,50996,1,2
296,280,51330,1,0
296,280,51496,2,0,B|336:256|336:200,2,80,0|0|0
232,280,52496,5,0
232,216,52830,1,0
232,216,52996,1,2
168,216,53330,1,0
168,216,53496,2,0,B|144:256|88:256,2,80
104,216,54496,5,2
104,152,54830,1,0
104,88,55163,1,0
168,88,55496,1,2
168,152,55830,1,0
168,216,56163,1,0
232,216,56496,5,4
296,216,56830,1,0
296,216,56996,1,2
296,152,57330,1,0
296,152,57496,2,0,B|320:192|376:192,2,80,0|0|0
232,152,58496,5,2
168,152,58830,1,0
168,152,58996,1,2
168,88,59330,1,0
168,88,59496,2,0,B|208:64|208:8,2,80
232,88,60496,5,2
232,152,60830,1,0
232,152,60996,1,2
296,152,61330,1,0
296,152,61496,2,0,B|320:112|376:112,2,80
296,216,62496,5,2
296,280,62830,1,0
296,280,62996,1,2
232,280,63330,1,2
232,280,63496,1,4
352,184,64496,6,2,B|240:176|240:40,1,200
240,48,65496,1,0
304,48,65830,1,2
368,48,66163,6,2,B|368:192|256:192,1,200
264,192,67163,1,0
200,192,67496,1,2
136,192,67830,6,2,B|205:287|39:253|82:355,1,200
80,352,68830,1,0
144,352,69163,1,2
208,352,69496,1,4
336,352,70163,6,2,B|312:264|194:314|240:168,1,200
232,200,71163,1,0
232,136,71496,1,2
296,136,71830,6,2,B|320:224|438:174|392:320,1,200
400,288,72830,1,0
344,320,73163,1,2
280,344,73496,6,2,B|256:288|272:248,1,80,0|0
272,234,73996,2,2,B|280:194|296:170,1,40,0|0
301,134,74496,1,2
301,70,74830,1,4
237,70,75163,6,2,B|213:126|229:166,1,80,0|0
231,180,75663,2,2,B|239:220|255:244,1,40,0|0
264,278,76163,1,2
309,323,76496,1,4
376,320,76830,6,2,B|342:221|216:187,1,200
232,192,77830,1,0
168,192,78163,1,2
104,192,78496,6,2,B|159:97|280:104,1,200,0|0
272,104,79497,1,0
336,104,79830,1,2
381,149,80163,6,2,B|381:245|194:217,1,200,0|0
222,221,81163,1,0
158,221,81497,1,2
158,157,81830,1,4
68,67,82497,6,2,B|172:75|157:179|269:162,1,200
236,164,83497,1,0
281,209,83830,1,2
345,209,84163,6,2,B|278:135|315:80|222:30,1,200
242,42,85163,1,0
306,42,85497,1,2
351,87,85830,6,2,B|247:71|191:127,1,160,0|0
177,142,86663,1,0
154,165,86830,1,2
109,210,87163,1,0
109,274,87497,1,4
208,272,88163,6,2,B|336:200|200:160|200:160,1,160
224,104,89163,1,4
269,149,89497,1,2
314,194,89830,1,0
352,240,90163,6,2,B|224:168|360:128|360:128,1,160,0|0
288,128,91163,1,4
242,173,91497,1,2
197,218,91830,1,0
200,152,92163,5,2
200,88,92497,1,0
200,24,92830,1,0
145,58,93163,1,2
145,121,93497,1,0
145,185,93830,1,0
86,161,94163,2,2,B|86:249|198:249,1,160
240,208,95163,2,2,B|240:120|128:120,1,160
64,120,96163,6,2,B|64:56|112:56,3,80
448,256,98163,6,2,B|448:320|400:320,3,80
384,72,100163,6,2,B|448:72|448:120,3,80
128,320,102163,6,2,B|64:320|64:272,3,80
256,192,113830,6,2,B|245:143|192:144,2,80,2|2|2
200,144,114830,2,2,B|147:151|156:208,2,80
154,198,115830,6,2,B|154:246|218:246,2,80
206,245,116830,2,2,B|254:245|254:181,2,80,0|0|0
141,245,117830,5,2
141,181,118163,1,0
205,181,118497,1,0
205,245,118830,1,2
237,245,118997,1,0
269,245,119163,1,0
269,181,119497,1,0
269,117,119830,1,2
237,117,119997,1,0
205,117,120163,1,0
173,117,120330,1,2
173,181,120663,5,0
173,180,120830,1,2
173,244,121163,1,0
236,244,121497,1,2
300,244,121830,1,4
208,40,137830,6,2,B|152:40|152:104,1,80,0|2
208,96,138330,2,2,B|209:144|140:144,1,80,0|2
152,200,138830,6,2,B|158:256|220:256,1,80,0|2
208,200,139330,2,2,B|220:141|288:141,1,80,0|2
272,200,139830,6,2,B|327:196|327:147,1,80,0|2
272,144,140330,2,2,B|272:96|336:96,1,80,0|2
384,96,140830,6,2,B|437:96|442:160,1,80,0|2
384,152,141330,2,2,B|371:203|434:197,1,80,0|2
480,200,141830,6,2,B|491:251|423:247,1,80,0|2
376,248,142330,2,2,B|376:305|309:306,1,80,0|2
320,248,142830,6,2,B|261:250|265:186,1,80,0|2
320,192,143330,2,2,B|320:144|256:144,1,80,0|2
208,160,143830,6,2,B|326:278,1,160,2|2
257,273,144830,6,2,B|89:273,1,160,2|2
96,224,145830,5,6
96,159,146163,1,0
96,128,146330,1,2
192,128,146663,1,0
192,160,146830,1,2
288,160,147163,2,0,B|288:112,1,40
288,120,147497,2,2,B|288:72,1,40,0|0
328,80,147830,5,4
373,124,148163,1,0
373,156,148330,1,2
314,180,148663,1,0
314,148,148830,1,2
312,88,149163,2,0,B|264:88,1,40
272,88,149497,2,2,B|224:88,1,40
184,87,149830,5,4
104,88,150163,1,0
104,128,150330,1,2
104,208,150663,1,0
144,208,150830,1,2
224,208,151163,1,2
304,208,151497,1,2
384,208,151830,1,2
384,128,152163,1,0
384,128,152330,1,2
384,48,152663,1,2
384,48,152830,1,4
424,88,153830,5,2
80,88,154830,1,2
80,264,155830,1,2
160,264,156163,1,0
240,264,156497,1,0
319,264,156830,1,2
440,264,157830,5,2
440,72,158830,1,2
304,72,159830,1,2
223,72,160163,1,0
143,72,160496,1,0
64,72,160830,1,2
64,152,161163,1,0
64,232,161496,1,0
64,312,161830,5,4
416,312,162830,1,2
64,192,163830,5,2
416,192,164830,1,2
64,64,165830,5,2
416,64,166830,1,2
256,96,167830,5,2
210,141,168163,1,0
255,186,168496,1,0
210,231,168830,1,4
