osu file format v6

[General]
AudioFilename: KOKIA - Chouwa oto ~with reflection~.mp3
AudioLeadIn: 0
PreviewTime: 48253
Countdown: 0
SampleSet: Soft
StackLeniency: 1
Mode: 0
LetterboxInBreaks: 1

[Editor]
Bookmarks: 15475,91163,115355
DistanceSpacing: 0.800000011920929
BeatDivisor: 2
GridSize: 8

[Metadata]
Title:Chouwa oto ~with reflection~
Artist:KOKIA
Creator:Stickly Man
Version:Hard
Source:Origin: Spirits of the Past
Tags:Japanese Kokia Origin

[Difficulty]
HPDrainRate:6
CircleSize:5
OverallDifficulty:7
SliderMultiplier:0.8
SliderTickRate:1

[Events]
//Background and Video events
0,0,"origin5_resize.jpg"
//Break Periods
2,103363,112930
//Storyboard Layer 0 (Background)
//Storyboard Layer 1 (Fail)
//Storyboard Layer 2 (Pass)
//Storyboard Layer 3 (Foreground)
Sprite,Foreground,Centre,"speed_2x.png",320,240 F,0,30975,31142,0 F,0,31142,31308,0,0.3535999 S,0,30983,31475,0.1,0.5776001 F,0,31308,31475,0.3535999,1 R,0,31308,31475,-0.3839999,0.01279998 M,2,31475,,220,166 M,2,31475,,220,166 F,0,31475,31642,1 S,0,31475,31642,0.5776001,0.4944001 R,0,31475,31642,0.01279998,0.4096002 F,0,31642,31808,1 S,0,31642,31808,0.4944001,0.6032002 R,0,31642,31808,0.4096002,0.05119996 F,0,31808,31975,1 S,0,31808,31975,0.6032002,0.4944003 R,0,31808,31975,0.05119996,-0.3711999 F,0,31975,32142,1 S,0,31975,32142,0.4944003,0.5840003 R,0,31975,32142,-0.3711999,-0.07679991 F,0,32142,32308,1 S,0,32142,32308,0.5840003,0.4816004 R,0,32142,32308,-0.07679991,0.3968002 F,0,32308,32475,1 S,0,32308,32475,0.4816004,0.5584005 R,0,32308,32475,0.3968002,0.03840059 F,0,32475,32642,1,0.6544001 S,0,32475,32642,0.5584005,0.4944006 R,0,32475,32642,0.03840059,-0.4223993 F,0,32642,32808,0.6544001,0.4592001 S,0,32642,32808,0.4944006,0.5520005 R,0,32642,32808,-0.4223993,-0.01279937 F,0,32808,32975,0.4592001,0.2512001 S,0,32808,32975,0.5520005,0.4624003 R,0,32808,32975,-0.01279937,0.4736005 F,0,32975,33142,0.2512001,0 S,0,32975,33142,0.4624003,0.1
//Storyboard Sound Samples
//Background Colour Transformations
3,100,163,162,255

[TimingPoints]
497,333.333333333333,3,2,0,40,1,0
30660,-100,3,2,0,50,0,0
30990,-100,3,2,0,60,0,0
31330,-100,3,2,0,70,0,0
31660,-100,3,2,0,80,0,0
31990,-100,3,2,0,90,0,0
32330,-50,3,2,0,60,0,0
48160,-50,3,2,0,71,0,0
64160,-50,3,2,0,51,0,0
87830,-50,3,2,0,71,0,0
153799,-50,3,2,0,71,0,1
169988,-50,3,2,0,71,0,0

[Colours]
Combo1 : 0,140,255
Combo2 : 0,167,0
Combo3 : 220,220,0
Combo4 : 255,75,60
Combo5 : 255,175,0

[HitObjects]
71,129,16496,2,0,B|58:73|89:46,1,80
142,30,17163,1,2
196,64,17496,6,0,B|209:120|178:147,1,80
139,186,18163,1,2
94,231,18496,6,0,B|81:287|112:314,1,80
160,342,19163,1,2
219,317,19496,6,0,B|232:261|201:234,1,80
188,180,20163,1,2
217,123,20496,6,0,B|204:67|235:40,1,80
290,29,21163,1,2
343,63,21496,6,0,B|356:119|325:146,1,80
287,185,22163,1,2
242,230,22496,6,0,B|229:286|260:313,1,80
310,335,23163,1,2
365,302,23497,6,0,B|391:237|385:196,1,80
387,163,24163,1,2
340,113,24497,5,2
288,64,24830,1,0
256,48,24997,1,0
224,64,25163,1,0
160,128,25497,5,4
224,96,25830,1,0
256,80,25997,1,0
288,96,26163,1,0
352,160,26497,5,2
288,128,26830,1,0
256,112,26997,1,0
224,128,27163,1,0
160,192,27497,5,4
224,160,27830,1,0
256,144,27997,1,0
288,160,28163,1,0
352,224,28497,5,2
288,192,28830,1,0
256,176,28997,1,0
224,192,29163,1,0
160,256,29497,5,4
224,224,29830,1,0
256,208,29997,1,0
288,224,30163,1,0
352,224,30497,5,2
387,170,30830,1,0
377,106,31163,1,0
330,61,31497,1,2
268,42,31830,1,0
204,50,32163,1,0
112,144,32497,6,2,B|112:256|208:256,1,160
200,256,32997,2,0,B|200:144|296:144,1,160
288,144,33497,2,2,B|368:144|320:32|392:32,2,160
288,144,34330,1,0
352,144,34497,6,2,B|352:256|256:256,1,160
264,256,34997,2,0,B|264:144|168:144,1,160
176,144,35497,2,2,B|96:144|144:32|72:32,2,160
176,144,36330,1,0
112,144,36497,6,2,B|48:224|112:288,1,160
112,288,36997,2,0,B|176:208|112:144,1,160,0|0
112,144,37497,2,2,B|176:144|176:88,1,80
216,56,37830,1,0
272,32,37996,1,0
328,56,38163,1,2
360,112,38330,1,0
368,176,38496,6,2,B|368:320|176:320|176:176,1,320,2|0
272,176,39496,2,2,B|272:32|464:32|464:176,1,320,2|0
400,240,40496,6,2,B|400:128|304:128,1,160
312,128,40996,2,0,B|312:240|216:240,1,160
224,240,41496,2,2,B|144:240|192:352|120:352,2,160
224,240,42330,1,0
160,240,42496,6,2,B|160:128|256:128,1,160
248,128,42996,2,0,B|248:240|344:240,1,160
336,240,43496,2,2,B|416:240|368:352|440:352,2,160
336,240,44330,1,0
400,240,44496,6,2,B|464:160|400:96,1,160
400,96,44996,2,0,B|336:176|400:240,1,160,0|0
400,240,45496,2,2,B|336:240|336:296,1,80
296,328,45830,1,0
240,352,45996,1,0
184,328,46163,1,2
152,272,46330,1,0
136,192,46496,6,2,B|136:128|200:128,3,80,0|0|0|0
336,130,47330,2,2,B|384:130|384:194,1,80,0|4
256,192,48496,6,2,B|256:144|192:144,1,80
202,144,48830,1,0
202,144,48996,2,2,B|138:144|138:96,1,80
140,107,49330,1,0
140,107,49496,2,2,B|128:32|352:32|352:32,1,240
348,32,50163,2,2,B|416:32|416:80,1,80,2|0
368,96,50496,6,2,B|368:144|432:144,1,80
422,144,50830,1,0
422,144,50996,2,2,B|486:144|486:192,1,80
484,181,51330,1,0
484,181,51496,2,2,B|496:256|272:256|272:256,1,240
276,256,52163,2,0,B|208:256|208:208,1,80
216,184,52496,6,2,B|216:136|280:136,1,80
268,136,52830,1,0
268,136,52996,2,2,B|268:176|332:176,1,80
328,176,53330,1,0
328,176,53496,2,2,B|424:280|296:376|232:296|232:296,1,240
243,305,54163,2,0,B|179:281|155:249,1,80
112,216,54496,6,2,B|112:20|360:20|360:184,1,400,2|0
288,200,55496,2,2,B|272:360|480:360|480:200,1,320
477,227,56330,1,0
448,152,56496,5,4
344,56,56830,1,0
344,56,56996,1,2
264,64,57330,1,0
224,88,57496,1,2
264,104,57663,1,0
224,120,57830,1,2
264,136,57996,1,0
224,152,58163,1,2
264,168,58330,1,0
304,168,58496,5,4
464,168,58830,1,0
464,168,58996,1,2
304,168,59330,1,0
288,208,59496,1,2
272,168,59663,1,0
256,208,59830,1,2
240,168,59996,1,0
224,208,60163,1,2
208,168,60330,1,0
208,128,60496,5,4
24,128,60830,1,0
24,128,60996,1,2
184,128,61330,1,0
200,168,61496,1,2
216,128,61663,1,0
232,168,61830,1,2
248,128,61996,1,0
264,168,62163,1,2
280,128,62330,1,0
280,88,62496,5,4
424,88,62830,1,0
424,88,62996,1,2
424,208,63330,1,2
424,208,63496,1,4
256,160,64496,6,0,B|256:96|320:96,2,80
256,224,64996,2,0,B|256:288|320:288,2,80
200,192,65496,2,0,B|168:232|128:192,1,80,0|0
168,144,65830,2,2,B|200:104|240:144,1,80
288,192,66163,6,0,B|352:192|352:256,2,80
224,192,66663,2,0,B|160:192|160:256,2,80
256,136,67163,2,2,B|216:104|256:64,1,80,0|0
304,104,67496,2,2,B|344:136|304:176,1,80
256,224,67830,6,0,B|256:288|192:288,2,80
256,160,68330,2,0,B|256:96|192:96,2,80
312,192,68830,2,2,B|344:152|384:192,1,80,0|0
344,240,69163,2,2,B|312:280|272:240,1,80
256,192,69496,1,2
299,71,69830,5,4
392,168,70163,6,0,B|392:232|456:232,2,80
392,104,70663,2,0,B|392:40|328:40,2,80
336,128,71163,2,2,B|304:88|264:128,1,80,0|0
208,128,71496,1,2
120,232,71830,6,0,B|120:296|64:296,2,80
120,168,72330,2,0,B|120:104|184:104,2,80
176,192,72830,2,2,B|208:152|248:192,1,80,2|0
304,192,73163,1,2
392,224,73496,6,0,B|392:288|456:288,2,80
392,160,73996,2,0,B|392:104|328:104,1,80
224,104,74496,1,2
224,280,74830,1,4
120,224,75163,6,0,B|120:288|56:288,2,80
120,160,75663,2,2,B|120:104|184:104,1,80,2|0
288,104,76163,1,2
288,280,76496,1,4
232,104,76830,6,0,B|168:104|168:40,2,80
232,168,77330,2,0,B|296:168|296:104,2,80
232,232,77830,2,2,B|272:264|232:304,1,80,0|0
296,296,78163,2,2,B|256:264|296:224,1,80
296,168,78496,6,0,B|296:104|360:104,2,80
232,168,78996,2,0,B|232:232|296:232,2,80
168,168,79497,2,2,B|136:208|96:168,1,80,0|0
104,232,79830,2,2,B|136:192|176:232,1,80
240,224,80163,6,0,B|240:288|176:288,2,80
304,224,80663,2,0,B|304:160|240:160,2,80
368,224,81163,2,2,B|400:184|440:224,1,80,0|0
432,160,81497,2,2,B|400:200|360:160,1,80
304,168,81830,1,0
267,290,82163,5,4
176,200,82497,6,0,B|176:264|112:264,2,80
120,216,82997,2,0,B|120:152|184:152,2,80
88,256,83497,2,2,B|48:288|88:328,1,80,0|0
168,328,83830,1,2
240,288,84163,6,0,B|240:224|304:224,2,80
296,272,84663,2,0,B|296:336|232:336,2,80
328,232,85163,2,2,B|368:200|328:160,1,80,0|0
251,163,85497,1,2
144,200,85830,6,0,B|144:40|312:56,2,240
144,256,86997,1,0
144,312,87163,2,2,B|240:312,1,80
272,312,87497,1,4
448,152,88163,6,0,B|235:12|62:154|62:154,1,400
71,226,89163,6,0,B|277:366|460:225|460:225,1,400
447,153,90163,6,0,B|386:0|159:7|95:47|95:47,1,400
41,102,91163,6,0,B|-30:286|71:319|271:351|271:351,1,400,0|0
334,348,92163,6,0,B|527:358|523:63|340:64|340:64,1,400
289,70,93163,6,0,B|321:150|273:222|257:94|225:86|112:80|40:192|120:288,1,400,0|0
165,329,94163,6,2,B|279:376|304:264|104:40|312:40|312:40,1,400,2|2
387,40,95163,6,2,B|544:32|216:224|280:336|463:203,1,400,0|0
445,152,96163,6,0,B|448:-30|229:-30|219:214,1,400,0|0
223,258,97163,6,0,B|231:-11|23:-3|23:156,1,400,0|0
24,210,98163,6,0,B|21:394|240:394|242:147,1,400
241,102,99163,6,0,B|241:379|449:379|481:251,1,400
465,207,100163,6,2,B|465:149|429:113,1,80
387,74,100497,6,2,B|363:42|281:46,1,80
235,46,100830,6,2,B|163:50|135:98,1,80
103,127,101163,6,0,B|67:181|94:233,1,80
119,274,101497,6,2,B|143:308|197:318,1,80,0|0
264,332,101830,6,2,B|335:332|371:295,1,80,0|0
399,259,102163,6,2,B|419:227|393:166,1,80,0|0
356,114,102497,6,2,B|316:93|281:96|254:121,1,80
213,150,102830,6,2,B|174:204|208:254,1,80,0|0
252,282,103163,5,4
256,192,113830,6,0,B|256:144|192:144,2,80
200,184,114330,2,0,B|200:232|264:232,2,80
200,136,114830,2,2,B|152:136|152:200,1,80
152,232,115163,2,0,B|118:198|72:243,1,80
112,272,115497,2,0,B|145:305|191:260,1,80
248,272,115830,6,0,B|248:320|312:320,2,80
304,280,116330,2,0,B|304:232|240:232,2,80
304,328,116830,2,2,B|352:328|352:264,1,80
352,232,117163,2,0,B|385:265|431:220,1,80
392,192,117497,2,0,B|358:158|312:203,1,80
256,192,117830,6,0,B|256:240|192:240,2,80
200,200,118330,2,0,B|200:152|264:152,2,80
200,248,118830,2,2,B|152:248|152:184,1,80
152,152,119163,2,0,B|119:185|73:140,1,80
112,112,119497,2,0,B|146:78|192:123,1,80
248,112,119830,6,2,B|288:104|328:120,1,80
376,152,120163,1,0
432,184,120330,2,2,B|472:216|448:264,1,80
432,304,120663,2,0,B|384:336|352:304,1,80,0|4
408,128,121830,5,0
312,80,122163,1,0
256,56,122330,1,0
200,80,122497,1,0
104,168,122830,5,2
200,120,123163,1,0
256,96,123330,1,0
312,120,123497,1,0
408,216,123830,5,0
312,168,124163,1,0
256,144,124330,1,0
200,168,124497,1,0
104,256,124830,5,2
200,208,125163,1,0
256,184,125330,1,0
312,208,125497,1,0
408,296,125830,5,0
312,248,126163,1,0
256,224,126330,1,0
200,248,126497,1,0
104,336,126830,5,2
200,288,127163,1,0
256,264,127330,1,0
312,288,127497,1,0
440,312,127830,5,2
456,250,127997,1,0
456,185,128163,1,0
435,125,128330,1,2
390,80,128497,1,0
330,56,128663,1,0
268,44,128830,5,2
203,44,128997,1,0
141,59,129163,1,0
85,89,129330,1,2
58,147,129497,1,0
58,212,129663,1,0
104,264,129830,5,4
200,304,130163,1,0
256,328,130330,1,0
312,304,130497,1,0
408,216,130830,5,2
312,264,131163,1,0
256,288,131330,1,0
200,264,131497,1,0
104,176,131830,5,0
200,224,132163,1,0
256,248,132330,1,0
312,224,132497,1,0
408,136,132830,5,2
312,184,133163,1,0
256,208,133330,1,0
200,184,133497,1,0
104,96,133830,5,0
200,144,134163,1,0
256,168,134330,1,0
312,144,134497,1,0
408,48,134830,5,2
312,96,135163,1,0
256,120,135330,1,0
200,96,135497,1,0
128,144,135830,6,2,B|128:208|96:224,2,80,0|0|0
80,168,136330,2,2,B|80:104|112:88,2,80,0|0|0
32,192,136830,1,4
256,192,137830,6,0,B|256:144|320:144,2,80
304,200,138330,2,0,B|304:248|368:248,2,80
360,200,138830,2,2,B|360:152|296:152,1,80
264,152,139163,2,0,B|298:118|253:72,1,80
224,120,139497,2,0,B|191:153|236:199,1,80
256,192,139830,6,0,B|256:240|192:240,2,80
208,184,140330,2,0,B|208:136|144:136,2,80
152,184,140830,2,2,B|152:232|216:232,1,80
248,232,141163,2,0,B|214:266|259:312,1,80
288,264,141497,2,0,B|321:231|276:185,1,80
256,192,141830,6,0,B|208:192|208:128,2,80
264,144,142330,2,0,B|312:144|312:80,2,80
264,88,142830,2,2,B|216:88|216:152,1,80
216,184,143163,2,0,B|182:150|136:195,1,80
184,224,143497,2,0,B|217:257|263:212,1,80
304,184,143830,6,0,B|288:0|-16:0|72:320|72:320,2,480
193,188,146163,5,0
145,188,146330,2,0,B|145:236|209:236,2,80
145,140,146830,2,2,B|97:140|97:204,1,80
97,236,147163,2,0,B|63:202|17:247,1,80
57,276,147497,2,0,B|90:309|136:264,1,80
209,292,147830,5,0
209,188,148163,1,0
257,188,148330,2,0,B|257:236|193:236,2,80
257,140,148830,2,2,B|305:140|305:204,1,80
305,236,149163,2,0,B|339:202|385:247,1,80
345,276,149497,2,0,B|312:309|266:264,1,80
225,220,149830,5,0
225,116,150163,1,0
177,116,150330,2,0,B|177:164|241:164,2,80
177,68,150830,2,2,B|129:68|129:132,1,80
129,164,151163,2,0,B|95:130|49:175,1,80
89,204,151497,2,0,B|122:237|168:192,1,80
225,188,151830,6,2,B|225:124|257:108,2,80,0|0|0
273,164,152330,2,2,B|273:228|241:244,2,80,0|0|0
313,140,152830,1,4
256,192,153830,6,2,B|256:144|192:144,1,80
202,144,154163,1,0
202,144,154330,2,2,B|138:144|138:96,1,80
140,107,154663,1,0
140,107,154830,2,2,B|136:56|200:56|200:56,5,80
200,112,155830,6,2,B|200:160|264:160,1,80
254,160,156163,1,0
254,160,156330,2,2,B|318:160|318:208,1,80
316,197,156663,1,0
316,197,156830,2,2,B|320:248|256:248|256:248,5,80
250,192,157830,6,2,B|250:144|314:144,1,80,2|2
304,144,158163,1,0
304,144,158330,2,2,B|368:144|368:96,1,80
366,107,158663,1,0
366,107,158830,2,2,B|370:56|306:56|306:56,5,80
248,56,159830,6,2,B|52:56|52:304|216:304,1,400
272,304,160830,2,2,B|464:304|520:144|392:144,1,320
352,176,161663,1,2
296,152,161830,6,2,B|296:104|360:104,2,80
352,144,162330,2,2,B|352:192|288:192,2,80
352,96,162830,2,2,B|400:96|400:160,1,80
400,192,163163,2,0,B|434:158|480:203,1,80
440,232,163496,2,0,B|407:265|361:220,1,80
304,232,163830,6,2,B|304:280|240:280,2,80
248,240,164330,2,2,B|248:192|312:192,2,80
248,288,164830,2,2,B|200:288|200:224,1,80
200,192,165163,2,0,B|167:225|121:180,1,80
160,152,165496,2,0,B|194:118|240:163,1,80
296,152,165830,6,2,B|296:200|360:200,2,80
352,160,166330,2,2,B|352:112|288:112,2,80
352,208,166830,2,2,B|400:208|400:144,1,80
400,112,167163,2,0,B|433:145|479:100,1,80
440,72,167496,2,0,B|406:38|360:83,1,80
304,72,167830,6,2,B|264:64|224:80,1,80
176,112,168163,1,0
120,144,168330,2,2,B|80:176|104:224,1,80
136,264,168663,1,0
200,288,168830,2,2,B|352:288|424:144|384:80|304:32|176:40,1,480
