osu file format v6

[General]
AudioFilename: KOKIA - Chouwa oto ~with reflection~.mp3
AudioLeadIn: 0
PreviewTime: 48364
Countdown: 0
SampleSet: Soft
StackLeniency: 1
Mode: 0
LetterboxInBreaks: 1

[Editor]
Bookmarks: 15475,67830,115355
DistanceSpacing: 1
BeatDivisor: 2
GridSize: 8

[Metadata]
Title:Chouwa oto ~with reflection~
Artist:KOKIA
Creator:Stickly Man
Version:Easy
Source:Origin: Spirits of the Past
Tags:Japanese Kokia Origin

[Difficulty]
HPDrainRate:4
CircleSize:3
OverallDifficulty:1
SliderMultiplier:0.5
SliderTickRate:1

[Events]
//Background and Video events
0,0,"origin5_resize.jpg"
//Break Periods
2,103363,112150
2,122030,136150
//Storyboard Layer 0 (Background)
//Storyboard Layer 1 (Fail)
//Storyboard Layer 2 (Pass)
//Storyboard Layer 3 (Foreground)
//Storyboard Sound Samples
//Background Colour Transformations
3,100,163,162,255

[TimingPoints]
497,333.333333333333,3,2,0,40,1,0
32330,-100,3,2,0,70,0,0

[Colours]
Combo1 : 0,140,255
Combo2 : 0,167,0
Combo3 : 220,220,0
Combo4 : 255,75,60
Combo5 : 255,175,0

[HitObjects]
256,192,16496,1,2
106,192,17496,1,0
106,42,18496,1,2
256,42,19496,1,0
256,191,20496,5,2
256,341,21496,1,0
406,341,22496,1,2
406,191,23497,1,0
256,191,24496,6,0,B|312:104|264:40,2,150,2|0|2
106,191,27496,1,0
256,192,28496,6,0,B|312:280|264:344,2,150
106,192,31496,6,0,B|80:168|112:128,2,50,0|0|2
156,192,32497,1,4
306,192,33497,6,0,B|328:160|360:160,2,50,0|0|0
341,227,34497,1,2
235,121,35497,6,0,B|215:106|215:74,2,50
285,121,36497,1,2
179,227,37497,6,0,B|168:264|128:264,2,50,0|0|0
214,192,38496,1,2
320,85,39496,1,2
320,235,40496,6,0,B|331:272|371:272,2,50,6|0|0
285,200,41495,1,2
134,200,42496,6,0,B|123:237|83:237,2,50,0|0|0
160,158,43495,1,2
271,88,44496,6,0,B|282:51|322:51,2,50,0|0|0
287,135,45495,1,2
373,259,46496,6,2,B|362:296|322:296,2,50,0|0|2
337,223,47495,1,4
195,273,48496,5,0
173,201,48996,1,0
209,135,49496,1,2
349,81,50496,5,0
390,144,50996,1,0
367,216,51496,1,2
228,273,52496,5,0
156,293,52996,1,0
94,251,53496,1,2
178,127,54496,6,0,B|256:71|327:136,1,150,2|2
397,253,56496,5,4
333,291,56996,1,0
268,254,57496,1,2
316,112,58496,5,0
251,74,58996,1,0
186,112,59496,1,2
106,239,60496,5,0
172,275,60996,1,0
238,239,61496,1,2
388,239,62496,5,0
421,171,62996,1,0
392,102,63496,1,2
144,88,64496,6,0,B|224:80|232:136,1,100
184,146,65496,2,0,B|139:198,1,50,0|2
151,233,66163,2,0,B|143:313|199:321,1,100
209,274,67163,2,0,B|261:228,1,50,0|2
269,196,67830,6,0,B|277:116|221:108,1,100
211,156,68830,2,0,B|159:201,1,50,0|2
138,224,69496,1,4
220,280,70163,6,0,B|244:192|362:242|316:104,1,200,2|0
272,128,71830,2,0,B|296:216|414:166|368:312,1,200,2|0
335,308,73496,6,0,B|248:272|192:216,1,150,2|4
170,137,75163,2,0,B|220:34|305:56,1,150,2|4
282,152,76830,6,0,B|346:144|362:192,2,75,0|0|2
282,253,78496,2,0,B|218:261|202:213,2,75,0|0|2
382,253,80163,6,2,B|374:189|422:173,2,75,0|0|2
282,253,81830,1,4
282,153,82496,6,0,B|346:145|362:193,2,75,0|0|2
282,253,84162,2,0,B|218:261|202:213,2,75,0|0|2
353,182,85830,6,2,B|361:118|313:102,2,75,2|0|2
303,182,87163,1,2
253,182,87496,1,4
153,182,88163,5,2
90,141,88663,1,0
54,75,89163,1,2
204,75,90163,5,0
269,112,90663,1,0
307,177,91163,1,2
201,283,92163,5,0
134,249,92663,1,0
93,186,93163,1,2
199,80,94163,6,0,B|295:97|301:193,1,150,0|2
300,327,96163,5,4
353,274,96663,1,0
300,221,97163,1,2
150,221,98163,5,0
203,168,98663,1,0
150,115,99163,1,2
300,115,100163,5,0
246,62,100663,1,0
300,8,101163,1,2
406,115,102163,5,2
379,185,102663,1,2
311,216,103163,1,4
104,184,113830,6,0,B|75:209|96:240,2,50,0|0|0
154,184,114830,2,2,B|183:159|162:128,2,50,2|0|0
204,184,115830,6,4,B|175:209|196:240,2,50,0|0|0
254,184,116830,2,0,B|283:159|262:128,2,50,2|0|0
304,184,117830,6,0,B|275:209|296:240,2,50
354,184,118830,2,0,B|383:159|362:128,2,50,2|0|0
354,234,119830,2,0,B|266:314|98:298|82:234,1,300,2|4
175,333,137830,5,0
248,318,138330,1,0
313,281,138830,1,2
348,245,139163,1,0
372,202,139496,1,0
372,152,139830,5,0
348,81,140330,1,0
279,51,140830,1,2
230,61,141163,1,0
188,88,141496,1,0
166,133,141830,5,0
166,208,142330,1,0
219,261,142830,1,2
262,286,143163,1,0
311,276,143496,1,0
339,234,143830,6,0,B|345:141|241:149|225:181,1,150,0|2
133,274,145830,5,4
102,206,146330,1,0
116,132,146830,1,2
142,89,147163,1,0
186,65,147496,1,0
235,56,147830,5,0
308,71,148330,1,0
373,109,148830,1,2
395,154,149163,1,0
395,204,149496,1,0
369,247,149830,5,0
303,283,150330,1,0
234,252,150830,1,2
198,217,151163,1,0
197,160,151496,1,0
161,125,151830,5,0
236,125,152330,1,2
161,125,152830,1,4
237,173,153830,6,0,B|184:72|304:88,2,150,0|2|0
237,323,156830,1,4
237,173,157830,6,0,B|338:119|322:239,2,150,0|2|0
86,173,160830,1,4
236,173,161830,6,0,B|216:200|168:192,2,50,0|0|0
200,137,162830,2,0,B|221:111|269:119,2,50,2|0|0
165,173,163830,6,0,B|138:193|146:241,2,50,0|0|0
200,208,164830,2,0,B|221:235|269:227,2,50,2|0|0
200,258,165830,5,2
235,293,166163,1,0
285,293,166496,1,0
320,257,166830,5,2
320,208,167163,1,0
285,172,167496,1,0
235,172,167830,5,2
199,208,168163,1,0
199,257,168496,1,2
235,293,168830,5,4
