osu file format v7

[General]
AudioFilename: 09 - Bitches.mp3
AudioLeadIn: 0
PreviewTime: 72062
Countdown: 0
SampleSet: Soft
StackLeniency: 0.7
Mode: 0
LetterboxInBreaks: 1

[Editor]
DistanceSpacing: 0.800000011920929
BeatDivisor: 2
GridSize: 8

[Metadata]
Title:Bitches
Artist:KMFDM
Creator:La Cataline
Version:Easy
Source:
Tags:

[Difficulty]
HPDrainRate:2
CircleSize:3
OverallDifficulty:2
SliderMultiplier:0.7
SliderTickRate:1

[Events]
//Background and Video events
0,0,"6411ea1867b951cc.jpg"
//Break Periods
2,95965,106580
2,167965,178580
//Storyboard Layer 0 (Background)
//Storyboard Layer 1 (Fail)
//Storyboard Layer 2 (Pass)
//Storyboard Layer 3 (Foreground)
//Storyboard Sound Samples
//Background Colour Transformations
3,100,0,0,0

[TimingPoints]
12140,375,4,2,1,100,1,0
72140,-100,4,2,1,100,0,1
83390,-100,4,2,1,100,0,0
144140,-100,4,2,1,100,0,1
155390,-100,4,2,1,100,0,0
180134,-100,4,2,1,50,0,0
201134,-100,4,2,1,100,0,0

[Colours]
Combo1 : 255,255,255
Combo2 : 255,128,64

[HitObjects]
256,192,24140,1,2
256,192,25640,1,2
480,192,27140,5,2
368,192,27890,1,0
256,192,28640,1,2
32,192,30140,5,2
144,192,30890,1,0
256,192,31640,1,2
312,288,33140,6,0,B|416:264|320:376|440:320,1,140,2|0
424,216,34640,1,0
352,128,35390,1,0
280,216,36140,6,0,B|184:216,3,70
152,216,37640,2,0,B|88:152|152:88,1,140
256,112,39140,6,0,B|336:64|392:120,1,140,2|0
384,224,40640,2,0,B|304:176|248:232,1,140
208,256,41765,1,0
160,280,42140,2,0,B|96:200|160:136,1,140,2|0
256,144,43640,1,0
256,352,45140,5,2
256,240,45890,1,0
256,128,46640,2,0,B|216:168|176:168|104:128,1,140,0|0
176,40,48140,6,0,B|256:112|344:32,1,175
384,104,49640,1,0
328,168,50202,1,0
280,200,50577,1,0
200,208,51140,6,0,B|96:208,1,70
128,264,51890,2,0,B|128:352,1,70
184,336,52640,2,0,B|232:368|264:320,3,70
256,280,54140,6,0,B|240:208|152:184|72:256,1,210,0|0
56,288,55640,1,0
96,328,56015,2,0,B|128:368|208:368|256:328|256:336,1,140
272,304,57140,5,0
216,208,57890,2,0,B|184:232|144:232|72:224,1,140
72,144,59202,2,0,B|64:96|96:56,1,70
168,72,60140,5,2
224,72,60515,1,0
280,72,60890,1,2
336,72,61265,1,0
336,128,61640,2,0,B|344:160|400:176,2,70,0|0|2
296,232,63140,6,0,B|296:320,1,70
240,304,63890,2,0,B|240:208,1,70
240,176,64640,2,0,B|296:128|376:128|464:176,1,210,0|2
440,216,66140,5,0
368,128,66890,1,0
304,216,67640,1,0
240,128,68390,1,0
256,192,69140,12,4,71390
368,128,72140,6,0,B|432:136|408:192,3,70,0|8|0|8
416,224,73640,2,0,B|392:248|344:240,3,70,0|8|0|8
296,248,75140,2,0,B|248:200|248:152|264:104,1,140,0|0
216,80,76265,1,8
160,96,76640,2,0,B|179:160|152:208|132:231,1,140
120,280,77765,1,8
168,312,78140,6,0,B|272:312,1,70,0|8
296,304,78890,2,0,B|376:264,1,70,0|8
392,224,79640,2,0,B|447:150,1,70,0|8
448,112,80390,1,0
408,72,80765,1,8
256,192,81140,12,0,83390
32,96,84140,6,0,B|96:64|160:96,1,105
192,144,85265,1,0
272,144,85827,1,0
344,184,86390,1,0
360,240,86765,1,0
328,288,87140,6,0,B|264:256|200:288,1,105
152,232,88265,1,0
152,152,88827,1,0
232,120,89390,1,0
288,136,89765,1,0
336,168,90140,6,0,B|320:216|288:232,1,70
264,272,90890,2,0,B|200:272|200:208,1,70
168,200,91640,1,0
160,144,92015,1,0
176,88,92390,2,0,B|208:56|240:88,1,70
256,192,93140,12,0,95765
80,128,108140,6,0,B|120:48|224:72|216:64,1,140
256,72,109265,1,8
304,96,109640,2,0,B|368:144|336:232,1,140
312,272,110765,5,8
256,288,111140,2,0,B|152:288,1,70,0|8
136,272,111890,1,0
112,224,112265,1,8
136,176,112640,2,0,B|203:130,1,70,0|8
200,80,113390,2,0,B|296:80,1,70,0|8
272,136,114140,6,0,B|392:248|384:248,1,140
336,280,115265,1,8
296,320,115640,2,0,B|176:208,1,140
232,184,116765,1,8
192,144,117140,6,2,B|255:98,3,70,2|10|2|10
296,80,118640,2,0,B|294:177|298:211|289:224|380:244,1,210,0|8
376,296,120140,6,0,B|344:328|312:328|312:328,3,70,0|8|0|8
256,328,121640,2,0,B|272:277|247:241,1,70,0|8
256,200,122390,2,0,B|192:176|187:225,1,70,0|8
144,240,123140,5,0
96,216,123515,1,8
144,184,123890,1,0
232,112,124640,5,0
272,72,125015,1,8
288,128,125390,1,0
344,224,126140,6,0,B|296:192|216:192|184:192|136:240,1,210,0|8
112,272,127640,1,0
224,272,128390,1,0
336,272,129140,1,0
336,160,129890,2,0,B|400:144|416:192,5,70,0|8|0|8|0|8
400,224,132140,6,0,B|296:280|232:200,1,140
267,232,133265,1,8
264,176,133640,2,0,B|208:128|128:168,1,140
133,166,134765,1,8
136,224,135140,6,0,B|168:256|200:224,3,70,0|8|0|8
248,200,136640,1,0
304,200,137015,1,8
360,200,137390,1,0
400,240,137765,5,8
400,296,138140,2,0,B|352:352|264:360|200:304,1,210,0|8
176,272,139640,1,0
120,176,140390,2,0,B|200:128,1,70,0|8
232,120,141140,5,0
288,120,141515,1,8
256,168,141890,1,0
256,280,142640,5,0
280,328,143015,1,8
224,328,143390,1,0
256,224,144140,6,0,B|288:256|352:256,1,70,4|8
336,200,144890,2,0,B|304:168|240:168,1,70,0|8
224,152,145640,1,0
168,144,146015,1,8
112,136,146390,2,0,B|136:224|144:232|176:264|208:264,1,140
288,256,147890,5,0
344,256,148265,1,8
312,208,148640,1,0
200,200,149390,5,0
176,152,149765,1,8
144,200,150140,1,0
200,296,150890,6,0,B|64:296,2,70,0|8|0
200,184,152390,2,0,B|328:184,1,70,0|8
256,192,153140,12,0,155390
192,96,156140,6,0,L|224:160|256:224|128:224|256:352|256:352,1,420
344,328,159140,6,0,B|424:280|392:184,1,140
344,112,160640,1,0
296,88,161015,1,8
240,80,161390,2,0,B|176:80|144:144|144:176,1,140
192,272,162890,5,0
192,328,163265,1,8
240,304,163640,1,0
336,248,164390,2,0,B|336:200|272:184,1,70,0|8
256,192,165140,12,4,167765
64,128,180140,6,0,B|128:32|256:96,1,210
296,128,181640,1,0
336,168,182015,2,0,B|400:168|368:232,5,70
328,312,184640,1,0
120,232,186140,6,0,B|120:104|248:72,1,210
288,64,187640,1,0
280,120,188015,2,0,B|344:120|344:152,5,70
256,72,190640,5,0
256,128,191015,1,0
256,184,191390,1,0
256,240,191765,1,0
256,296,192140,6,0,B|224:328|192:296,3,70
152,264,193640,1,0
128,216,194015,1,0
144,160,194390,1,0
224,80,195140,6,0,B|208:176|304:256|416:208,1,280
456,136,197202,1,0
368,248,198140,5,0
256,248,198890,1,0
256,136,199640,1,0
144,136,200390,1,0
256,192,201140,12,4,204140
