osu file format v12

[General]
AudioFilename: Flyable Heart.mp3
AudioLeadIn: 0
PreviewTime: 54855
Countdown: 0
SampleSet: Soft
StackLeniency: 0.7
Mode: 0
LetterboxInBreaks: 0

[Editor]
DistanceSpacing: 1.1
BeatDivisor: 4
GridSize: 4

[Metadata]
Title:Flyable Heart (Short Ver.)
TitleUnicode:Flyable Heart (Short Ver.)
Artist:KIYO
ArtistUnicode:KIYO
Creator:Irreversible
Version:Normal
Source:Flyable Heart
Tags:future has already begun vn visual novel eroge unisonshift blossom Konei DakeDekaane Leader opening
BeatmapID:250105
BeatmapSetID:92387

[Difficulty]
HPDrainRate:4
CircleSize:3
OverallDifficulty:4
ApproachRate:5
SliderMultiplier:1.2
SliderTickRate:1

[Events]
//Background and Video events
Video,357,"Flyable Heart OP.flv"
0,0,"Flyable Heart bg.jpg",0,0
//Break Periods
2,84483,90183
//Storyboard Layer 0 (Background)
//Storyboard Layer 1 (Fail)
//Storyboard Layer 2 (Pass)
//Storyboard Layer 3 (Foreground)
//Storyboard Sound Samples
//Background Colour Transformations
3,100,163,162,255

[TimingPoints]
9,458.015267175573,4,2,1,20,1,0
3673,-100,4,2,0,60,0,0
3787,-100,4,2,1,60,0,0
5161,-133.333333333333,4,2,2,40,0,0
5390,-133.333333333333,4,2,0,70,0,0
7222,-133.333333333333,4,2,0,50,0,0
7451,-133.333333333333,4,2,0,70,0,0
11459,-133.333333333333,4,2,1,70,0,0
12489,-133.333333333333,4,2,2,40,0,0
12718,-133.333333333333,4,2,1,70,0,0
14321,-133.333333333333,4,2,1,40,0,0
14550,-133.333333333333,4,2,1,70,0,0
16497,-133.333333333333,4,2,1,50,0,0
17871,-133.333333333333,4,2,1,70,0,0
18329,-100,4,2,1,70,0,0
18673,-100,4,2,2,70,0,0
18902,-100,4,2,1,70,0,0
19589,-100,4,2,2,70,0,0
19818,-100,4,2,1,70,0,0
25657,-100,4,2,1,60,0,0
29665,-100,4,2,2,60,0,0
29894,-100,4,2,1,60,0,0
39169,-100,4,2,1,50,0,0
40314,-100,4,2,1,40,0,0
46726,-133.333333333333,4,2,1,50,0,0
47298,-133.333333333333,4,2,1,60,0,0
49932,-100,4,2,2,40,0,0
54970,-100,4,2,1,75,0,1
55428,-100,4,2,2,50,0,1
55543,-100,4,2,1,75,0,1
57146,-100,4,2,2,50,0,1
57375,-100,4,2,1,75,0,1
62757,-100,4,2,1,50,0,1
62871,-100,4,2,1,75,0,1
64817,-100,4,2,1,50,0,1
65733,-100,4,2,1,75,0,1
66421,-100,4,2,2,50,0,1
66535,-100,4,2,1,75,0,1
69512,-100,4,2,1,75,0,0
69627,-100,4,2,1,75,0,1
70085,-100,4,2,2,50,0,1
70199,-100,4,2,1,75,0,1
71917,-100,4,2,2,50,0,1
72031,-100,4,2,1,75,0,1
73291,-100,4,2,1,60,0,1
73749,-100,4,2,1,70,0,1
74894,-100,4,2,1,75,0,1
75352,-100,4,2,1,70,0,1
75810,-100,4,2,1,75,0,1
76497,-100,4,2,1,70,0,1
77413,-100,4,2,2,50,0,1
77528,-100,4,2,1,70,0,1
84283,-133.333333333333,4,2,1,60,0,0
95047,-100,4,2,1,60,0,0
98940,-100,4,2,1,75,0,1
99398,-100,4,2,2,50,0,1
99512,-100,4,2,1,75,0,1
101230,-100,4,2,2,50,0,1
101344,-100,4,2,1,75,0,1
102375,-100,4,2,1,57,0,1
102604,-100,4,2,0,60,0,1
103062,-100,4,2,1,75,0,1
104207,-100,4,2,1,80,0,1
104665,-100,4,2,1,75,0,1
105123,-100,4,2,1,80,0,1
106153,-100,4,2,1,75,0,0
106268,-100,4,2,1,75,0,1
106726,-100,4,2,2,50,0,1
106841,-100,4,2,1,75,0,1
109932,-100,4,2,1,75,0,0
117146,-100,4,2,1,50,0,0

[Colours]
Combo1 : 238,53,159
Combo2 : 255,143,62
Combo3 : 244,51,56
Combo4 : 111,64,168
SliderBorder : 255,255,255

[HitObjects]
168,152,3673,2,2,P|256:84|344:172,2,240,0|2|0,1:0|0:0|0:0,0:0:0:0:
344,244,6421,2,0,P|344:300|452:324,2,180.000006866455,2|2|0,0:0|0:0|0:0,0:0:0:0:
412,112,8940,1,2,0:0:0:0:
223,50,9856,1,0,0:0:0:0:
11,178,11001,5,0,0:0:0:0:
105,206,11459,1,2,0:0:0:0:
175,276,11917,1,0,0:0:0:0:
245,205,12375,1,2,0:0:0:0:
176,132,12833,2,0,B|152:85|93:76|93:76|130:57|155:15,1,180.000006866455,0|0,0:0|0:0,0:0:0:0:
272,108,14436,2,0,B|300:83|312:43|312:43|332:99|382:113,1,180.000006866455,2|0,0:0|0:0,0:0:0:0:
397,260,16039,1,2,0:0:0:0:
330,331,16497,5,2,0:0:0:0:
236,300,16955,1,2,0:0:0:0:
145,338,17413,1,2,0:0:0:0:
74,267,17871,1,2,0:0:0:0:
176,220,18329,6,0,P|209:155|360:200,2,240,4|0|0,3:0|0:0|0:0,0:0:0:0:
96,308,20619,1,8,0:0:0:0:
212,336,21077,1,0,0:0:0:0:
260,344,21306,1,8,0:0:0:0:
304,320,21535,1,8,0:0:0:0:
400,228,21993,5,2,0:0:0:0:
356,104,22451,2,0,L|272:104,1,60,8|2,0:0|0:0,0:0:0:0:
140,224,23138,1,2,0:0:0:0:
140,224,23367,2,0,L|200:224,1,60,8|2,0:0|0:0,0:0:0:0:
256,104,24054,1,2,0:0:0:0:
256,104,24283,2,0,L|196:104,1,60,10|0,0:0|0:0,0:0:0:0:
80,40,24970,5,0,0:0:0:0:
80,40,25199,2,0,P|56:96|88:160,1,120,0|2,0:0|0:0,0:0:0:0:
200,192,26115,2,0,P|160:260|0:232,2,240,8|8|8,0:0|0:0|0:0,0:0:0:0:
293,98,28405,1,2,0:0:0:0:
386,191,28863,1,8,0:0:0:0:
292,284,29321,6,0,B|212:336|212:336|56:336,1,240,2|2,0:0|0:0,0:0:0:0:
32,208,30695,1,8,0:0:0:0:
125,114,31153,1,2,0:0:0:0:
248,156,31611,1,8,0:0:0:0:
316,44,32070,6,0,P|364:80|376:156,1,120,2|8,0:0|0:0,0:0:0:0:
380,268,32986,2,0,P|360:320|288:352,1,120,2|8,0:0|0:0,0:0:0:0:
212,257,33902,1,2,0:0:0:0:
112,344,34360,2,0,P|20:304|56:188,1,240,0|8,0:0|0:0,0:0:0:0:
68,60,35734,6,0,P|116:64|164:120,1,120,2|8,0:0|0:0,0:0:0:0:
162,246,36650,1,2,0:0:0:0:
255,339,37108,1,8,0:0:0:0:
348,245,37566,1,2,0:0:0:0:
256,152,38024,2,0,L|180:152,1,60,8|6,0:0|0:0,0:0:0:0:
102,58,38711,1,2,0:0:0:0:
60,184,39169,6,0,P|64:276|152:304,1,180,2|0,0:0|3:0,0:0:0:0:
255,251,40314,1,4,3:0:0:0:
255,53,41001,6,0,P|159:99|163:159,1,180,2|2,0:0|0:0,0:0:0:0:
256,252,42146,1,2,0:0:0:0:
408,36,43062,6,0,L|496:36,2,60,2|0|0,0:0|0:0|0:0,0:0:0:0:
364,76,43749,1,2,0:0:0:0:
236,38,44207,1,2,0:0:0:0:
142,131,44665,6,0,L|142:211,1,60,0|2,0:0|0:0,0:0:0:0:
142,256,45123,1,0,0:0:0:0:
256,321,45581,1,0,0:0:0:0:
321,321,45810,1,10,0:0:0:0:
408,240,46268,1,8,0:0:0:0:
316,144,46726,6,0,L|256:144,2,45.0000017166138,2|0|2,0:0|0:0|0:0,0:0:0:0:
365,144,47413,2,0,L|457:144,2,90.0000034332277,4|0|0,0:0|0:0|0:0,0:0:0:0:
329,108,48558,2,0,L|328:45,2,45.0000017166138,2|0|2,0:0|0:0|0:0,0:0:0:0:
293,143,49245,2,0,L|186:143,1,90.0000034332277,4|0,0:0|0:0,0:0:0:0:
256,192,49932,12,0,54054,1:0:0:0:
180,152,54970,6,0,P|256:76|336:156,1,240,4|2,0:0|0:0,0:0:0:0:
256,244,56344,1,8,0:0:0:0:
148,296,56802,2,0,P|200:340|354:303,1,240,2|2,0:0|0:0,0:0:0:0:
256,244,58176,1,8,0:0:0:0:
171,159,58634,1,2,0:0:0:0:
255,74,59092,1,8,0:0:0:0:
339,158,59550,1,2,0:0:0:0:
484,352,60467,5,2,0:0:0:0:
399,267,60925,1,8,0:0:0:0:
314,351,61383,1,2,0:0:0:0:
184,352,61841,1,8,0:0:0:0:
184,286,62070,5,2,0:0:0:0:
184,220,62299,2,0,P|214:141|350:161,1,240,4|2,0:0|0:0,0:0:0:0:
444,236,63673,1,8,0:0:0:0:
444,236,63902,2,0,P|348:292|296:248,1,180,2|8,0:0|0:0,0:0:0:0:
217,175,65047,1,2,0:0:0:0:
132,259,65505,1,8,0:0:0:0:
47,174,65963,6,0,P|56:120|220:40,1,240,2|2,0:0|0:0,0:0:0:0:
289,121,67337,1,8,0:0:0:0:
204,205,67795,1,2,0:0:0:0:
288,289,68253,1,8,0:0:0:0:
372,204,68711,1,2,0:0:0:0:
402,164,68940,1,8,0:0:0:0:
374,124,69169,1,8,0:0:0:0:
289,39,69627,6,0,B|225:79|225:79|49:79,1,240,4|2,0:0|0:0,0:0:0:0:
2,184,71001,1,8,0:0:0:0:
121,184,71459,6,0,P|184:280|304:272,1,240,2|2,0:0|0:0,0:0:0:0:
383,360,72833,1,8,0:0:0:0:
467,275,73291,1,4,3:2:0:0:
382,190,73749,1,8,0:0:0:0:
382,131,73978,1,2,0:0:0:0:
280,68,74436,5,2,0:0:0:0:
254,181,74894,1,2,0:0:0:0:
134,181,75352,1,2,0:0:0:0:
156,64,75810,1,2,0:0:0:0:
200,228,76497,5,8,0:0:0:0:
200,227,76956,2,0,P|170:306|34:286,1,240,4|2,2:0|0:0,0:0:0:0:
116,184,78330,1,8,0:0:0:0:
116,184,78559,2,0,P|212:128|269:168,1,180,2|8,0:0|0:0,0:0:0:0:
354,250,79704,1,2,0:0:0:0:
447,156,80161,1,8,0:0:0:0:
256,192,80619,12,4,84283,3:0:0:0:
256,52,91383,5,8,0:0:0:0:
256,100,91612,2,0,B|256:196|256:196|240:240,2,135.000005149841,4|2|0,0:0|0:0|0:0,0:0:0:0:
305,100,93215,1,2,0:0:0:0:
352,188,93673,2,0,L|332:248,1,45.0000017166138,0|8,0:0|0:0,0:0:0:0:
260,288,94360,1,2,0:0:0:0:
160,276,94818,1,8,0:0:0:0:
136,216,95047,5,8,0:0:0:0:
180,168,95276,2,0,P|256:128|340:176,2,180,4|2|8,0:0|0:0|0:0,0:0:0:0:
128,52,97108,2,0,P|81:81|55:138,1,120,2|8,0:0|0:0,0:0:0:0:
55,204,97795,2,0,B|72:292|72:292|144:360,1,180,2|8,0:0|0:0,0:0:0:0:
268,352,98940,6,0,B|328:356|376:312|376:312|440:344|517:311,1,240,4|2,0:0|0:0,0:0:0:0:
492,192,100314,1,8,0:0:0:0:
392,104,100772,2,0,B|340:104|340:104|312:128|312:128|284:104|284:104|256:76|256:76|228:112|228:112|164:112,1,240,2|2,0:0|0:0,0:0:0:0:
92,36,102146,1,10,0:0:0:0:
28,151,102604,1,4,2:0:0:0:
153,191,103062,1,8,0:0:0:0:
153,256,103291,1,2,0:0:0:0:
260,336,103749,5,2,0:0:0:0:
260,204,104207,1,2,0:0:0:0:
378,203,104665,1,2,0:0:0:0:
378,334,105123,1,2,0:0:0:0:
348,140,105810,5,8,0:0:0:0:
348,141,106269,2,0,P|378:62|514:82,1,240,4|2,0:0|0:0,0:0:0:0:
428,180,107643,1,8,0:0:0:0:
428,180,107872,2,0,P|332:236|277:192,1,180,4|8,0:0|0:0,0:0:0:0:
191,111,109017,1,2,0:0:0:0:
320,76,109474,1,8,0:0:0:0:
256,192,109703,12,0,113138,0:0:0:0:
256,192,113367,12,4,117260,0:0:0:0:
