osu file format v14

[General]
AudioFilename: Hakata Tonkotsu Ramens.mp3
AudioLeadIn: 0
PreviewTime: 57632
Countdown: 0
SampleSet: Soft
StackLeniency: 0.4
Mode: 0
LetterboxInBreaks: 0
WidescreenStoryboard: 1

[Editor]
DistanceSpacing: 0.9
BeatDivisor: 2
GridSize: 4
TimelineZoom: 1

[Metadata]
Title:STRAY
TitleUnicode:ストレイ
Artist:KISIDA KYODAN & THE AKEBOSI ROCKETS
ArtistUnicode:岸田教団&THE明星ロケッツ
Creator:-_vicX_-
Version:Normal
Source:博多トンコツラーメン
Tags:Hakata Tonkotsu Ramens, Opening Song TV Anime Size
BeatmapID:1607146
BeatmapSetID:764265

[Difficulty]
HPDrainRate:3
CircleSize:2.4
OverallDifficulty:3
ApproachRate:6
SliderMultiplier:1.00000000596046
SliderTickRate:1

[Events]
//Background and Video events
0,0,"BG STD.jpg",0,0
Video,320,"Hakata Tonkotsu Ramens Op.avi"
//Break Periods
2,48396,51807
//Storyboard Layer 0 (Background)
//Storyboard Layer 1 (Fail)
//Storyboard Layer 2 (Pass)
//Storyboard Layer 3 (Foreground)
//Storyboard Sound Samples

[TimingPoints]
430,291.26213592233,4,2,1,40,1,0
8148,-100,4,2,2,70,0,0
13536,-100,4,2,1,5,0,0
13682,-100,4,2,2,70,0,0
14119,-100,4,2,1,5,0,0
14264,-100,4,2,2,70,0,0
20235,-100,4,2,1,50,0,0
28828,-100,4,2,2,70,0,0
38876,-100,4,2,1,70,0,0
41643,-100,4,2,2,70,0,0
43536,-100,4,2,1,70,0,0
46012,-100,4,2,2,70,0,0
48196,-100,4,2,1,70,0,0
52857,-100,4,2,1,70,0,0
58682,-100,4,2,2,70,0,1
62177,-100,4,2,2,70,0,0
63342,-100,4,2,2,70,0,1
66837,-100,4,2,2,70,0,0
68002,-100,4,2,2,70,0,1
77323,-100,4,2,2,70,0,0
89701,-100,4,2,1,5,0,0

[Colours]
Combo1 : 113,0,113
Combo2 : 225,113,0
Combo3 : 145,145,145
Combo4 : 0,80,159
Combo5 : 234,190,17
Combo6 : 221,0,0

[HitObjects]
272,240,1595,6,0,L|472:228,2,200.000001192093,0|8|0,0:0|0:0|0:0,0:0:0:0:
184,224,3051,1,0,0:0:0:0:
112,168,3342,2,0,P|156:136|216:140,1,100.000000596046,8|0,0:0|0:0,0:0:0:0:
288,160,3925,2,0,P|356:176|468:108,2,200.000001192093,0|8|0,0:0|0:0|0:0,0:0:0:0:
288,160,5963,1,0,0:0:0:0:
288,160,6255,6,0,L|88:172,2,200.000001192092,4|8|0,0:0|0:0|0:0,0:0:0:0:
448,328,8148,2,0,L|300:304,1,150.000000894069,8|0,0:0|0:0,0:0:0:0:
299,303,9750,1,8,0:0:0:0:
299,303,10915,6,0,L|400:296,1,100.000000596046,4|0,0:0|0:0,0:0:0:0:
444,292,11352,1,8,0:0:0:0:
408,208,11643,1,0,0:0:0:0:
312,212,11934,1,8,0:0:0:0:
312,212,12080,6,0,L|160:224,1,150.000000894069
144,312,12808,1,0,0:0:0:0:
242,310,13099,1,8,0:0:0:0:
242,310,13245,6,0,P|280:336|380:316,1,150.000000894069,4|8,0:0|0:0,0:0:0:0:
412,288,13828,2,0,P|408:348|440:292,1,150.000000894069,4|0,0:0|0:0,0:0:0:0:
452,264,14410,1,4,0:0:0:0:
380,208,14701,1,0,0:0:0:0:
300,168,14993,1,4,0:0:0:0:
300,168,15575,6,0,L|400:156,1,100.000000596046,4|0,0:0|0:0,0:0:0:0:
444,152,16012,1,8,0:0:0:0:
424,244,16303,2,0,L|324:256,1,100.000000596046,0|8,0:0|0:0,0:0:0:0:
280,264,16740,6,0,P|272:312|300:360,1,100.000000596046,4|0,0:0|0:0,0:0:0:0:
204,328,17323,2,0,L|104:340,1,100.000000596046,4|0,0:0|0:0,0:0:0:0:
148,248,17905,6,0,P|160:224|140:152,1,100.000000596046,4|0,0:0|0:0,0:0:0:0:
68,208,18488,2,0,P|60:268|80:304,1,100.000000596046,4|0,0:0|0:0,0:0:0:0:
148,248,19070,1,4,0:0:0:0:
143,155,19362,1,0,0:0:0:0:
228,188,19653,1,4,0:0:0:0:
236,284,19944,1,0,0:0:0:0:
236,284,20235,6,0,L|428:272,2,150.000000894069,4|0|0,0:0|0:0|0:0,0:0:0:0:
160,232,21400,2,0,P|140:300|188:364,2,150.000000894069
160,232,22565,1,8,0:0:0:0:
288,276,23002,6,0,L|88:312,1,200.000001192092
92,220,23876,2,0,L|192:204,1,100.000000596046,8|8,0:0|0:0,0:0:0:0:
280,188,24459,2,0,L|384:172,1,100.000000596046,8|8,0:0|0:0,0:0:0:0:
424,168,24896,6,0,P|448:236|404:304,1,150.000000894069
260,216,25769,1,0,0:0:0:0:
260,216,26061,2,0,L|360:228,2,100.000000596046
208,208,26789,1,8,0:0:0:0:
104,192,27080,2,0,L|36:180,1,50.000000298023,8|0,0:0|0:0,0:0:0:0:
124,36,27663,6,0,L|328:68,2,200.000001192092,8|8|8,0:0|0:0|0:0,0:0:0:0:
56,96,29119,1,8,0:0:0:0:
36,184,29410,1,8,0:0:0:0:
36,184,29556,6,0,L|48:284,1,100.000000596046,4|0,0:0|0:0,0:0:0:0:
60,328,29993,1,8,0:0:0:0:
136,280,30284,2,0,L|148:180,1,100.000000596046,0|8,0:0|0:0,0:0:0:0:
240,144,30866,6,0,L|216:348,2,200.000001192092
308,84,32323,1,8,0:0:0:0:
396,72,32614,2,0,P|428:80|496:52,1,100.000000596046,0|8,0:0|0:0,0:0:0:0:
512,152,33196,6,0,L|472:352,1,200.000001192092
392,308,34070,1,8,0:0:0:0:
308,336,34362,2,0,P|216:316|112:368,1,200.000001192092
56,296,35235,1,8,0:0:0:0:
76,208,35527,2,0,P|160:220|252:148,1,200.000001192092
292,76,36400,1,8,0:0:0:0:
336,156,36692,6,0,P|411:217|508:209,2,200.000001192092
272,92,38148,1,8,0:0:0:0:
228,88,38294,1,0,0:0:0:0:
184,88,38439,2,0,L|84:80,1,100.000000596046,0|8,0:0|0:0,0:0:0:0:
40,76,38876,6,0,L|64:228,1,150.000000894069,4|0,0:0|0:0,0:0:0:0:
156,244,39604,2,0,L|132:88,2,150.000000894069
240,196,40769,2,0,L|215:38,1,150.000000894069,0|4,0:0|0:0,0:0:0:0:
348,88,41643,5,8,0:0:0:0:
388,168,41934,1,0,0:0:0:0:
344,248,42226,1,8,0:0:0:0:
260,284,42517,2,0,L|160:312,1,100.000000596046,0|8,0:0|0:0,0:0:0:0:
120,232,43099,2,0,L|224:204,1,100.000000596046,0|8,0:0|0:0,0:0:0:0:
260,192,43536,6,0,L|404:152,2,150.000000894069,4|0|0,0:0|0:0|0:0,0:0:0:0:
248,104,44701,2,0,L|396:64,2,150.000000894069
120,144,46012,6,0,L|12:172,1,100.000000596046,0|8,0:0|0:0,0:0:0:0:
20,216,46449,1,0,0:0:0:0:
20,260,46595,2,0,L|128:232,1,100.000000596046,0|8,0:0|0:0,0:0:0:0:
204,208,47177,5,0,0:0:0:0:
288,180,47468,1,8,0:0:0:0:
376,184,47760,1,0,0:0:0:0:
460,228,48051,2,0,L|512:216,1,50.000000298023,8|4,0:0|0:0,0:0:0:0:
204,244,52857,6,0,L|356:232,2,150.000000894069,4|0|0,0:0|0:0|0:0,0:0:0:0:
212,156,54022,2,0,L|361:144,1,150.000000894069
452,136,54750,1,2,0:0:0:0:
396,60,55041,2,0,L|400:8,1,50.000000298023,8|0,0:0|0:0,0:0:0:0:
172,76,55915,6,0,L|16:64,1,150.000000894069,8|8,0:0|0:0,0:0:0:0:
22,64,57517,1,2,0:0:0:0:
236,256,58536,5,0,0:0:0:0:
236,256,58682,6,0,L|336:260,1,100.000000596046,4|0,0:0|0:0,0:0:0:0:
380,264,59119,1,8,0:0:0:0:
456,216,59410,1,0,0:0:0:0:
396,148,59701,1,8,0:0:0:0:
304,128,59993,2,0,L|200:136,1,100.000000596046,0|8,0:0|0:0,0:0:0:0:
180,228,60575,2,0,L|284:220,1,100.000000596046,0|8,0:0|0:0,0:0:0:0:
279,220,61012,6,0,P|291:272|275:316,1,100.000000596046,4|0,0:0|0:0,0:0:0:0:
200,364,61595,2,0,P|184:316|208:260,1,100.000000596046,4|0,0:0|0:0,0:0:0:0:
275,314,62177,2,0,L|476:300,1,200.000001192092,4|8,0:0|0:0,0:0:0:0:
408,184,63342,6,0,P|340:188|300:172,1,100.000000596046,4|0,0:0|0:0,0:0:0:0:
224,148,63925,2,0,P|168:144|128:160,1,100.000000596046
120,248,64507,2,0,P|200:256|276:212,1,150.000000894069
352,240,65235,1,0,0:0:0:0:
436,204,65527,1,8,0:0:0:0:
436,204,65672,6,0,L|424:104,1,100.000000596046,4|0,0:0|0:0,0:0:0:0:
332,72,66255,2,0,L|344:176,1,100.000000596046,4|0,0:0|0:0,0:0:0:0:
260,228,66837,2,0,L|244:76,2,150.000000894069,4|8|0,0:0|0:0|0:0,0:0:0:0:
264,272,67857,1,0,0:0:0:0:
272,316,68002,6,0,P|316:320|368:288,1,100.000000596046,4|0,0:0|0:0,0:0:0:0:
400,268,68439,1,8,0:0:0:0:
456,196,68730,2,0,P|396:176|348:192,1,100.000000596046,0|8,0:0|0:0,0:0:0:0:
304,112,69313,6,0,P|380:88|512:128,2,200.000001192092
232,168,70769,1,8,0:0:0:0:
220,80,71061,1,0,0:0:0:0:
304,112,71352,1,8,0:0:0:0:
232,168,71643,6,0,P|196:168|140:120,1,100.000000596046,0|8,0:0|0:0,0:0:0:0:
220,80,72226,2,0,P|268:84|308:120,1,100.000000596046,0|8,0:0|0:0,0:0:0:0:
232,168,72808,6,0,P|264:232|228:360,2,200.000001192092,4|0|0,0:0|0:0|0:0,0:0:0:0:
176,96,74264,1,8,0:0:0:0:
144,180,74556,1,0,0:0:0:0:
232,168,74847,1,8,0:0:0:0:
176,96,75138,6,0,P|124:92|76:120,1,100.000000596046,0|8,0:0|0:0,0:0:0:0:
144,180,75721,2,0,P|104:216|92:276,1,100.000000596046,0|8,0:0|0:0,0:0:0:0:
180,264,76303,2,0,P|188:320|220:356,1,100.000000596046,0|8,0:0|0:0,0:0:0:0:
272,280,76886,2,0,P|312:300|380:296,1,100.000000596046,0|8,0:0|0:0,0:0:0:0:
256,192,77468,12,8,79216,0:0:0:0:
240,192,79653,6,0,L|340:200,1,100.000000596046,4|0,0:0|0:0,0:0:0:0:
384,204,80090,1,8,0:0:0:0:
472,212,80381,1,0,0:0:0:0:
500,128,80672,1,8,0:0:0:0:
500,128,80818,2,0,L|400:120,1,100.000000596046
356,116,81255,1,8,0:0:0:0:
288,56,81546,2,0,P|268:116|284:168,1,100.000000596046,0|8,0:0|0:0,0:0:0:0:
292,192,81983,6,0,P|296:248|268:300,1,100.000000596046
248,320,82420,1,8,0:0:0:0:
328,360,82711,2,0,L|428:348,2,100.000000596046,0|8|0,0:0|0:0|0:0,0:0:0:0:
248,320,83585,1,8,0:0:0:0:
324,268,83876,1,0,0:0:0:0:
420,260,84167,1,8,0:0:0:0:
420,260,84313,6,0,L|432:160,1,100.000000596046,4|0,0:0|0:0,0:0:0:0:
440,116,84750,1,8,0:0:0:0:
388,40,85041,2,0,P|352:48|284:28,1,100.000000596046,0|8,0:0|0:0,0:0:0:0:
248,24,85478,2,0,P|199:16|151:30,1,100.000000596046
116,56,85915,1,8,0:0:0:0:
152,140,86206,6,0,P|199:152|248:140,1,100.000000596046,0|8,0:0|0:0,0:0:0:0:
292,124,86643,2,0,P|338:106|386:115,1,100.000000596046,4|0,0:0|0:0,0:0:0:0:
428,136,87080,1,8,0:0:0:0:
348,200,87371,2,0,L|360:300,1,100.000000596046,0|8,0:0|0:0,0:0:0:0:
364,344,87808,1,4,0:0:0:0:
232,316,88245,1,4,0:0:0:0:
256,192,88973,12,8,89701,0:0:0:0:
