osu file format v14

[General]
AudioFilename: Hakata Tonkotsu Ramens.mp3
AudioLeadIn: 0
PreviewTime: 57632
Countdown: 0
SampleSet: Normal
StackLeniency: 0.4
Mode: 1
LetterboxInBreaks: 0
WidescreenStoryboard: 1

[Editor]
Bookmarks: 1595,6255,8585,10915,15575,20235,27226,28536,29556,34216,37711,38876,41206,43536,45866,48196,52857,55187,56789,57517,58682,62177,63342,65672,68002,70332,71497,72663,74993,77323,78488,79653,83585,84313,87808,88245,88973
DistanceSpacing: 0.9
BeatDivisor: 4
GridSize: 32
TimelineZoom: 1.3

[Metadata]
Title:STRAY
TitleUnicode:ストレイ
Artist:KISIDA KYODAN & THE AKEBOSI ROCKETS
ArtistUnicode:岸田教団&THE明星ロケッツ
Creator:-_vicX_-
Version:Muzukashii
Source:博多トンコツラーメン
Tags:Hakata Tonkotsu Ramens, Opening Song TV Anime Size
BeatmapID:1607145
BeatmapSetID:764265

[Difficulty]
HPDrainRate:6
CircleSize:3
OverallDifficulty:7
ApproachRate:6
SliderMultiplier:1.4
SliderTickRate:1

[Events]
//Background and Video events
0,0,"BG Taiko.png",0,0
//Break Periods
//Storyboard Layer 0 (Background)
//Storyboard Layer 1 (Fail)
//Storyboard Layer 2 (Pass)
//Storyboard Layer 3 (Foreground)
//Storyboard Sound Samples

[TimingPoints]
430,291.26213592233,4,1,9,80,1,0
1595,-111.111111111111,4,1,9,80,0,0
58682,-111.111111111111,4,1,9,80,0,1
66837,-111.111111111111,4,1,9,80,0,0
68002,-111.111111111111,4,1,9,80,0,1
77323,-111.111111111111,4,1,9,80,0,0

[Colours]
Combo1 : 0,101,202
Combo2 : 196,98,0
Combo3 : 207,207,207

[HitObjects]
160,352,1595,5,0,0:0:0:0:
160,352,2760,1,0,0:0:0:0:
160,352,3925,1,0,0:0:0:0:
352,352,4507,1,8,0:0:0:0:
160,352,5090,1,0,0:0:0:0:
352,256,6255,1,6,0:0:0:0:
352,256,6837,1,6,0:0:0:0:
352,256,7420,1,6,0:0:0:0:
352,352,8148,1,8,0:0:0:0:
160,352,8585,1,0,0:0:0:0:
160,352,9750,1,0,0:0:0:0:
352,352,10478,1,8,0:0:0:0:
352,352,10624,1,8,0:0:0:0:
160,256,10915,1,4,0:0:0:0:
352,352,11352,1,8,0:0:0:0:
160,352,11643,1,0,0:0:0:0:
160,352,11789,1,0,0:0:0:0:
352,352,11934,1,8,0:0:0:0:
160,352,12080,1,0,0:0:0:0:
352,352,12517,1,8,0:0:0:0:
160,352,12808,1,0,0:0:0:0:
352,352,13099,1,8,0:0:0:0:
160,352,13245,1,0,0:0:0:0:
352,352,13682,1,8,0:0:0:0:
160,352,13973,1,0,0:0:0:0:
160,352,14119,1,0,0:0:0:0:
352,352,14264,1,8,0:0:0:0:
160,352,14410,1,0,0:0:0:0:
352,352,14701,1,8,0:0:0:0:
352,352,14993,1,8,0:0:0:0:
352,352,15138,1,8,0:0:0:0:
352,352,15429,1,8,0:0:0:0:
160,352,15575,1,0,0:0:0:0:
352,352,16012,1,8,0:0:0:0:
160,352,16303,1,0,0:0:0:0:
160,352,16449,1,0,0:0:0:0:
352,352,16595,1,8,0:0:0:0:
160,352,16740,1,0,0:0:0:0:
352,352,17031,1,8,0:0:0:0:
160,352,17323,1,0,0:0:0:0:
352,352,17760,1,8,0:0:0:0:
160,352,17905,1,0,0:0:0:0:
352,352,18342,1,8,0:0:0:0:
160,352,18633,1,0,0:0:0:0:
160,352,18779,1,0,0:0:0:0:
352,352,18925,1,8,0:0:0:0:
160,352,19070,1,0,0:0:0:0:
352,352,19362,1,8,0:0:0:0:
352,352,19653,1,8,0:0:0:0:
160,352,19944,1,0,0:0:0:0:
160,352,20090,1,0,0:0:0:0:
160,352,20235,1,0,0:0:0:0:
160,352,20527,1,0,0:0:0:0:
160,352,21400,1,0,0:0:0:0:
160,352,22129,1,0,0:0:0:0:
352,352,22565,1,8,0:0:0:0:
160,352,23002,1,0,0:0:0:0:
160,352,23876,1,0,0:0:0:0:
352,352,24459,1,8,0:0:0:0:
160,352,24896,1,0,0:0:0:0:
160,352,25187,1,0,0:0:0:0:
352,352,25769,1,8,0:0:0:0:
160,352,26061,1,0,0:0:0:0:
352,352,26789,1,8,0:0:0:0:
160,352,27226,1,0,0:0:0:0:
160,352,27517,1,0,0:0:0:0:
352,352,27663,1,8,0:0:0:0:
160,352,27954,1,0,0:0:0:0:
352,352,28245,1,8,0:0:0:0:
160,352,28536,1,0,0:0:0:0:
352,352,28828,1,8,0:0:0:0:
160,352,29119,1,0,0:0:0:0:
352,352,29264,1,8,0:0:0:0:
352,352,29410,1,8,0:0:0:0:
160,256,29556,1,4,0:0:0:0:
352,352,29993,1,8,0:0:0:0:
160,352,30284,1,0,0:0:0:0:
160,352,30429,1,0,0:0:0:0:
352,352,30575,1,8,0:0:0:0:
160,352,30721,1,0,0:0:0:0:
352,352,31158,1,8,0:0:0:0:
160,352,31449,1,0,0:0:0:0:
160,352,31595,1,0,0:0:0:0:
352,352,31740,1,8,0:0:0:0:
160,352,31886,1,0,0:0:0:0:
160,352,32177,1,0,0:0:0:0:
352,352,32323,1,8,0:0:0:0:
160,352,32468,1,0,0:0:0:0:
160,352,32760,1,0,0:0:0:0:
352,352,32905,1,8,0:0:0:0:
160,352,33051,1,0,0:0:0:0:
160,352,33342,1,0,0:0:0:0:
160,352,33633,1,0,0:0:0:0:
352,352,34070,1,8,0:0:0:0:
160,352,34216,1,0,0:0:0:0:
352,352,34653,1,8,0:0:0:0:
160,352,34944,1,0,0:0:0:0:
160,352,35090,1,0,0:0:0:0:
352,352,35235,1,8,0:0:0:0:
160,352,35527,1,0,0:0:0:0:
352,352,35818,1,8,0:0:0:0:
160,352,36109,1,0,0:0:0:0:
352,352,36400,1,8,0:0:0:0:
160,352,36546,1,0,0:0:0:0:
160,352,36837,1,0,0:0:0:0:
352,352,36983,1,8,0:0:0:0:
352,352,37274,1,8,0:0:0:0:
352,352,37565,1,8,0:0:0:0:
160,352,37711,1,0,0:0:0:0:
352,352,38148,1,8,0:0:0:0:
160,352,38439,1,0,0:0:0:0:
160,352,38585,1,0,0:0:0:0:
352,352,38730,1,8,0:0:0:0:
160,256,38876,1,4,0:0:0:0:
160,352,39604,1,0,0:0:0:0:
352,352,40041,1,8,0:0:0:0:
352,352,40769,1,8,0:0:0:0:
160,256,41206,1,4,0:0:0:0:
352,352,41643,1,8,0:0:0:0:
160,352,41789,1,0,0:0:0:0:
352,352,41934,1,8,0:0:0:0:
160,352,42226,1,8,0:0:0:0:
352,352,42371,1,0,0:0:0:0:
352,352,42663,1,8,0:0:0:0:
352,352,42954,1,8,0:0:0:0:
160,352,43099,1,0,0:0:0:0:
160,352,43245,1,0,0:0:0:0:
352,256,43536,1,6,0:0:0:0:
160,352,44264,1,0,0:0:0:0:
352,352,44701,1,8,0:0:0:0:
352,352,45429,1,8,0:0:0:0:
160,352,45866,1,0,0:0:0:0:
352,352,46303,1,8,0:0:0:0:
160,352,46449,1,0,0:0:0:0:
160,352,46595,1,0,0:0:0:0:
160,352,46886,1,0,0:0:0:0:
352,352,47031,1,8,0:0:0:0:
160,352,47323,1,0,0:0:0:0:
160,352,47614,1,0,0:0:0:0:
352,352,47905,1,8,0:0:0:0:
352,352,48051,1,8,0:0:0:0:
160,256,48196,1,4,0:0:0:0:
160,352,48925,1,0,0:0:0:0:
160,352,49362,1,0,0:0:0:0:
160,352,49944,1,8,0:0:0:0:
160,352,50527,1,0,0:0:0:0:
160,352,51109,1,0,0:0:0:0:
160,352,51692,1,8,0:0:0:0:
160,352,52420,1,0,0:0:0:0:
352,256,52857,1,6,0:0:0:0:
160,256,53294,1,4,0:0:0:0:
352,256,53730,1,6,0:0:0:0:
352,256,54022,1,6,0:0:0:0:
352,352,54459,1,8,0:0:0:0:
352,352,54750,1,8,0:0:0:0:
352,352,55041,1,8,0:0:0:0:
160,352,55187,1,0,0:0:0:0:
160,352,55915,1,0,0:0:0:0:
160,352,56352,1,0,0:0:0:0:
352,352,56789,1,8,0:0:0:0:
352,352,57080,1,8,0:0:0:0:
352,352,57371,1,8,0:0:0:0:
160,352,57517,1,0,0:0:0:0:
256,192,58245,2,0,L|256:64,1,125.999996154785
160,256,58682,1,4,0:0:0:0:
352,352,59119,1,8,0:0:0:0:
160,352,59410,1,0,0:0:0:0:
160,352,59556,1,0,0:0:0:0:
352,352,59701,1,8,0:0:0:0:
160,352,59847,1,0,0:0:0:0:
352,352,60284,1,8,0:0:0:0:
160,352,60575,1,0,0:0:0:0:
160,352,60721,1,0,0:0:0:0:
352,352,60866,1,8,0:0:0:0:
160,352,61012,1,0,0:0:0:0:
352,352,61449,1,8,0:0:0:0:
160,352,61595,1,0,0:0:0:0:
352,352,62031,1,8,0:0:0:0:
256,192,62177,1,0,0:0:0:0:
160,352,62760,1,0,0:0:0:0:
160,352,63051,1,0,0:0:0:0:
352,352,63196,1,8,0:0:0:0:
160,352,63342,1,0,0:0:0:0:
352,352,63779,1,8,0:0:0:0:
160,352,64070,1,0,0:0:0:0:
160,352,64216,1,0,0:0:0:0:
352,352,64362,1,8,0:0:0:0:
160,352,64507,1,0,0:0:0:0:
352,352,64944,1,8,0:0:0:0:
160,352,65235,1,0,0:0:0:0:
160,352,65381,1,0,0:0:0:0:
352,352,65527,1,8,0:0:0:0:
160,352,65672,1,0,0:0:0:0:
352,352,66109,1,8,0:0:0:0:
160,352,66255,1,0,0:0:0:0:
160,352,66546,1,0,0:0:0:0:
352,352,66692,1,8,0:0:0:0:
160,256,66837,1,4,0:0:0:0:
352,352,67274,1,8,0:0:0:0:
352,352,67565,1,8,0:0:0:0:
352,352,67711,1,8,0:0:0:0:
352,352,67784,1,8,0:0:0:0:
352,352,67857,1,8,0:0:0:0:
160,256,68002,1,4,0:0:0:0:
352,352,68439,1,8,0:0:0:0:
160,352,68730,1,0,0:0:0:0:
160,352,68876,1,0,0:0:0:0:
352,352,69022,1,8,0:0:0:0:
160,352,69313,1,0,0:0:0:0:
352,352,69459,1,8,0:0:0:0:
160,352,69604,1,0,0:0:0:0:
160,352,69750,1,8,0:0:0:0:
160,352,70041,1,0,0:0:0:0:
352,352,70332,1,8,0:0:0:0:
160,352,70624,1,0,0:0:0:0:
352,352,70769,1,8,0:0:0:0:
160,352,71206,1,0,0:0:0:0:
352,352,71352,1,8,0:0:0:0:
160,352,71497,1,0,0:0:0:0:
160,352,71789,1,0,0:0:0:0:
160,352,72080,1,0,0:0:0:0:
352,352,72371,1,8,0:0:0:0:
352,352,72517,1,8,0:0:0:0:
160,352,72663,1,0,0:0:0:0:
352,352,73099,1,8,0:0:0:0:
160,352,73391,1,0,0:0:0:0:
160,352,73536,1,0,0:0:0:0:
352,352,73682,1,8,0:0:0:0:
160,352,73828,1,0,0:0:0:0:
352,352,74119,1,8,0:0:0:0:
352,352,74410,1,8,0:0:0:0:
352,352,74556,1,8,0:0:0:0:
160,352,74847,1,0,0:0:0:0:
160,352,74993,1,0,0:0:0:0:
352,352,75429,1,8,0:0:0:0:
160,352,75721,1,0,0:0:0:0:
160,352,75866,1,0,0:0:0:0:
352,352,76012,1,8,0:0:0:0:
160,352,76158,1,0,0:0:0:0:
352,352,76595,1,8,0:0:0:0:
352,352,76886,1,8,0:0:0:0:
352,352,77177,1,8,0:0:0:0:
160,256,77323,1,4,0:0:0:0:
352,352,77760,1,8,0:0:0:0:
160,352,78051,1,0,0:0:0:0:
352,352,78342,1,8,0:0:0:0:
256,192,78488,12,0,79216,0:0:0:0:
160,256,79653,5,4,0:0:0:0:
352,352,80090,1,8,0:0:0:0:
160,352,80381,1,0,0:0:0:0:
352,352,80672,1,8,0:0:0:0:
160,352,80818,1,0,0:0:0:0:
352,352,81255,1,8,0:0:0:0:
160,352,81546,1,0,0:0:0:0:
160,352,81692,1,0,0:0:0:0:
352,352,81837,1,8,0:0:0:0:
160,352,81983,1,0,0:0:0:0:
352,352,82420,1,8,0:0:0:0:
160,352,82711,1,0,0:0:0:0:
352,352,82857,1,8,0:0:0:0:
352,352,83002,1,8,0:0:0:0:
160,352,83148,1,0,0:0:0:0:
352,352,83585,1,8,0:0:0:0:
160,352,83876,1,0,0:0:0:0:
352,352,84167,1,8,0:0:0:0:
160,352,84313,1,0,0:0:0:0:
352,352,84750,1,8,0:0:0:0:
160,352,85041,1,0,0:0:0:0:
352,352,85332,1,8,0:0:0:0:
160,352,85478,1,0,0:0:0:0:
352,352,85915,1,8,0:0:0:0:
160,352,86206,1,0,0:0:0:0:
160,352,86352,1,0,0:0:0:0:
352,352,86497,1,8,0:0:0:0:
160,352,86643,1,0,0:0:0:0:
352,352,87080,1,8,0:0:0:0:
352,352,87371,1,8,0:0:0:0:
160,352,87517,1,0,0:0:0:0:
352,352,87663,1,8,0:0:0:0:
160,352,87808,1,0,0:0:0:0:
160,256,88245,1,4,0:0:0:0:
256,192,88973,12,0,89701,0:0:0:0:
