osu file format v14

[General]
AudioFilename: Hakata Tonkotsu Ramens.mp3
AudioLeadIn: 0
PreviewTime: 57632
Countdown: 0
SampleSet: Soft
StackLeniency: 0.4
Mode: 0
LetterboxInBreaks: 0
WidescreenStoryboard: 1

[Editor]
DistanceSpacing: 1.1
BeatDivisor: 4
GridSize: 4
TimelineZoom: 1.7

[Metadata]
Title:STRAY
TitleUnicode:ストレイ
Artist:KISIDA KYODAN & THE AKEBOSI ROCKETS
ArtistUnicode:岸田教団&THE明星ロケッツ
Creator:-_vicX_-
Version:Light Insane
Source:博多トンコツラーメン
Tags:Hakata Tonkotsu Ramens, Opening Song TV Anime Size
BeatmapID:1607143
BeatmapSetID:764265

[Difficulty]
HPDrainRate:5
CircleSize:3.3
OverallDifficulty:5
ApproachRate:9
SliderMultiplier:1.10000000596046
SliderTickRate:1

[Events]
//Background and Video events
0,0,"BG STD.jpg",0,0
Video,320,"Hakata Tonkotsu Ramens Op.avi"
//Break Periods
2,48396,52257
//Storyboard Layer 0 (Background)
//Storyboard Layer 1 (Fail)
//Storyboard Layer 2 (Pass)
//Storyboard Layer 3 (Foreground)
//Storyboard Sound Samples

[TimingPoints]
430,291.26213592233,4,2,1,40,1,0
7857,-90.9090909090909,4,2,1,60,0,0
10478,-83.3333333333333,4,2,2,60,0,0
20235,-100,4,2,1,50,0,0
28536,-83.3333333333333,4,2,2,70,0,0
38876,-100,4,2,1,70,0,0
41206,-83.3333333333333,4,2,2,70,0,0
43536,-100,4,2,1,70,0,0
45866,-83.3333333333333,4,2,2,70,0,0
48196,-100,4,2,1,70,0,0
54750,-83.3333333333333,4,2,1,70,0,0
58682,-83.3333333333333,4,2,2,70,0,1
62177,-83.3333333333333,4,2,2,70,0,0
63342,-83.3333333333333,4,2,2,70,0,1
66837,-83.3333333333333,4,2,1,70,0,0
68002,-83.3333333333333,4,2,2,70,0,1
69459,-83.3333333333333,4,2,1,70,0,1
70041,-83.3333333333333,4,2,2,70,0,1
79653,-83.3333333333333,4,2,2,70,0,0
89701,-83.3333333333333,4,2,1,5,0,0

[Colours]
Combo1 : 113,0,113
Combo2 : 225,113,0
Combo3 : 145,145,145
Combo4 : 0,80,159
Combo5 : 234,190,17
Combo6 : 221,0,0

[HitObjects]
300,236,1595,6,0,P|356:244|424:160,1,165.000000894069,8|0,0:0|0:0,0:0:0:0:
340,160,2177,2,0,P|268:156|216:232,1,165.000000894069,8|0,0:0|0:0,0:0:0:0:
300,236,2760,1,8,0:0:0:0:
300,236,3342,2,0,L|412:232,1,110.000000596046
244,176,3925,6,0,P|216:244|280:316,1,165.000000894069,8|0,0:0|0:0,0:0:0:0:
300,236,4507,2,0,P|328:172|276:100,1,165.000000894069,8|0,0:0|0:0,0:0:0:0:
244,176,5090,1,8,0:0:0:0:
244,176,5963,1,0,0:0:0:0:
175,116,6255,6,0,P|235:84|323:136,1,165.000000894069,4|0,0:0|0:0,0:0:0:0:
160,200,6837,2,0,P|108:168|108:64,1,165.000000894069,4|0,0:0|0:0,0:0:0:0:
175,116,7420,1,4,0:0:0:0:
175,116,7857,2,0,L|236:112,1,60.5000021741388,2|0,0:0|0:0,0:0:0:0:
332,212,8148,2,0,L|272:216,1,60.5000021741388,2|0,0:0|0:0,0:0:0:0:
192,328,8439,2,0,L|256:324,1,60.5000021741388,2|0,0:0|0:0,0:0:0:0:
192,328,9604,5,0,0:0:0:0:
36,256,9750,1,2,0:0:0:0:
32,240,10478,1,8,0:0:0:0:
208,324,10624,1,8,0:0:0:0:
216,320,10915,6,0,L|348:308,1,131.999996686935,4|0,0:0|0:0,0:0:0:0:
244,172,11352,2,0,L|232:244,1,65.9999983434675,8|0,0:0|0:0,0:0:0:0:
339,373,11643,2,0,L|347:305,1,65.9999983434675
248,180,11934,1,8,0:0:0:0:
248,180,12080,6,0,L|228:312,1,131.999996686935
352,216,12517,2,0,L|328:152,1,65.9999983434675,8|0,0:0|0:0,0:0:0:0:
208,247,12808,2,0,L|228:311,1,65.9999983434675
360,224,13099,1,8,0:0:0:0:
360,224,13245,6,0,L|308:100,1,131.999996686935,4|0,0:0|0:0,0:0:0:0:
160,88,13682,1,8,0:0:0:0:
160,88,13828,2,0,L|216:220,1,131.999996686935,4|0,0:0|0:0,0:0:0:0:
368,228,14264,1,8,0:0:0:0:
368,228,14410,6,0,L|340:160,1,65.9999983434675,4|0,0:0|0:0,0:0:0:0:
288,264,14701,2,0,L|312:328,1,65.9999983434675,4|0,0:0|0:0,0:0:0:0:
200,280,14993,2,0,L|172:212,1,65.9999983434675,4|0,0:0|0:0,0:0:0:0:
124,328,15284,1,8,0:0:0:0:
172,200,15429,1,8,0:0:0:0:
112,340,15575,6,0,L|76:208,1,131.999996686935,4|0,0:0|0:0,0:0:0:0:
220,252,16012,2,0,L|196:320,1,65.9999983434675,8|0,0:0|0:0,0:0:0:0:
55,274,16303,2,0,L|79:206,1,65.9999983434675
220,252,16595,1,8,0:0:0:0:
220,252,16740,6,0,L|180:384,1,131.999996686935
56,252,17177,2,0,L|124:228,1,65.9999983434675,8|0,0:0|0:0,0:0:0:0:
243,354,17468,2,0,L|171:382,1,65.9999983434675
60,256,17760,1,8,0:0:0:0:
60,256,17905,6,0,L|184:212,1,131.999996686935,4|0,0:0|0:0,0:0:0:0:
224,68,18342,1,8,0:0:0:0:
224,68,18488,2,0,L|156:92,2,65.9999983434675,4|0|0,0:0|0:0|0:0,0:0:0:0:
192,216,18925,1,8,0:0:0:0:
192,216,19070,6,0,L|128:240,1,65.9999983434675,4|0,0:0|0:0,0:0:0:0:
240,288,19362,2,0,L|188:328,1,65.9999983434675,4|0,0:0|0:0,0:0:0:0:
324,288,19653,2,0,L|376:328,1,65.9999983434675,4|0,0:0|0:0,0:0:0:0:
372,216,19944,2,0,L|433:239,2,65.9999983434675,0|0|4,0:0|0:0|0:0,0:0:0:0:
256,172,20527,6,0,L|148:132,1,110.000000596046
100,164,20963,2,0,L|204:204,1,110.000000596046,8|0,0:0|0:0,0:0:0:0:
152,240,21400,2,0,L|44:200,2,110.000000596046,8|0|0,0:0|0:0|0:0,0:0:0:0:
208,260,22129,1,8,0:0:0:0:
204,140,22420,1,8,0:0:0:0:
204,140,22565,6,0,L|96:100,1,110.000000596046
156,76,23002,2,0,L|260:112,1,110.000000596046,8|0,0:0|0:0,0:0:0:0:
372,156,23585,1,8,0:0:0:0:
372,156,23876,6,0,L|360:212,1,55.000000298023
348,268,24167,2,0,L|332:332,1,55.000000298023,8|0,0:0|0:0,0:0:0:0:
272,324,24459,2,0,L|259:271,1,55.000000298023
246,212,24750,2,0,L|235:159,1,55.000000298023,8|0,0:0|0:0,0:0:0:0:
116,140,25187,6,0,L|140:248,1,110.000000596046
184,204,25624,2,0,L|160:92,1,110.000000596046,8|0,0:0|0:0,0:0:0:0:
204,52,26061,2,0,L|232:164,1,110.000000596046,8|0,0:0|0:0,0:0:0:0:
272,116,26497,2,0,L|256:60,2,55.000000298023,0|0|8,0:0|0:0|0:0,0:0:0:0:
316,232,27080,1,8,0:0:0:0:
316,232,27226,6,0,L|356:344,1,110.000000596046,8|0,0:0|0:0,0:0:0:0:
388,284,27663,2,0,L|348:180,1,110.000000596046,8|0,0:0|0:0,0:0:0:0:
304,68,28245,1,8,0:0:0:0:
304,68,28536,6,0,L|236:64,1,65.9999983434675
148,168,28828,2,0,L|216:172,1,65.9999983434675,8|0,0:0|0:0,0:0:0:0:
288,288,29119,2,0,L|220:284,1,65.9999983434675,8|0,0:0|0:0,0:0:0:0:
352,232,29410,1,8,0:0:0:0:
352,232,29483,1,0,0:0:0:0:
352,232,29556,6,0,P|372:296|336:360,1,131.999996686935,4|0,0:0|0:0,0:0:0:0:
284,188,29993,2,0,P|312:160|344:152,1,65.9999983434675,8|0,0:0|0:0,0:0:0:0:
397,316,30284,2,0,P|375:340|344:351,1,65.9999983434675
224,329,30575,1,8,0:0:0:0:
224,329,30721,6,0,P|271:317|351:361,1,131.999996686935
476,284,31158,2,0,L|464:216,1,65.9999983434675,8|0,0:0|0:0,0:0:0:0:
332,286,31449,2,0,L|344:358,1,65.9999983434675
484,292,31740,1,8,0:0:0:0:
484,292,31886,6,0,L|452:160,1,131.999996686935,4|0,0:0|0:0,0:0:0:0:
312,112,32323,1,8,0:0:0:0:
312,112,32468,2,0,L|340:244,1,131.999996686935,4|0,0:0|0:0,0:0:0:0:
400,120,32905,1,8,0:0:0:0:
344,252,33051,6,0,L|328:180,1,65.9999983434675,4|0,0:0|0:0,0:0:0:0:
200,128,33342,2,0,L|220:208,1,65.9999983434675,4|8,0:0|0:0,0:0:0:0:
120,300,33633,2,0,L|84:160,1,131.999996686935,4|0,0:0|0:0,0:0:0:0:
204,296,34070,1,8,0:0:0:0:
204,296,34216,6,0,P|180:356|92:376,1,131.999996686935,4|0,0:0|0:0,0:0:0:0:
148,236,34653,2,0,P|180:216|220:216,1,65.9999983434675,8|0,0:0|0:0,0:0:0:0:
148,236,34944,2,0,P|96:240|28:192,1,131.999996686935,0|8,0:0|0:0,0:0:0:0:
212,188,35381,2,0,P|228:232|220:264,1,65.9999983434675
84,240,35672,2,0,P|60:244|8:228,1,65.9999983434675,0|8,0:0|0:0,0:0:0:0:
60,108,35963,2,0,P|44:72|48:36,1,65.9999983434675
192,56,36255,2,0,P|212:48|268:56,1,65.9999983434675,0|8,0:0|0:0,0:0:0:0:
202,174,36546,6,0,P|177:138|201:46,1,131.999996686935
284,188,36983,2,0,P|272:220|236:248,1,65.9999983434675,8|0,0:0|0:0,0:0:0:0:
127,228,37274,2,0,P|169:214|259:252,1,131.999996686935,0|8,0:0|0:0,0:0:0:0:
96,304,37711,6,0,P|56:272|56:184,1,131.999996686935,4|0,0:0|0:0,0:0:0:0:
176,296,38148,2,0,P|172:336|148:368,1,65.9999983434675,8|0,0:0|0:0,0:0:0:0:
288,304,38439,2,0,P|272:275|270:242,1,65.9999983434675,8|0,0:0|0:0,0:0:0:0:
388,296,38730,2,0,P|380:352|368:368,1,65.9999983434675,8|4,0:0|0:0,0:0:0:0:
92,256,39604,6,0,L|204:244,1,110.000000596046,4|8,0:0|0:0,0:0:0:0:
172,296,40041,2,0,L|60:308,1,110.000000596046
36,364,40478,2,0,L|148:352,1,110.000000596046,0|2,0:0|0:0,0:0:0:0:
176,348,40842,1,0,0:0:0:0:
208,344,40915,1,0,0:0:0:0:
240,340,40988,1,0,0:0:0:0:
268,336,41061,1,2,0:0:0:0:
300,332,41133,1,0,0:0:0:0:
328,328,41206,1,0,0:0:0:0:
328,328,41643,5,8,0:0:0:0:
428,216,41789,1,0,0:0:0:0:
480,324,41934,2,0,L|412:312,1,65.9999983434675
264,264,42226,1,8,0:0:0:0:
376,148,42371,1,0,0:0:0:0:
376,148,42663,6,0,L|364:84,1,65.9999983434675,0|8,0:0|0:0,0:0:0:0:
232,32,42954,2,0,L|244:96,1,65.9999983434675
140,200,43245,2,0,L|128:128,2,65.9999983434675,0|8|4,0:0|0:0|0:0,0:0:0:0:
404,348,44264,6,0,L|388:236,1,110.000000596046,4|0,0:0|0:0,0:0:0:0:
332,216,44701,2,0,L|348:328,1,110.000000596046,8|0,0:0|0:0,0:0:0:0:
292,304,45138,2,0,L|276:192,1,110.000000596046,0|2,0:0|0:0,0:0:0:0:
272,164,45502,1,0,0:0:0:0:
268,132,45575,1,0,0:0:0:0:
264,104,45648,1,0,0:0:0:0:
260,76,45721,1,2,0:0:0:0:
256,48,45794,1,0,0:0:0:0:
252,12,45866,1,8,0:0:0:0:
252,12,46303,5,8,0:0:0:0:
304,152,46449,1,0,0:0:0:0:
184,112,46595,1,0,0:0:0:0:
264,4,46740,1,0,0:0:0:0:
320,160,46886,1,8,0:0:0:0:
168,116,47031,6,0,L|100:120,1,65.9999983434675,4|0,0:0|0:0,0:0:0:0:
200,240,47323,2,0,L|268:236,1,65.9999983434675,4|8,0:0|0:0,0:0:0:0:
368,356,47614,2,0,L|300:360,2,65.9999983434675,4|0|0,0:0|0:0|0:0,0:0:0:0:
484,276,48051,1,8,0:0:0:0:
288,224,48196,1,4,0:0:0:0:
288,228,52857,6,0,L|300:356,1,110.000000596046,4|0,0:0|0:0,0:0:0:0:
298,337,53294,1,4,0:0:0:0:
484,244,53730,1,4,0:0:0:0:
352,188,54022,1,4,0:0:0:0:
352,188,54459,5,4,0:0:0:0:
352,188,54750,2,0,P|296:196|236:148,1,131.999996686935,4|0,0:0|0:0,0:0:0:0:
312,116,55187,1,4,0:0:0:0:
312,116,55696,2,0,L|380:124,1,65.9999983434675,4|0,0:0|0:0,0:0:0:0:
308,252,56206,2,0,L|240:244,1,65.9999983434675,4|0,0:0|0:0,0:0:0:0:
308,252,56789,5,2,0:0:0:0:
376,196,56934,1,0,0:0:0:0:
392,280,57080,1,2,0:0:0:0:
296,240,57226,1,0,0:0:0:0:
388,184,57371,1,2,0:0:0:0:
408,292,57517,1,0,0:0:0:0:
408,292,58536,5,8,0:0:0:0:
420,300,58682,6,0,L|408:168,1,131.999996686935,4|0,0:0|0:0,0:0:0:0:
256,264,59119,2,0,L|324:288,1,65.9999983434675,8|0,0:0|0:0,0:0:0:0:
470,190,59410,2,0,L|402:166,1,65.9999983434675
264,272,59701,1,8,0:0:0:0:
264,272,59847,6,0,L|388:320,1,131.999996686935
324,164,60284,2,0,L|256:188,1,65.9999983434675,8|0,0:0|0:0,0:0:0:0:
324,341,60575,2,0,L|392:317,1,65.9999983434675
332,172,60866,1,8,0:0:0:0:
332,172,61012,6,0,L|196:216,1,131.999996686935,4|0,0:0|0:0,0:0:0:0:
408,212,61449,1,8,0:0:0:0:
408,212,61595,2,0,P|416:156|364:92,1,131.999996686935,4|0,0:0|0:0,0:0:0:0:
348,268,62031,2,0,P|384:292|428:292,1,65.9999983434675,8|4,0:0|0:0,0:0:0:0:
272,356,62468,6,0,P|224:344|140:384,1,131.999996686935,8|8,0:0|0:0,0:0:0:0:
32,272,63051,1,0,0:0:0:0:
148,284,63196,1,8,0:0:0:0:
24,264,63342,6,0,B|36:356|36:356|52:316,1,131.999996686935,4|0,0:0|0:0,0:0:0:0:
132,196,63779,2,0,L|120:128,1,65.9999983434675,8|0,0:0|0:0,0:0:0:0:
36,255,64070,2,0,L|52:327,1,65.9999983434675
136,200,64362,1,8,0:0:0:0:
136,200,64507,6,0,L|104:72,1,131.999996686935
252,152,64944,2,0,L|228:216,1,65.9999983434675,8|0,0:0|0:0,0:0:0:0:
77,132,65235,2,0,L|105:68,1,65.9999983434675
256,156,65527,1,8,0:0:0:0:
256,156,65672,6,0,L|204:284,1,131.999996686935,4|0,0:0|0:0,0:0:0:0:
368,240,66109,1,8,0:0:0:0:
368,240,66255,2,0,L|420:112,1,131.999996686935,4|0,0:0|0:0,0:0:0:0:
428,308,66692,1,8,0:0:0:0:
428,308,66837,6,0,P|372:332|308:308,1,131.999996686935,4|0,0:0|0:0,0:0:0:0:
472,228,67274,2,0,P|496:248|512:288,1,65.9999983434675,8|0,0:0|0:0,0:0:0:0:
428,308,67565,1,2,0:0:0:0:
400,284,67638,1,0,0:0:0:0:
384,252,67711,1,0,0:0:0:0:
380,216,67784,1,0,0:0:0:0:
388,180,67857,1,2,0:0:0:0:
412,152,67929,1,0,0:0:0:0:
444,132,68002,6,0,P|408:140|320:100,1,131.999996686935,4|0,0:0|0:0,0:0:0:0:
204,12,68439,2,0,L|192:80,1,65.9999983434675,8|0,0:0|0:0,0:0:0:0:
310,168,68730,2,0,L|326:88,1,65.9999983434675
204,12,69022,1,8,0:0:0:0:
332,100,69167,1,0,0:0:0:0:
200,20,69313,1,0,0:0:0:0:
340,92,69459,1,8,0:0:0:0:
120,132,69750,6,0,P|168:140|212:116,1,98.9999975152012,8|0,0:0|0:0,0:0:0:0:
196,152,70041,1,0,0:0:0:0:
192,188,70114,1,0,0:0:0:0:
192,224,70187,1,8,0:0:0:0:
200,260,70260,1,0,0:0:0:0:
220,292,70332,6,0,P|176:284|96:324,1,131.999996686935,4|0,0:0|0:0,0:0:0:0:
292,372,70769,2,0,L|304:304,1,65.9999983434675,8|0,0:0|0:0,0:0:0:0:
110,254,71061,2,0,L|98:322,2,65.9999983434675,0|0|8,0:0|0:0|0:0,0:0:0:0:
303,307,71497,5,4,0:0:0:0:
376,232,71643,1,0,0:0:0:0:
244,196,71789,5,4,0:0:0:0:
212,100,71934,1,0,0:0:0:0:
344,132,72080,5,4,0:0:0:0:
432,56,72226,1,0,0:0:0:0:
460,144,72371,1,8,0:0:0:0:
464,180,72444,1,0,0:0:0:0:
468,216,72517,1,0,0:0:0:0:
472,252,72590,1,0,0:0:0:0:
476,288,72663,6,0,P|432:284|360:336,1,131.999996686935,4|0,0:0|0:0,0:0:0:0:
224,332,73099,2,0,P|175:289|110:288,1,131.999996686935,8|0,0:0|0:0,0:0:0:0:
224,332,73536,6,0,P|252:296|236:208,1,131.999996686935,8|4,0:0|0:0,0:0:0:0:
92,144,74119,2,0,P|76:206|109:261,1,131.999996686935,4|4,0:0|0:0,0:0:0:0:
320,200,74847,1,8,0:0:0:0:
320,200,74993,6,0,L|188:188,1,131.999996686935,4|0,0:0|0:0,0:0:0:0:
260,324,75429,2,0,L|328:300,1,65.9999983434675,8|0,0:0|0:0,0:0:0:0:
251,168,75721,2,0,L|187:188,1,65.9999983434675
264,328,76012,1,8,0:0:0:0:
264,328,76158,6,0,L|392:284,1,131.999996686935,4|0,0:0|0:0,0:0:0:0:
272,172,76595,2,0,L|260:240,1,65.9999983434675,8|0,0:0|0:0,0:0:0:0:
372,116,76886,2,0,L|384:184,1,65.9999983434675,8|0,0:0|0:0,0:0:0:0:
284,96,77177,1,8,0:0:0:0:
424,40,77323,1,4,0:0:0:0:
424,40,78051,1,4,0:0:0:0:
256,192,78488,12,8,79216,0:0:0:0:
304,240,79653,6,0,L|172:228,1,131.999996686935,4|0,0:0|0:0,0:0:0:0:
260,96,80090,2,0,L|284:160,1,65.9999983434675,8|0,0:0|0:0,0:0:0:0:
195,289,80381,2,0,L|171:225,1,65.9999983434675
280,320,80672,1,8,0:0:0:0:
132,348,80818,6,0,L|88:216,1,131.999996686935
244,260,81255,2,0,L|220:328,1,65.9999983434675,8|0,0:0|0:0,0:0:0:0:
67,284,81546,2,0,L|91:220,1,65.9999983434675
244,260,81837,1,8,0:0:0:0:
244,260,81983,6,0,L|200:384,1,131.999996686935,4|0,0:0|0:0,0:0:0:0:
96,260,82420,1,8,0:0:0:0:
96,260,82565,2,0,L|160:236,1,65.9999983434675,4|0,0:0|0:0,0:0:0:0:
264,360,82857,2,0,L|200:384,1,65.9999983434675,4|8,0:0|0:0,0:0:0:0:
96,260,83148,6,0,L|224:212,1,131.999996686935,4|0,0:0|0:0,0:0:0:0:
84,108,83585,2,0,L|72:176,1,65.9999983434675,8|0,0:0|0:0,0:0:0:0:
184,72,83876,2,0,L|196:140,1,65.9999983434675,8|0,0:0|0:0,0:0:0:0:
112,32,84167,1,8,0:0:0:0:
260,8,84313,6,0,L|284:144,1,131.999996686935,4|0,0:0|0:0,0:0:0:0:
416,40,84750,2,0,L|352:16,1,65.9999983434675,8|0,0:0|0:0,0:0:0:0:
221,115,85041,2,0,L|297:143,1,65.9999983434675
420,44,85332,1,8,0:0:0:0:
420,44,85478,6,0,L|292:-4,1,131.999996686935
372,136,85915,1,8,0:0:0:0:
244,112,86061,1,0,0:0:0:0:
380,144,86206,2,0,L|448:132,1,65.9999983434675
308,84,86497,1,8,0:0:0:0:
308,84,86643,6,0,P|288:144|316:212,1,131.999996686935,4|0,0:0|0:0,0:0:0:0:
444,132,87080,2,0,L|420:68,1,65.9999983434675,8|0,0:0|0:0,0:0:0:0:
288,144,87371,2,0,L|312:208,1,65.9999983434675,8|0,0:0|0:0,0:0:0:0:
444,132,87663,1,8,0:0:0:0:
252,68,87808,1,8,0:0:0:0:
252,68,88245,5,4,0:0:0:0:
256,192,88973,12,8,89701,0:0:0:0:
