osu file format v14

[General]
AudioFilename: Hakata Tonkotsu Ramens.mp3
AudioLeadIn: 0
PreviewTime: 57632
Countdown: 0
SampleSet: Soft
StackLeniency: 0.4
Mode: 0
LetterboxInBreaks: 0
WidescreenStoryboard: 1

[Editor]
DistanceSpacing: 1.1
BeatDivisor: 4
GridSize: 4
TimelineZoom: 2.1

[Metadata]
Title:STRAY
TitleUnicode:ストレイ
Artist:KISIDA KYODAN & THE AKEBOSI ROCKETS
ArtistUnicode:岸田教団&THE明星ロケッツ
Creator:-_vicX_-
Version:Extra
Source:博多トンコツラーメン
Tags:Hakata Tonkotsu Ramens, Opening Song TV Anime Size
BeatmapID:1607138
BeatmapSetID:764265

[Difficulty]
HPDrainRate:5
CircleSize:3.5
OverallDifficulty:5
ApproachRate:9
SliderMultiplier:1.40000000596046
SliderTickRate:1

[Events]
//Background and Video events
0,0,"BG STD.jpg",0,0
Video,320,"Hakata Tonkotsu Ramens Op.avi"
//Break Periods
//Storyboard Layer 0 (Background)
//Storyboard Layer 1 (Fail)
//Storyboard Layer 2 (Pass)
//Storyboard Layer 3 (Foreground)
//Storyboard Sound Samples

[TimingPoints]
430,291.26213592233,4,2,1,40,1,0
7857,-90.9090909090909,4,2,1,60,0,0
10915,-83.3333333333333,4,2,2,60,0,0
19944,-100,4,2,1,70,0,0
20235,-100,4,2,1,30,0,0
28536,-83.3333333333333,4,2,2,70,0,0
38876,-125,4,2,1,50,0,0
40769,-166.666666666667,4,2,1,50,0,0
41206,-83.3333333333333,4,2,2,70,0,0
42371,-100,4,2,2,70,0,0
42663,-95.2380952380952,4,2,2,70,0,0
42954,-90.9090909090909,4,2,2,70,0,0
43245,-83.3333333333333,4,2,2,70,0,0
43536,-125,4,2,1,50,0,0
45866,-83.3333333333333,4,2,2,70,0,0
48196,-125,4,2,1,50,0,0
52857,-76.9230769230769,4,2,1,70,0,0
58682,-83.3333333333333,4,2,2,70,0,1
62177,-83.3333333333333,4,2,2,70,0,0
63342,-83.3333333333333,4,2,2,70,0,1
67274,-166.666666666667,4,2,1,70,0,0
67565,-76.9230769230769,4,2,1,70,0,0
68002,-83.3333333333333,4,2,2,70,0,1
70041,-83.3333333333333,4,2,2,70,0,1
70332,-83.3333333333333,4,2,2,70,0,1
72371,-83.3333333333334,4,2,2,70,0,1
72663,-83.3333333333333,4,2,2,70,0,1
77323,-83.3333333333333,4,2,2,70,0,0
89701,-83.3333333333333,4,2,1,5,0,0

[Colours]
Combo1 : 113,0,113
Combo2 : 225,113,0
Combo3 : 145,145,145
Combo4 : 0,80,159
Combo5 : 234,190,17
Combo6 : 221,0,0

[HitObjects]
256,192,575,12,0,1449,0:0:0:0:
304,240,1595,6,0,L|448:232,1,140.000000596046,0|8,0:0|0:0,0:0:0:0:
244,172,2031,1,0,0:0:0:0:
244,172,2177,2,0,P|212:232|236:304,1,140.000000596046,0|8,0:0|0:0,0:0:0:0:
328,160,2614,1,0,0:0:0:0:
328,160,2760,6,0,P|304:112|212:92,1,140.000000596046,0|8,0:0|0:0,0:0:0:0:
324,240,3342,2,0,P|348:240|392:208,1,70.000000298023
464,316,3633,2,0,P|428:320|392:352,1,70.000000298023,8|0,0:0|0:0,0:0:0:0:
296,372,3925,6,0,P|236:368|180:316,2,140.000000596046,0|8|0,0:0|0:0|0:0,0:0:0:0:
268,256,4653,1,0,0:0:0:0:
160,228,4798,2,0,P|128:240|104:276,1,70.000000298023,8|0,0:0|0:0,0:0:0:0:
40,340,5090,6,0,P|60:296|16:212,1,140.000000596046,0|8,0:0|0:0,0:0:0:0:
106,267,5527,2,0,P|160:276|232:224,1,140.000000596046
152,336,5963,1,8,0:0:0:0:
148,176,6109,1,0,0:0:0:0:
312,240,6255,5,4,0:0:0:0:
312,240,6546,2,0,L|384:252,2,70.000000298023,8|0|4,0:0|0:0|0:0,0:0:0:0:
200,240,7129,6,0,L|130:251,2,70.000000298023,8|0|4,0:0|0:0|0:0,0:0:0:0:
256,148,7711,5,0,0:0:0:0:
372,100,7857,1,2,0:0:0:0:
204,44,8002,1,0,0:0:0:0:
256,232,8148,1,2,0:0:0:0:
308,104,8294,1,0,0:0:0:0:
168,152,8439,1,2,0:0:0:0:
336,196,8585,1,4,0:0:0:0:
336,196,9750,5,4,0:0:0:0:
336,196,10478,5,2,0:0:0:0:
144,172,10624,1,2,0:0:0:0:
144,172,10915,6,0,P|120:108|168:28,1,167.999995588302,4|0,0:0|0:0,0:0:0:0:
236,188,11352,1,8,0:0:0:0:
236,188,11497,2,0,P|224:232|184:260,1,83.9999977941511
332,244,11789,1,0,0:0:0:0:
144,172,11934,1,8,0:0:0:0:
332,328,12080,6,0,P|384:312|404:204,1,167.999995588302,4|0,0:0|0:0,0:0:0:0:
260,284,12517,2,0,P|248:312|260:372,1,83.9999977941511,8|0,0:0|0:0,0:0:0:0:
496,240,12808,2,0,P|496:200|472:152,1,83.9999977941511
308,140,13099,1,8,0:0:0:0:
407,211,13245,5,4,0:0:0:0:
407,211,13536,2,0,P|407:171|383:123,1,83.9999977941511,4|8,0:0|0:0,0:0:0:0:
344,280,13828,2,0,P|388:304|488:256,1,167.999995588302,4|0,0:0|0:0,0:0:0:0:
492,248,14192,1,0,0:0:0:0:
496,236,14264,1,8,0:0:0:0:
296,208,14410,1,4,0:0:0:0:
296,208,14556,6,0,P|268:236|260:288,1,83.9999977941511,0|4,0:0|0:0,0:0:0:0:
400,192,14847,2,0,P|392:156|344:116,1,83.9999977941511,8|4,0:0|0:0,0:0:0:0:
188,172,15138,1,0,0:0:0:0:
296,208,15284,1,0,0:0:0:0:
292,72,15429,1,8,0:0:0:0:
228,280,15575,6,0,P|288:308|376:264,1,167.999995588302,4|0,0:0|0:0,0:0:0:0:
380,256,15939,1,0,0:0:0:0:
384,244,16012,1,8,0:0:0:0:
168,208,16158,1,0,0:0:0:0:
168,208,16303,2,0,P|144:236|136:296,1,83.9999977941511
276,192,16595,1,8,0:0:0:0:
276,192,16740,6,0,P|252:132|152:96,1,167.999995588302,4|0,0:0|0:0,0:0:0:0:
284,40,17177,2,0,P|320:44|368:16,1,83.9999977941511,8|0,0:0|0:0,0:0:0:0:
472,132,17468,2,0,P|430:128|394:148,1,83.9999977941511
320,248,17760,1,8,0:0:0:0:
320,248,17905,6,0,P|316:184|232:132,1,167.999995588302,4|0,0:0|0:0,0:0:0:0:
394,147,18342,1,8,0:0:0:0:
232,224,18488,2,0,P|160:184|148:100,1,167.999995588302,4|0,0:0|0:0,0:0:0:0:
80,232,18925,1,8,0:0:0:0:
234,132,19070,6,0,L|308:88,1,83.9999977941511,4|0,0:0|0:0,0:0:0:0:
232,224,19362,2,0,L|159:180,1,83.9999977941511,4|8,0:0|0:0,0:0:0:0:
244,312,19653,2,0,L|318:268,1,83.9999977941511,4|0,0:0|0:0,0:0:0:0:
234,132,19944,1,8,0:0:0:0:
200,116,20017,1,0,0:0:0:0:
160,112,20090,1,0,0:0:0:0:
120,120,20163,1,0,0:0:0:0:
88,144,20235,6,0,P|112:88|80:16,1,140.000000596046,4|0,0:0|0:0,0:0:0:0:
160,112,20672,2,0,P|130:173|164:244,1,140.000000596046,8|0,0:0|0:0,0:0:0:0:
240,168,21109,1,0,0:0:0:0:
236,64,21255,1,8,0:0:0:0:
236,64,21400,6,0,P|192:24|112:36,1,140.000000596046
190,136,21837,2,0,P|214:148|264:144,1,70.000000298023,8|0,0:0|0:0,0:0:0:0:
360,116,22129,2,0,P|394:113|426:127,1,70.000000298023,8|0,0:0|0:0,0:0:0:0:
500,220,22420,1,8,0:0:0:0:
500,220,22565,6,0,P|488:168|536:92,1,140.000000596046
440,152,23002,2,0,P|396:164|312:116,1,140.000000596046,8|0,0:0|0:0,0:0:0:0:
394,64,23439,1,0,0:0:0:0:
500,96,23585,2,0,P|516:124|518:172,2,70.000000298023,8|0|4,0:0|0:0|0:0,0:0:0:0:
208,240,24459,5,2,0:0:0:0:
208,240,24896,2,0,B|160:232|160:232|120:244|120:244|68:236,1,140.000000596046,4|0,0:0|0:0,0:0:0:0:
124,144,25332,2,0,L|136:72,1,70.000000298023,8|0,0:0|0:0,0:0:0:0:
224,132,25624,2,0,L|296:144,1,70.000000298023
216,244,25915,1,8,0:0:0:0:
216,244,26061,6,0,L|192:384,1,140.000000596046
104,316,26497,1,8,0:0:0:0:
88,216,26643,1,0,0:0:0:0:
172,144,26789,2,0,P|204:136|304:172,1,140.000000596046,0|8,0:0|0:0,0:0:0:0:
216,244,27226,6,0,P|184:252|84:216,1,140.000000596046
172,144,27663,2,0,P|204:136|304:172,1,140.000000596046,8|0,0:0|0:0,0:0:0:0:
216,244,28099,1,0,0:0:0:0:
112,212,28245,2,0,P|92:188|84:136,1,70.000000298023,8|0,0:0|0:0,0:0:0:0:
36,272,28536,6,0,P|36:320|16:348,1,83.9999977941511
204,312,28828,1,8,0:0:0:0:
112,252,28973,1,0,0:0:0:0:
284,312,29119,1,8,0:0:0:0:
376,256,29264,1,0,0:0:0:0:
248,384,29410,1,8,0:0:0:0:
248,384,29556,6,0,L|248:216,1,167.999995588302,4|0,0:0|0:0,0:0:0:0:
248,204,29920,1,0,0:0:0:0:
248,192,29993,1,8,0:0:0:0:
76,204,30138,1,0,0:0:0:0:
168,260,30284,1,0,0:0:0:0:
192,116,30429,1,0,0:0:0:0:
88,288,30575,1,8,0:0:0:0:
272,116,30721,6,0,P|252:60|152:44,1,167.999995588302,4|0,0:0|0:0,0:0:0:0:
244,192,31158,2,0,P|292:196|328:176,1,83.9999977941511,8|0,0:0|0:0,0:0:0:0:
233,31,31449,2,0,P|191:25|153:42,1,83.9999977941511
72,160,31740,1,8,0:0:0:0:
72,160,31886,6,0,P|84:108|8:36,1,167.999995588302,4|0,0:0|0:0,0:0:0:0:
28,240,32323,1,8,0:0:0:0:
28,240,32468,2,0,P|72:252|160:180,1,167.999995588302,4|0,0:0|0:0,0:0:0:0:
60,340,32905,1,8,0:0:0:0:
72,160,33051,6,0,L|48:80,1,83.9999977941511,4|0,0:0|0:0,0:0:0:0:
159,181,33342,2,0,L|183:261,1,83.9999977941511,4|8,0:0|0:0,0:0:0:0:
232,124,33633,2,0,L|208:44,1,83.9999977941511,4|0,0:0|0:0,0:0:0:0:
332,136,33925,1,0,0:0:0:0:
135,102,34070,1,8,0:0:0:0:
128,104,34216,6,0,B|72:96|72:96|24:112|24:112|-40:100,1,167.999995588302,4|0,0:0|0:0,0:0:0:0:
80,188,34653,1,8,0:0:0:0:
24,8,34798,1,0,0:0:0:0:
32,8,34944,2,0,L|200:32,1,167.999995588302,0|8,0:0|0:0,0:0:0:0:
48,236,35381,1,0,0:0:0:0:
48,236,35527,6,0,L|36:152,1,83.9999977941511
208,240,35818,2,0,L|196:324,1,83.9999977941511,8|0,0:0|0:0,0:0:0:0:
50,250,36109,1,0,0:0:0:0:
216,224,36255,1,0,0:0:0:0:
112,328,36400,1,8,0:0:0:0:
156,152,36546,6,0,P|220:128|304:192,1,167.999995588302,4|0,0:0|0:0,0:0:0:0:
232,336,36983,1,8,0:0:0:0:
220,226,37129,1,0,0:0:0:0:
220,226,37274,2,0,P|284:202|368:266,1,167.999995588302,4|0,0:0|0:0,0:0:0:0:
232,336,37711,6,0,P|156:324|112:240,1,167.999995588302,4|0,0:0|0:0,0:0:0:0:
40,384,38148,1,8,0:0:0:0:
232,336,38294,1,0,0:0:0:0:
112,250,38439,1,0,0:0:0:0:
160,384,38585,1,8,0:0:0:0:
236,216,38730,1,8,0:0:0:0:
92,332,38876,5,4,0:0:0:0:
164,276,39604,2,0,L|276:264,1,112.000000476837,8|0,0:0|0:0,0:0:0:0:
340,368,40041,2,0,L|228:356,1,112.000000476837,8|0,0:0|0:0,0:0:0:0:
128,364,40478,2,0,L|64:356,1,56.0000002384184,8|0,0:0|0:0,0:0:0:0:
124,260,40769,5,2,0:0:0:0:
128,236,40842,1,0,0:0:0:0:
132,212,40915,1,0,0:0:0:0:
140,188,40988,1,0,0:0:0:0:
148,164,41061,1,0,0:0:0:0:
156,140,41133,1,0,0:0:0:0:
176,100,41206,5,4,0:0:0:0:
176,100,41643,1,8,0:0:0:0:
24,184,41789,1,0,0:0:0:0:
100,56,41934,1,0,0:0:0:0:
160,248,42080,1,0,0:0:0:0:
20,96,42226,1,8,0:0:0:0:
20,96,42371,6,0,P|12:40|24:12,1,70.000000298023,4|0,0:0|0:0,0:0:0:0:
128,176,42663,2,0,P|120:128|132:92,1,73.4999980698822,4|8,0:0|0:0,0:0:0:0:
244,260,42954,2,0,P|236:208|252:172,1,77.0000026776789,4|0,0:0|0:0,0:0:0:0:
364,344,43245,2,0,P|356:288|368:256,1,83.9999977941511,0|8,0:0|0:0,0:0:0:0:
476,384,43536,5,4,0:0:0:0:
476,384,44264,2,0,L|488:272,1,112.000000476837,8|0,0:0|0:0,0:0:0:0:
392,188,44701,2,0,L|380:300,1,112.000000476837,8|0,0:0|0:0,0:0:0:0:
280,204,45138,2,0,L|276:260,1,56.0000002384184,8|0,0:0|0:0,0:0:0:0:
168,172,45429,5,2,0:0:0:0:
140,164,45502,1,0,0:0:0:0:
108,164,45575,1,0,0:0:0:0:
80,172,45648,1,0,0:0:0:0:
56,192,45721,1,2,0:0:0:0:
40,220,45794,1,0,0:0:0:0:
32,264,45866,5,4,0:0:0:0:
32,264,46303,1,8,0:0:0:0:
212,208,46449,1,0,0:0:0:0:
52,184,46595,1,0,0:0:0:0:
172,284,46740,1,0,0:0:0:0:
148,132,46886,1,8,0:0:0:0:
56,296,47031,6,0,L|16:372,1,83.9999977941511,4|0,0:0|0:0,0:0:0:0:
172,284,47323,2,0,L|212:208,1,83.9999977941511,4|8,0:0|0:0,0:0:0:0:
356,128,47614,2,0,L|316:204,1,83.9999977941511,4|0,0:0|0:0,0:0:0:0:
472,116,47905,2,0,L|512:40,1,83.9999977941511,4|8,0:0|0:0,0:0:0:0:
356,128,48196,5,4,0:0:0:0:
356,128,48925,2,0,L|368:240,1,112.000000476837,8|0,0:0|0:0,0:0:0:0:
283,83,49362,2,0,P|316:49|392:49,1,112.000000476837,8|0,0:0|0:0,0:0:0:0:
356,128,49798,1,0,0:0:0:0:
276,168,49944,6,0,P|232:152|200:92,1,112.000000476837,8|0,0:0|0:0,0:0:0:0:
168,208,50381,1,0,0:0:0:0:
168,208,50527,2,0,P|143:256|92:278,1,112.000000476837,8|0,0:0|0:0,0:0:0:0:
8,188,50963,1,0,0:0:0:0:
8,187,51109,6,0,P|32:138|83:116,1,112.000000476837,8|0,0:0|0:0,0:0:0:0:
220,120,51546,1,0,0:0:0:0:
220,120,51692,2,0,P|270:141|295:190,1,112.000000476837,8|0,0:0|0:0,0:0:0:0:
145,151,52129,1,8,0:0:0:0:
145,151,52420,2,0,P|136:100|176:48,1,112.000000476837,8|0,0:0|0:0,0:0:0:0:
176,60,52784,1,0,0:0:0:0:
184,68,52857,6,0,L|0:52,1,181.999992443561,4|0,0:0|0:0,0:0:0:0:
128,144,53294,1,4,0:0:0:0:
128,144,53730,1,4,0:0:0:0:
128,144,54022,6,0,B|192:136|192:136|240:152|240:152|308:144,1,181.999992443561,4|0,0:0|0:0,0:0:0:0:
188,232,54459,1,2,0:0:0:0:
244,56,54604,1,0,0:0:0:0:
128,144,54750,5,2,0:0:0:0:
328,64,54896,1,0,0:0:0:0:
164,68,55041,5,2,0:0:0:0:
388,124,55187,1,4,0:0:0:0:
388,124,55696,5,4,0:0:0:0:
164,68,55842,1,4,0:0:0:0:
164,68,56206,5,4,0:0:0:0:
388,124,56352,2,0,L|204:148,1,181.999992443561,4|0,0:0|0:0,0:0:0:0:
344,264,56789,5,2,0:0:0:0:
344,264,56862,1,0,0:0:0:0:
344,264,56934,2,0,L|340:216,1,45.4999981108903
208,320,57080,1,2,0:0:0:0:
208,320,57153,1,0,0:0:0:0:
208,320,57226,2,0,L|212:368,1,45.4999981108903
48,300,57371,2,0,L|44:252,1,45.4999981108903,2|0,0:0|0:0,0:0:0:0:
36,184,57517,5,8,0:0:0:0:
56,196,58682,6,0,P|124:200|188:120,1,167.999995588302,4|0,0:0|0:0,0:0:0:0:
124,288,59119,1,8,0:0:0:0:
96,112,59264,1,0,0:0:0:0:
236,224,59410,1,0,0:0:0:0:
56,196,59556,1,0,0:0:0:0:
212,112,59701,1,8,0:0:0:0:
220,108,59847,6,0,P|280:120|356:48,1,167.999995588302
352,40,60211,1,0,0:0:0:0:
344,28,60284,1,8,0:0:0:0:
156,48,60429,1,0,0:0:0:0:
156,48,60575,2,0,P|140:72|136:128,1,83.9999977941511
310,227,60866,1,8,0:0:0:0:
310,227,61012,6,0,P|298:159|218:107,1,167.999995588302,4|0,0:0|0:0,0:0:0:0:
384,136,61449,1,8,0:0:0:0:
208,212,61595,2,0,P|140:180|124:92,1,167.999995588302,4|0,0:0|0:0,0:0:0:0:
128,84,61959,1,0,0:0:0:0:
136,72,62031,1,8,0:0:0:0:
60,252,62177,5,4,0:0:0:0:
60,252,62468,5,4,0:0:0:0:
60,252,62760,5,4,0:0:0:0:
60,252,63051,2,0,P|112:252|148:224,1,83.9999977941511,4|0,0:0|0:0,0:0:0:0:
212,124,63342,6,0,L|200:292,1,167.999995588302,4|0,0:0|0:0,0:0:0:0:
204,304,63706,1,0,0:0:0:0:
208,316,63779,1,8,0:0:0:0:
36,232,63925,1,0,0:0:0:0:
296,156,64070,1,0,0:0:0:0:
153,242,64216,1,0,0:0:0:0:
300,312,64362,1,8,0:0:0:0:
208,160,64507,6,0,P|128:144|64:204,1,167.999995588302
64,212,64871,1,0,0:0:0:0:
68,228,64944,1,8,0:0:0:0:
309,316,65090,1,0,0:0:0:0:
309,316,65235,2,0,L|297:232,1,83.9999977941511
444,68,65527,1,8,0:0:0:0:
444,68,65672,6,0,L|468:240,1,167.999995588302,4|0,0:0|0:0,0:0:0:0:
316,124,66109,1,8,0:0:0:0:
316,124,66255,2,0,L|316:292,1,167.999995588302,4|0,0:0|0:0,0:0:0:0:
176,172,66692,1,8,0:0:0:0:
176,172,66837,2,0,L|156:340,1,167.999995588302,4|0,0:0|0:0,0:0:0:0:
0,212,67274,6,0,L|4:188,3,20.9999994485378,2|0|0|0,0:0|0:0|0:0|0:0,0:0:0:0:
16,144,67565,1,2,0:0:0:0:
56,112,67638,1,0,0:0:0:0:
104,104,67711,1,0,0:0:0:0:
152,112,67784,1,0,0:0:0:0:
200,124,67857,1,2,0:0:0:0:
248,128,67929,1,0,0:0:0:0:
296,124,68002,6,0,B|288:184|288:184|304:224|304:224|300:292,1,167.999995588302,4|0,0:0|0:0,0:0:0:0:
304,304,68366,1,0,0:0:0:0:
308,320,68439,1,8,0:0:0:0:
384,164,68585,1,0,0:0:0:0:
208,240,68730,6,0,L|200:324,1,83.9999977941511
336,240,69022,1,8,0:0:0:0:
136,156,69167,1,0,0:0:0:0:
336,240,69313,5,4,0:0:0:0:
192,308,69459,2,0,L|180:225,1,83.9999977941511,0|8,0:0|0:0,0:0:0:0:
352,148,69750,2,0,L|340:232,1,83.9999977941511
192,308,70041,1,8,0:0:0:0:
184,264,70114,1,0,0:0:0:0:
172,220,70187,1,0,0:0:0:0:
164,176,70260,1,0,0:0:0:0:
152,120,70332,6,0,B|128:8|128:8|104:60,1,167.999995588302,4|0,0:0|0:0,0:0:0:0:
100,68,70696,1,0,0:0:0:0:
96,80,70769,1,8,0:0:0:0:
312,36,70915,1,0,0:0:0:0:
312,36,71061,2,0,L|324:120,1,83.9999977941511
96,80,71352,1,8,0:0:0:0:
312,36,71497,5,4,0:0:0:0:
344,224,71643,1,0,0:0:0:0:
268,108,71789,5,4,0:0:0:0:
252,304,71934,1,0,0:0:0:0:
208,172,72080,5,4,0:0:0:0:
144,372,72226,1,0,0:0:0:0:
252,304,72371,1,4,0:0:0:0:
296,288,72444,1,0,0:0:0:0:
340,280,72517,1,8,0:0:0:0:
388,284,72590,1,0,0:0:0:0:
440,308,72663,6,0,P|412:256|460:168,1,167.999995588302,4|0,0:0|0:0,0:0:0:0:
472,176,73027,1,0,0:0:0:0:
480,188,73099,1,8,0:0:0:0:
288,224,73245,1,0,0:0:0:0:
512,244,73391,1,0,0:0:0:0:
340,156,73536,1,0,0:0:0:0:
396,316,73682,1,8,0:0:0:0:
460,128,73828,6,0,P|448:88|404:56,1,83.9999977941511,4|0,0:0|0:0,0:0:0:0:
212,60,74119,2,0,P|180:87|169:127,1,83.9999977941511,4|8,0:0|0:0,0:0:0:0:
320,280,74410,2,0,P|328:228|264:140,1,167.999995588302,4|0,0:0|0:0,0:0:0:0:
58,249,74847,1,8,0:0:0:0:
58,249,74993,6,0,L|226:237,1,167.999995588302,4|0,0:0|0:0,0:0:0:0:
74,327,75429,2,0,P|58:299|58:247,1,83.9999977941511,8|0,0:0|0:0,0:0:0:0:
241,158,75721,2,0,P|243:199|224:236,1,83.9999977941511,8|0,0:0|0:0,0:0:0:0:
152,76,76012,1,8,0:0:0:0:
152,76,76158,6,0,P|208:32|300:48,1,167.999995588302,4|0,0:0|0:0,0:0:0:0:
132,160,76595,2,0,P|100:148|72:104,1,83.9999977941511,8|0,0:0|0:0,0:0:0:0:
104,292,76886,2,0,P|141:308|163:344,1,83.9999977941511,8|0,0:0|0:0,0:0:0:0:
344,344,77177,2,0,P|365:308|403:291,1,83.9999977941511,8|4,0:0|0:0,0:0:0:0:
403,291,78051,5,4,0:0:0:0:
256,192,78488,12,8,79216,0:0:0:0:
304,148,79362,5,8,0:0:0:0:
304,148,79653,6,0,L|292:320,1,167.999995588302,4|0,0:0|0:0,0:0:0:0:
112,204,80090,1,8,0:0:0:0:
112,204,80235,2,0,L|196:192,1,83.9999977941511
68,316,80527,1,0,0:0:0:0:
36,152,80672,1,8,0:0:0:0:
256,120,80818,2,0,P|288:188|248:268,1,167.999995588302
249,266,81182,1,0,0:0:0:0:
256,272,81255,5,8,0:0:0:0:
52,224,81400,1,0,0:0:0:0:
195,192,81546,1,0,0:0:0:0:
156,328,81692,1,0,0:0:0:0:
84,152,81837,1,8,0:0:0:0:
220,272,81983,6,0,P|240:308|232:360,1,83.9999977941511,4|0,0:0|0:0,0:0:0:0:
364,264,82274,2,0,P|360:222|380:186,1,83.9999977941511,0|8,0:0|0:0,0:0:0:0:
448,328,82565,2,0,P|416:360|380:368,1,83.9999977941511,4|0,0:0|0:0,0:0:0:0:
204,336,82857,2,0,P|163:345|135:375,1,83.9999977941511,4|8,0:0|0:0,0:0:0:0:
164,232,83148,6,0,L|176:60,1,167.999995588302,4|0,0:0|0:0,0:0:0:0:
184,72,83512,1,0,0:0:0:0:
192,80,83585,1,8,0:0:0:0:
244,276,83730,1,0,0:0:0:0:
244,276,83876,2,0,P|216:308|160:320,1,83.9999977941511
348,380,84167,1,8,0:0:0:0:
348,380,84313,6,0,P|388:328|392:228,1,167.999995588302,4|0,0:0|0:0,0:0:0:0:
204,148,84750,2,0,L|216:232,1,83.9999977941511,8|0,0:0|0:0,0:0:0:0:
364,76,85041,2,0,L|352:160,1,83.9999977941511
224,64,85332,1,8,0:0:0:0:
452,0,85478,6,0,L|428:168,1,167.999995588302,4|0,0:0|0:0,0:0:0:0:
224,64,85915,2,0,L|308:52,1,83.9999977941511,8|0,0:0|0:0,0:0:0:0:
172,180,86206,1,0,0:0:0:0:
96,12,86352,1,0,0:0:0:0:
224,64,86497,1,8,0:0:0:0:
80,16,86643,2,0,P|40:16|0:44,2,83.9999977941511,4|0|0,0:0|0:0|0:0,0:0:0:0:
32,240,87080,5,8,0:0:0:0:
224,172,87226,1,0,0:0:0:0:
80,312,87371,5,8,0:0:0:0:
316,220,87517,1,0,0:0:0:0:
136,380,87663,5,8,0:0:0:0:
416,268,87808,1,4,0:0:0:0:
256,192,88245,12,0,88828,0:0:0:0:
256,192,88973,12,8,89701,0:0:0:0:
