osu file format v14

[General]
AudioFilename: Hakata Tonkotsu Ramens.mp3
AudioLeadIn: 0
PreviewTime: 57632
Countdown: 0
SampleSet: Soft
StackLeniency: 0.4
Mode: 0
LetterboxInBreaks: 0
WidescreenStoryboard: 1

[Editor]
DistanceSpacing: 1.2
BeatDivisor: 4
GridSize: 4
TimelineZoom: 1.7

[Metadata]
Title:STRAY
TitleUnicode:ストレイ
Artist:KISIDA KYODAN & THE AKEBOSI ROCKETS
ArtistUnicode:岸田教団&THE明星ロケッツ
Creator:-_vicX_-
Version:Another
Source:博多トンコツラーメン
Tags:Hakata Tonkotsu Ramens, Opening Song TV Anime Size
BeatmapID:1607135
BeatmapSetID:764265

[Difficulty]
HPDrainRate:6
CircleSize:3.6
OverallDifficulty:6
ApproachRate:9
SliderMultiplier:1.80000000596046
SliderTickRate:1

[Events]
//Background and Video events
0,0,"BG STD.jpg",0,0
Video,320,"Hakata Tonkotsu Ramens Op.avi"
//Break Periods
//Storyboard Layer 0 (Background)
//Storyboard Layer 1 (Fail)
//Storyboard Layer 2 (Pass)
//Storyboard Layer 3 (Foreground)
//Storyboard Sound Samples

[TimingPoints]
430,291.26213592233,4,2,1,30,1,0
6255,-76.9230769230769,4,2,1,50,0,0
10478,-76.9230769230769,4,2,2,60,0,0
15575,-90.9090909090909,4,2,2,70,0,0
19944,-142.857142857143,4,2,1,50,0,0
20235,-111.111111111111,4,2,1,60,0,0
20527,-100,4,2,1,30,0,0
28828,-100,4,2,2,70,0,0
29556,-90.9090909090909,4,2,2,70,0,0
38876,-125,4,2,1,70,0,0
41643,-100,4,2,2,70,0,0
43536,-100,4,2,1,70,0,0
45866,-100,4,2,2,70,0,0
47031,-100,4,2,1,70,0,0
47905,-100,4,2,2,70,0,0
48196,-166.666666666667,4,2,1,70,0,0
51692,-200,4,2,1,60,0,0
52420,-100,4,2,1,70,0,0
52857,-100,4,2,1,70,0,0
58682,-90.9090909090909,4,2,2,70,0,1
62177,-90.9090909090909,4,2,2,70,0,0
63342,-90.9090909090909,4,2,2,70,0,1
65672,-111.111111111111,4,2,2,70,0,1
66837,-90.9090909090909,4,2,1,70,0,0
67274,-200,4,2,1,70,0,0
67565,-90.9090909090909,4,2,1,70,0,0
68002,-90.9090909090909,4,2,2,70,0,1
70041,-100,4,2,1,70,0,1
70332,-90.9090909090909,4,2,2,70,0,1
71206,-125,4,2,2,70,0,1
72371,-90.9090909090909,4,2,2,70,0,1
72663,-90.9090909090909,4,2,2,70,0,1
78051,-66.6666666666667,4,2,1,70,0,1
78488,-166.666666666667,4,2,1,70,0,1
79653,-100,4,2,2,70,0,0
88245,-200,4,2,1,60,0,0
89774,-200,4,2,1,5,0,0

[Colours]
Combo1 : 113,0,113
Combo2 : 225,113,0
Combo3 : 145,145,145
Combo4 : 0,80,159
Combo5 : 234,190,17
Combo6 : 221,0,0

[HitObjects]
352,312,1595,6,0,L|364:176,1,135.000000447034
356,148,1886,1,8,0:0:0:0:
208,300,2031,1,0,0:0:0:0:
460,240,2177,1,8,0:0:0:0:
464,248,2468,5,8,0:0:0:0:
208,300,2614,1,0,0:0:0:0:
356,148,2760,1,8,0:0:0:0:
356,148,3342,2,0,L|344:56,1,90.000000298023,8|0,0:0|0:0,0:0:0:0:
260,132,3633,2,0,L|248:40,1,90.000000298023,8|0,0:0|0:0,0:0:0:0:
164,128,3925,6,0,L|192:308,1,180.000000596046
404,196,4362,1,0,0:0:0:0:
280,136,4507,1,8,0:0:0:0:
328,336,4653,1,0,0:0:0:0:
496,240,4798,1,8,0:0:0:0:
448,72,4944,1,0,0:0:0:0:
288,152,5090,1,8,0:0:0:0:
288,152,5963,5,8,0:0:0:0:
288,152,6255,6,0,B|348:152|392:96|392:96|356:156|384:212,1,233.99999006319,4|8,0:0|0:0,0:0:0:0:
379,202,6692,1,0,0:0:0:0:
460,136,6837,2,0,P|456:56|324:52,1,233.99999006319,4|8,0:0|0:0,0:0:0:0:
327,48,7274,1,0,0:0:0:0:
120,24,7420,1,4,0:0:0:0:
116,32,7711,5,0,0:0:0:0:
188,244,7857,1,2,0:0:0:0:
52,104,8002,1,0,0:0:0:0:
248,168,8148,1,2,0:0:0:0:
36,212,8294,1,0,0:0:0:0:
264,64,8439,1,2,0:0:0:0:
8,224,8585,1,4,0:0:0:0:
152,236,9604,5,0,0:0:0:0:
468,152,9750,1,8,0:0:0:0:
476,160,10332,1,0,0:0:0:0:
476,160,10405,1,0,0:0:0:0:
476,160,10478,5,8,0:0:0:0:
152,236,10624,1,8,0:0:0:0:
156,244,10915,6,0,L|392:268,1,233.99999006319,4|0,0:0|0:0,0:0:0:0:
216,192,11352,1,8,0:0:0:0:
316,360,11497,1,0,0:0:0:0:
440,172,11643,1,0,0:0:0:0:
320,272,11789,1,0,0:0:0:0:
488,324,11934,1,8,0:0:0:0:
412,92,12080,6,0,L|176:68,1,233.99999006319
348,136,12517,1,8,0:0:0:0:
248,24,12663,1,0,0:0:0:0:
168,196,12808,1,0,0:0:0:0:
260,100,12954,1,0,0:0:0:0:
72,132,13099,1,8,0:0:0:0:
240,248,13245,6,0,L|228:72,1,175.499992547393,4|0,0:0|0:0,0:0:0:0:
220,52,13536,1,0,0:0:0:0:
308,288,13682,1,8,0:0:0:0:
36,192,13828,2,0,L|212:168,1,175.499992547393,4|0,0:0|0:0,0:0:0:0:
224,152,14119,1,0,0:0:0:0:
108,220,14264,1,8,0:0:0:0:
240,140,14410,6,0,L|356:152,1,116.999995031595,4|0,0:0|0:0,0:0:0:0:
240,260,14701,2,0,L|204:376,1,116.999995031595,4|0,0:0|0:0,0:0:0:0:
120,260,14993,2,0,L|4:248,1,116.999995031595,4|0,0:0|0:0,0:0:0:0:
96,140,15284,1,8,0:0:0:0:
304,236,15429,1,8,0:0:0:0:
92,148,15575,6,0,L|104:348,1,198.000006698131,4|0,0:0|0:0,0:0:0:0:
156,192,16012,1,8,0:0:0:0:
16,324,16158,1,0,0:0:0:0:
216,268,16303,1,0,0:0:0:0:
12,200,16449,1,0,0:0:0:0:
132,384,16595,1,8,0:0:0:0:
120,200,16740,6,0,L|144:4,1,198.000006698131,4|0,0:0|0:0,0:0:0:0:
44,152,17177,1,8,0:0:0:0:
228,52,17323,1,0,0:0:0:0:
20,32,17468,1,0,0:0:0:0:
168,196,17614,1,0,0:0:0:0:
128,0,17760,1,8,0:0:0:0:
56,176,17905,6,0,L|80:376,1,198.000006698131,4|0,0:0|0:0,0:0:0:0:
300,220,18342,1,8,0:0:0:0:
64,156,18488,6,0,L|76:260,1,99.0000033490656,4|0,0:0|0:0,0:0:0:0:
92,384,18779,1,0,0:0:0:0:
316,208,18925,1,8,0:0:0:0:
152,224,19070,5,4,0:0:0:0:
360,276,19216,1,0,0:0:0:0:
196,288,19362,5,4,0:0:0:0:
412,204,19507,1,8,0:0:0:0:
272,340,19653,5,4,0:0:0:0:
272,340,19726,1,0,0:0:0:0:
272,340,19798,1,0,0:0:0:0:
336,172,19944,1,8,0:0:0:0:
332,136,20017,1,0,0:0:0:0:
328,100,20090,1,0,0:0:0:0:
324,64,20163,1,0,0:0:0:0:
320,28,20235,6,0,P|280:40|196:4,1,121.499996694445,4|0,0:0|0:0,0:0:0:0:
100,108,20527,2,0,P|160:100|260:160,1,180.000000596046,8|0,0:0|0:0,0:0:0:0:
192,232,20963,1,0,0:0:0:0:
100,256,21109,1,0,0:0:0:0:
12,220,21255,1,0,0:0:0:0:
96,260,21400,6,0,L|276:248,1,180.000000596046,8|0,0:0|0:0,0:0:0:0:
364,356,21837,2,0,L|184:344,1,180.000000596046,8|0,0:0|0:0,0:0:0:0:
268,296,22274,1,0,0:0:0:0:
348,252,22420,1,8,0:0:0:0:
432,204,22565,6,0,P|376:212|284:136,1,180.000000596046,8|0,0:0|0:0,0:0:0:0:
484,88,23002,2,0,L|472:268,1,180.000000596046,8|0,0:0|0:0,0:0:0:0:
380,292,23439,1,0,0:0:0:0:
288,316,23585,1,8,0:0:0:0:
192,336,23730,1,0,0:0:0:0:
96,356,23876,6,0,L|108:264,1,90.000000298023,8|0,0:0|0:0,0:0:0:0:
236,136,24167,2,0,L|164:208,1,90.000000298023,8|0,0:0|0:0,0:0:0:0:
0,156,24459,2,0,L|92:180,1,90.000000298023,8|0,0:0|0:0,0:0:0:0:
180,204,24750,1,0,0:0:0:0:
268,228,24896,6,0,P|264:168|200:116,1,135.000000447034,8|0,0:0|0:0,0:0:0:0:
0,232,25187,2,0,L|180:204,1,180.000000596046,8|0,0:0|0:0,0:0:0:0:
268,176,25624,1,0,0:0:0:0:
356,160,25769,1,0,0:0:0:0:
444,176,25915,1,0,0:0:0:0:
512,232,26061,6,0,L|500:52,1,180.000000596046,8|0,0:0|0:0,0:0:0:0:
452,184,26497,1,8,0:0:0:0:
496,44,26643,1,0,0:0:0:0:
444,192,26789,2,0,P|384:204|288:136,1,180.000000596046,8|0,0:0|0:0,0:0:0:0:
240,28,27226,2,0,P|252:84|180:176,1,180.000000596046,8|0,0:0|0:0,0:0:0:0:
79,56,27663,6,0,P|145:11|246:31,1,180.000000596046,8|0,0:0|0:0,0:0:0:0:
336,64,28099,1,0,0:0:0:0:
444,48,28245,2,0,L|432:140,1,90.000000298023,8|0,0:0|0:0,0:0:0:0:
420,252,28536,5,8,0:0:0:0:
276,152,28682,1,0,0:0:0:0:
512,88,28828,1,8,0:0:0:0:
372,168,28973,1,0,0:0:0:0:
444,48,29119,1,8,0:0:0:0:
488,272,29264,1,8,0:0:0:0:
488,272,29337,1,8,0:0:0:0:
488,272,29410,1,8,0:0:0:0:
372,168,29556,6,0,L|172:180,1,198.000006698131,4|0,0:0|0:0,0:0:0:0:
316,92,29993,1,8,0:0:0:0:
288,264,30138,1,0,0:0:0:0:
96,236,30284,1,0,0:0:0:0:
124,64,30429,1,0,0:0:0:0:
316,92,30575,1,8,0:0:0:0:
112,60,30721,6,0,L|136:260,1,198.000006698131
200,80,31158,1,8,0:0:0:0:
20,144,31303,1,0,0:0:0:0:
64,316,31449,1,0,0:0:0:0:
244,256,31595,1,0,0:0:0:0:
200,88,31740,1,8,0:0:0:0:
20,144,31886,6,0,L|68:340,1,198.000006698131,4|0,0:0|0:0,0:0:0:0:
296,184,32323,1,8,0:0:0:0:
32,156,32468,6,0,L|80:352,1,198.000006698131,4|0,0:0|0:0,0:0:0:0:
312,172,32905,1,8,0:0:0:0:
48,168,33051,6,0,L|72:264,1,99.0000033490656,4|0,0:0|0:0,0:0:0:0:
232,148,33342,1,0,0:0:0:0:
36,84,33488,1,8,0:0:0:0:
200,252,33633,1,0,0:0:0:0:
316,152,33779,2,0,L|288:56,1,99.0000033490656
320,272,34070,1,8,0:0:0:0:
320,272,34216,6,0,L|260:80,1,198.000006698131,4|0,0:0|0:0,0:0:0:0:
392,188,34653,1,8,0:0:0:0:
224,160,34798,1,0,0:0:0:0:
376,96,34944,1,0,0:0:0:0:
260,240,35090,1,0,0:0:0:0:
296,60,35235,1,8,0:0:0:0:
400,240,35381,1,0,0:0:0:0:
200,168,35527,5,0,0:0:0:0:
400,68,35672,1,0,0:0:0:0:
292,316,35818,1,8,0:0:0:0:
240,44,35963,1,0,0:0:0:0:
424,180,36109,1,0,0:0:0:0:
156,192,36255,1,0,0:0:0:0:
360,20,36400,1,8,0:0:0:0:
300,304,36546,6,0,L|288:152,1,148.500005023598,4|0,0:0|0:0,0:0:0:0:
224,340,36837,2,0,L|208:192,1,148.500005023598,4|0,0:0|0:0,0:0:0:0:
80,92,37129,1,0,0:0:0:0:
80,92,37274,2,0,L|99:289,1,198.000006698131,8|0,0:0|0:0,0:0:0:0:
240,200,37711,6,0,L|220:0,1,198.000006698131,0|8,0:0|0:0,0:0:0:0:
360,104,38148,2,0,L|376:252,1,148.500005023598,8|0,0:0|0:0,0:0:0:0:
360,236,38439,1,8,0:0:0:0:
500,272,38585,1,0,0:0:0:0:
304,352,38730,1,0,0:0:0:0:
308,160,38876,6,0,L|384:284,1,144.000000476837,4|0,0:0|0:0,0:0:0:0:
444,160,39313,2,0,L|368:36,1,144.000000476837,8|4,0:0|0:0,0:0:0:0:
112,244,40041,6,0,L|187:366,1,144.000000476837,4|0,0:0|0:0,0:0:0:0:
184,208,40478,2,0,P|148:172|64:180,1,108.000000357628,8|0,0:0|0:0,0:0:0:0:
112,244,40769,1,2,0:0:0:0:
140,276,40842,1,0,0:0:0:0:
180,292,40915,1,0,0:0:0:0:
224,288,40988,1,0,0:0:0:0:
264,268,41061,1,2,0:0:0:0:
288,232,41133,1,0,0:0:0:0:
296,188,41206,6,0,L|308:332,1,144.000000476837,4|0,0:0|0:0,0:0:0:0:
376,212,41643,1,8,0:0:0:0:
204,260,41789,1,0,0:0:0:0:
332,368,41934,1,0,0:0:0:0:
288,140,42080,1,0,0:0:0:0:
140,352,42226,1,8,0:0:0:0:
376,256,42371,1,0,0:0:0:0:
384,260,42663,6,0,L|372:168,2,90.000000298023,0|8|0,0:0|0:0|0:0,0:0:0:0:
148,216,43099,1,0,0:0:0:0:
292,172,43245,1,0,0:0:0:0:
128,212,43391,1,8,0:0:0:0:
312,176,43536,6,0,L|492:188,1,180.000000596046,4|0,0:0|0:0,0:0:0:0:
276,248,43973,2,0,P|232:168|280:100,1,180.000000596046,8|4,0:0|0:0,0:0:0:0:
491,187,44410,1,0,0:0:0:0:
312,176,44556,1,0,0:0:0:0:
496,180,44701,2,0,L|472:360,1,180.000000596046,8|0,0:0|0:0,0:0:0:0:
412,172,45138,2,0,P|444:112|508:96,1,135.000000447034,8|0,0:0|0:0,0:0:0:0:
496,180,45429,5,2,0:0:0:0:
476,232,45502,1,0,0:0:0:0:
428,260,45575,1,0,0:0:0:0:
372,264,45648,1,0,0:0:0:0:
320,248,45721,1,2,0:0:0:0:
280,212,45794,1,0,0:0:0:0:
264,160,45866,6,0,L|252:340,1,180.000000596046,8|0,0:0|0:0,0:0:0:0:
344,200,46303,1,8,0:0:0:0:
120,240,46449,1,0,0:0:0:0:
356,196,46595,1,0,0:0:0:0:
208,104,46740,1,0,0:0:0:0:
256,264,46886,1,8,0:0:0:0:
200,88,47031,6,0,L|212:-4,1,90.000000298023,8|0,0:0|0:0,0:0:0:0:
280,108,47323,2,0,L|304:20,1,90.000000298023,8|0,0:0|0:0,0:0:0:0:
360,140,47614,2,0,L|392:56,1,90.000000298023,8|0,0:0|0:0,0:0:0:0:
436,180,47905,1,8,0:0:0:0:
452,296,48051,1,8,0:0:0:0:
444,168,48196,6,0,B|456:24|456:24|488:92,1,215.999994123458,4|0,0:0|0:0,0:0:0:0:
484,232,48925,2,0,P|444:244|380:208,1,107.999997061729,8|0,0:0|0:0,0:0:0:0:
328,136,49362,2,0,P|336:176|308:240,1,107.999997061729,8|0,0:0|0:0,0:0:0:0:
148,192,49798,1,0,0:0:0:0:
148,192,49944,6,0,P|180:172|248:176,1,107.999997061729,8|0,0:0|0:0,0:0:0:0:
216,352,50381,1,0,0:0:0:0:
216,352,50527,2,0,P|196:312|216:244,1,107.999997061729,8|0,0:0|0:0,0:0:0:0:
380,316,50963,1,0,0:0:0:0:
380,316,51109,2,0,P|332:324|276:292,1,107.999997061729,8|0,0:0|0:0,0:0:0:0:
392,236,51546,1,0,0:0:0:0:
392,236,51692,6,0,P|448:268|432:380,1,180.000000596046,8|0,0:0|0:0,0:0:0:0:
312,252,52420,2,0,P|332:176|428:160,1,180.000000596046,2|0,0:0|0:0,0:0:0:0:
432,168,52784,1,0,0:0:0:0:
440,180,52857,5,4,0:0:0:0:
436,192,53294,5,4,0:0:0:0:
428,204,53730,5,4,0:0:0:0:
420,216,54022,5,4,0:0:0:0:
208,148,54459,1,4,0:0:0:0:
216,160,54750,2,0,L|240:340,1,180.000000596046,4|2,0:0|0:0,0:0:0:0:
464,208,55187,1,4,0:0:0:0:
464,208,55696,5,4,0:0:0:0:
196,140,55842,1,4,0:0:0:0:
204,152,56206,5,4,0:0:0:0:
472,196,56352,2,0,L|448:376,1,180.000000596046,4|0,0:0|0:0,0:0:0:0:
212,248,56789,1,2,0:0:0:0:
396,208,56934,1,0,0:0:0:0:
264,360,57080,1,2,0:0:0:0:
296,152,57226,1,0,0:0:0:0:
400,300,57371,1,2,0:0:0:0:
400,300,57444,1,0,0:0:0:0:
400,300,57517,1,0,0:0:0:0:
400,300,58536,5,8,0:0:0:0:
412,304,58682,6,0,L|424:104,1,198.000006698131,4|0,0:0|0:0,0:0:0:0:
492,280,59119,1,8,0:0:0:0:
252,192,59264,1,0,0:0:0:0:
412,204,59410,1,0,0:0:0:0:
224,312,59556,1,0,0:0:0:0:
120,120,59701,1,8,0:0:0:0:
312,12,59847,6,0,L|288:212,1,198.000006698131
228,48,60284,1,8,0:0:0:0:
472,152,60429,1,0,0:0:0:0:
304,128,60575,1,0,0:0:0:0:
400,8,60721,1,0,0:0:0:0:
452,288,60866,1,8,0:0:0:0:
216,128,61012,6,0,L|416:116,1,198.000006698131,4|0,0:0|0:0,0:0:0:0:
180,204,61449,1,8,0:0:0:0:
180,204,61595,2,0,P|132:128|192:48,1,198.000006698131,4|0,0:0|0:0,0:0:0:0:
248,244,62031,2,0,P|216:276|154:279,1,99.0000033490656,8|4,0:0|0:0,0:0:0:0:
180,204,62468,1,4,0:0:0:0:
188,196,62760,1,4,0:0:0:0:
196,188,63051,5,8,0:0:0:0:
256,200,63124,1,0,0:0:0:0:
316,204,63196,1,8,0:0:0:0:
376,196,63269,1,0,0:0:0:0:
432,172,63342,6,0,L|420:372,1,198.000006698131,4|0,0:0|0:0,0:0:0:0:
176,272,63779,1,8,0:0:0:0:
344,220,63925,1,0,0:0:0:0:
236,352,64070,1,0,0:0:0:0:
240,192,64216,1,0,0:0:0:0:
380,360,64362,1,8,0:0:0:0:
140,260,64507,6,0,P|120:152|180:88,1,198.000006698131
160,104,64871,1,0,0:0:0:0:
148,120,64944,1,8,0:0:0:0:
268,352,65090,1,0,0:0:0:0:
432,228,65235,1,0,0:0:0:0:
288,272,65381,1,0,0:0:0:0:
496,372,65527,1,8,0:0:0:0:
504,352,65599,1,0,0:0:0:0:
508,332,65672,6,0,L|496:168,1,161.999995592594,4|0,0:0|0:0,0:0:0:0:
344,76,66109,1,8,0:0:0:0:
344,84,66182,1,0,0:0:0:0:
344,92,66255,2,0,L|356:256,1,161.999995592594,4|0,0:0|0:0,0:0:0:0:
424,108,66692,1,8,0:0:0:0:
132,200,66837,2,0,P|60:164|140:188,1,247.500008372664,4|0,0:0|0:0,0:0:0:0:
72,288,67274,5,2,0:0:0:0:
68,316,67347,1,0,0:0:0:0:
64,344,67420,1,0,0:0:0:0:
60,372,67493,1,0,0:0:0:0:
116,356,67565,5,2,0:0:0:0:
172,336,67638,1,0,0:0:0:0:
228,320,67711,1,2,0:0:0:0:
288,320,67784,1,0,0:0:0:0:
348,328,67857,1,0,0:0:0:0:
404,344,67929,1,0,0:0:0:0:
460,364,68002,6,0,P|424:316|480:200,1,198.000006698131,4|0,0:0|0:0,0:0:0:0:
512,288,68439,1,8,0:0:0:0:
388,224,68585,1,0,0:0:0:0:
388,224,68730,5,0,0:0:0:0:
320,384,68876,1,0,0:0:0:0:
112,332,69022,1,8,0:0:0:0:
196,136,69167,1,0,0:0:0:0:
400,192,69313,1,0,0:0:0:0:
192,140,69459,6,0,L|84:148,1,99.0000033490656
256,192,69750,2,0,P|272:160|252:84,1,99.0000033490656,8|0,0:0|0:0,0:0:0:0:
43,152,70041,1,0,0:0:0:0:
96,148,70114,1,0,0:0:0:0:
148,144,70187,1,2,0:0:0:0:
200,140,70260,1,0,0:0:0:0:
260,136,70332,6,0,L|460:124,1,198.000006698131,4|0,0:0|0:0,0:0:0:0:
288,52,70769,1,8,0:0:0:0:
368,308,70915,1,0,0:0:0:0:
404,180,71061,1,0,0:0:0:0:
180,276,71206,2,0,P|172:308|200:300,1,72.0000002384184
200,200,71497,5,4,0:0:0:0:
464,240,71643,1,0,0:0:0:0:
236,128,71789,5,4,0:0:0:0:
436,316,71934,1,0,0:0:0:0:
304,76,72080,5,4,0:0:0:0:
384,380,72226,1,0,0:0:0:0:
236,352,72371,1,0,0:0:0:0:
180,336,72444,1,0,0:0:0:0:
120,328,72517,1,0,0:0:0:0:
60,336,72590,1,0,0:0:0:0:
8,352,72663,6,0,B|20:272|20:272|8:240|8:240|20:156,1,198.000006698131,4|0,0:0|0:0,0:0:0:0:
296,232,73099,1,8,0:0:0:0:
96,312,73245,1,0,0:0:0:0:
212,124,73391,1,0,0:0:0:0:
284,384,73536,1,0,0:0:0:0:
104,320,73682,1,8,0:0:0:0:
104,320,73828,6,0,L|116:220,1,99.0000033490656,4|0,0:0|0:0,0:0:0:0:
268,92,74119,2,0,L|256:192,1,99.0000033490656,4|8,0:0|0:0,0:0:0:0:
104,320,74410,2,0,L|128:120,1,198.000006698131,4|0,0:0|0:0,0:0:0:0:
192,304,74847,1,8,0:0:0:0:
192,304,74920,1,0,0:0:0:0:
192,304,74993,6,0,P|152:244|32:268,1,198.000006698131,4|0,0:0|0:0,0:0:0:0:
176,380,75429,2,0,P|224:376|268:324,1,99.0000033490656,8|0,0:0|0:0,0:0:0:0:
116,228,75721,2,0,L|104:328,1,99.0000033490656
272,248,76012,1,8,0:0:0:0:
272,248,76085,1,0,0:0:0:0:
272,248,76158,6,0,L|292:48,1,198.000006698131,4|0,0:0|0:0,0:0:0:0:
96,148,76595,5,8,0:0:0:0:
380,236,76740,1,0,0:0:0:0:
164,92,76886,5,8,0:0:0:0:
344,320,77031,1,0,0:0:0:0:
252,68,77177,5,8,0:0:0:0:
268,372,77323,1,4,0:0:0:0:
392,76,77760,5,4,0:0:0:0:
392,76,78051,6,0,B|396:-4|460:120|460:120|344:68|260:108,1,337.50001399219,8|0,0:0|0:0,0:0:0:0:
368,290,78488,6,0,L|392:74,1,215.999994123458,4|0,0:0|0:0,0:0:0:0:
284,260,79216,1,2,0:0:0:0:
512,196,79362,1,2,0:0:0:0:
512,196,79653,6,0,L|496:376,1,180.000000596046,4|0,0:0|0:0,0:0:0:0:
288,276,80090,1,8,0:0:0:0:
384,384,80235,1,0,0:0:0:0:
364,224,80381,1,0,0:0:0:0:
292,360,80527,1,0,0:0:0:0:
432,304,80672,1,0,0:0:0:0:
260,244,80818,6,0,B|272:328|272:328|252:232,1,180.000000596046,4|0,0:0|0:0,0:0:0:0:
488,292,81255,1,8,0:0:0:0:
344,360,81400,1,0,0:0:0:0:
376,156,81546,1,0,0:0:0:0:
412,280,81692,1,0,0:0:0:0:
244,216,81837,1,8,0:0:0:0:
492,144,81983,6,0,L|468:324,1,180.000000596046,4|0,0:0|0:0,0:0:0:0:
212,208,82420,1,8,0:0:0:0:
412,136,82565,1,4,0:0:0:0:
364,304,82711,1,0,0:0:0:0:
196,196,82857,1,4,0:0:0:0:
424,148,83002,1,8,0:0:0:0:
352,320,83148,6,0,L|328:140,1,180.000000596046,4|0,0:0|0:0,0:0:0:0:
424,272,83585,1,8,0:0:0:0:
212,236,83730,1,0,0:0:0:0:
320,208,83876,1,0,0:0:0:0:
244,352,84022,1,8,0:0:0:0:
92,304,84167,1,8,0:0:0:0:
252,348,84313,6,0,L|432:336,1,180.000000596046,4|0,0:0|0:0,0:0:0:0:
280,272,84750,1,8,0:0:0:0:
372,384,84896,1,0,0:0:0:0:
452,200,85041,1,0,0:0:0:0:
352,256,85187,1,0,0:0:0:0:
512,312,85332,1,8,0:0:0:0:
416,124,85478,6,0,L|236:112,1,180.000000596046,4|0,0:0|0:0,0:0:0:0:
376,44,85915,1,8,0:0:0:0:
308,220,86061,1,0,0:0:0:0:
144,108,86206,1,0,0:0:0:0:
288,148,86352,1,0,0:0:0:0:
88,268,86497,1,8,0:0:0:0:
100,12,86643,6,0,L|136:192,1,180.000000596046,4|0,0:0|0:0,0:0:0:0:
176,40,87080,1,8,0:0:0:0:
28,200,87226,1,0,0:0:0:0:
236,108,87371,5,8,0:0:0:0:
0,120,87517,1,0,0:0:0:0:
252,200,87663,5,0,0:0:0:0:
12,36,87808,1,8,0:0:0:0:
252,200,88245,6,0,B|308:188|308:188|340:208|340:208|428:188,1,180.000000596046,4|0,0:0|0:0,0:0:0:0:
256,192,88973,12,8,89774,0:0:0:0:
