osu file format v9

[General]
AudioFilename: KIRIKO - Still I Love You ~Mitsumeru Yori wa Shiawase~.mp3
AudioLeadIn: 1004
PreviewTime: 83505
Countdown: 1
SampleSet: Soft
StackLeniency: 0.7
Mode: 0
LetterboxInBreaks: 1

[Editor]
Bookmarks: 17699,37054,52538,68021,85441,100925,116409
DistanceSpacing: 1.5
BeatDivisor: 4
GridSize: 8

[Metadata]
Title:Still I Love You ~Mitsumeru Yori wa Shiawase~
Artist:KIRIKO
Creator:Miu Matsuoka
Version:Sekai
Source:School Days
Tags:

[Difficulty]
HPDrainRate:5
CircleSize:4
OverallDifficulty:6
ApproachRate:6
SliderMultiplier:1.2
SliderTickRate:1

[Events]
//Background and Video events
0,0,"BG.jpg"
//Break Periods
//Storyboard Layer 0 (Background)
//Storyboard Layer 1 (Fail)
//Storyboard Layer 2 (Pass)
//Storyboard Layer 3 (Foreground)
//Storyboard Sound Samples
//Background Colour Transformations
3,100,163,162,255

[TimingPoints]
330,483.870967741935,4,2,1,80,1,0
15813,-100,4,2,1,50,0,0
17749,-100,4,2,1,100,0,0
33475,-100,4,2,1,50,0,0
37104,-100,4,2,1,100,0,0
85491,-100,4,2,1,100,0,1
107507,-100,4,2,1,70,0,1
107749,-100,4,2,1,100,0,1
107991,-100,4,2,1,70,0,1
108233,-100,4,2,1,100,0,1
116459,-100,4,1,1,80,0,0
116700,-100,4,2,1,50,0,0
117426,-100,4,2,1,40,0,0
118394,-100,4,2,1,30,0,0
119362,-100,4,2,1,20,0,0
120329,-100,4,2,1,10,0,0

[Colours]
Combo1 : 246,246,246
Combo2 : 128,255,255
Combo3 : 0,128,255
Combo4 : 155,155,155

[HitObjects]
256,136,1297,2,0,B|256:16,2,120,2|2|4
144,104,2749,1,2
64,192,3233,1,0
104,304,3717,1,2
104,304,3959,1,2
104,304,4200,2,0,B|168:288|224:304,1,120,0|2
320,232,5168,1,0
264,128,5652,1,2
368,72,6136,6,0,B|440:80|496:40,2,120,4|2|0
424,176,7588,1,2
360,280,8071,2,0,B|264:176|128:264,1,240,2|0
48,184,9523,1,2
80,72,10007,6,0,B|128:32|200:120|264:80,2,180,4|2|2
48,184,11942,1,0
88,296,12426,1,2
176,216,12910,1,0
216,328,13394,1,2
272,312,13636,1,2
328,328,13878,2,0,B|384:352|456:288|520:336,2,180,4|2|2
256,192,15813,12,4,17749
256,144,18233,6,0,B|280:80,1,60,8|2
320,128,18717,2,0,B|344:64,1,60,0|2
384,112,19200,1,8
448,216,19684,2,0,B|488:264|488:328,2,120,2|8|2
448,216,20894,1,2
448,216,21136,1,8
336,256,21620,6,0,B|304:312|224:304,1,120,4|8
176,296,22346,2,0,B|112:280|56:320,1,120,2|0
16,352,23071,1,8
16,352,23313,1,2
16,352,23555,5,4
56,176,24039,1,8
192,288,24523,1,0
232,112,25007,1,8
368,224,25491,6,0,B|432:208|464:152,1,120,4|8
480,96,26217,1,2
480,32,26459,1,0
360,48,26942,1,10
248,16,27426,2,0,B|192:40|152:112,1,120,2|8
48,144,28394,5,2
81,193,28636,1,0
114,242,28878,1,10
147,291,29120,1,0
180,340,29362,2,0,B|238:391|288:302|368:360,2,180,4|0|10
256,248,31297,6,0,B|320:248|376:208,1,120,4|8
256,136,32265,2,0,B|192:136|136:176,1,120,2|10
96,280,33233,1,4
256,192,33475,12,4,37104
160,88,37588,1,8
160,88,37830,1,0
160,88,38071,2,0,B|216:112|280:88,1,120,0|8
328,120,38797,1,2
376,152,39039,2,0,B|432:136|496:152,2,120,0|8|0
336,264,40491,1,10
216,248,40975,6,0,B|176:200|104:192,2,120,4|8|0
248,296,42184,1,2
296,328,42426,2,0,B|320:344|360:344,2,60,8|0|0
344,216,43394,1,8
464,216,43878,1,0
440,96,44362,1,8
320,112,44846,6,0,B|288:48|216:32,1,120,4|8
176,64,45571,1,2
176,64,45692,1,0
176,64,45813,2,0,B|48:96,1,120,0|8
24,208,46781,6,0,B|40:272|96:304,1,120,0|8
152,280,47507,1,2
152,280,47628,1,0
152,280,47749,2,0,B|272:312,1,120,0|8
376,256,48717,5,2
304,160,49200,1,8
304,160,49442,1,0
304,160,49684,1,2
352,48,50168,1,8
424,144,50652,6,0,B|496:144,2,60,0|0|8
368,168,51378,1,2
312,192,51620,2,0,B|240:192,2,60,0|8|8
392,288,52588,6,0,B|352:336|280:360,1,120,4|8
232,344,53313,2,0,B|176:320|112:320,1,120
56,320,54039,1,8
56,320,54281,1,2
56,320,54523,2,0,B|24:200,1,120,0|8
144,184,55491,2,0,B|168:48,1,120,0|8
280,112,56459,6,0,B|344:120|408:80,2,120,4|8|0
168,72,57910,1,8
168,72,58152,1,2
168,72,58394,2,0,B|104:80,1,60
144,128,58878,2,0,B|80:136,1,60,8|2
120,184,59362,2,0,B|-8:200,1,120,0|8
64,304,60330,5,4
176,352,60813,1,8
176,352,61055,1,2
176,352,61297,2,0,B|152:374|123:383,2,60,0|0|8
248,256,62265,2,0,B|296:288|368:288,1,120,0|8
424,280,62991,1,2
480,264,63233,2,0,B|504:240|520:208,2,60,0|0|8
456,144,64200,6,0,B|472:88,2,60,0|0|8
400,160,64926,1,2
344,176,65168,2,0,B|328:232,2,60,0|0|8
288,160,65894,1,2
232,144,66136,5,0
88,40,66620,1,8
64,216,67104,1,2
232,144,67588,1,10
64,216,68071,6,0,B|48:280|80:336,1,120,4|8
200,336,69039,2,0,B|264:320,1,60,0|2
320,304,69523,1,8
424,240,70007,6,0,B|480:280|496:344,2,120,0|8|0
371,210,71217,1,2
313,193,71459,2,0,B|281:177|257:153,2,60,8|2|4
208,251,72426,1,8
208,251,72668,1,2
208,251,72910,2,0,B|159:289|87:285,1,120,0|8
41,177,73878,6,0,B|19:53,1,120,2|8
138,77,74846,1,2
197,70,75088,1,0
256,63,75330,1,10
315,56,75571,1,0
374,49,75813,2,0,B|433:40|495:64,1,120,4|8
486,182,76781,2,0,B|483:218|494:247,2,60,0|2|8
367,162,77749,6,0,B|352:228|284:236,1,120,2|8
224,225,78475,2,0,B|157:204|107:255,1,120,2|0
81,300,79200,1,8
191,346,79684,6,0,B|313:360,1,120,4|8
435,229,80652,2,0,B|313:215,1,120,4|8
216,64,81620,1,4
216,64,82588,1,4
256,192,83555,12,4,85491
256,120,85975,5,8
171,88,86217,1,2
145,174,86459,2,0,B|114:194|74:198,1,60,0|2
105,284,86942,2,0,B|68:286|39:272,2,60,8|2|4
256,384,87910,1,8
407,284,88394,5,2
472,224,88636,1,0
424,144,88878,1,10
336,168,89120,1,0
320,256,89362,2,0,B|280:304|208:296,1,120,4|8
128,256,90088,2,0,B|88:200|16:200,1,120,2|0
8,112,90813,1,8
64,40,91055,1,2
64,40,91176,1,0
64,40,91297,5,4
176,184,91781,1,8
240,16,92265,1,2
64,40,92749,1,10
176,184,93233,6,0,B|224:232|288:232,1,120,4|8
368,216,93959,1,2
440,168,94200,2,0,B|472:176|504:168,2,60,0|0|8
392,96,94926,1,2
392,96,95047,1,0
392,96,95168,2,0,B|328:88|288:40,1,120,4|8
208,80,95894,1,2
120,64,96136,2,0,B|56:80|32:144,1,120,0|8
40,232,96862,1,2
80,312,97104,6,0,B|120:288|168:304,2,90,4|2|2
256,80,98555,1,8
256,80,99039,6,0,B|272:144,1,60,2|0
352,96,99523,2,0,B|336:32,1,60,8|0
424,48,100007,1,2
504,88,100249,1,0
504,176,100491,1,10
424,224,100733,1,2
344,184,100975,6,0,B|296:224|224:216,1,120,4|8
152,168,101700,1,2
64,184,101942,1,0
40,272,102184,2,0,B|56:344,1,60,0|8
136,360,102668,2,0,B|192:320|256:336,1,120,4|0
336,360,103394,2,0,B|368:360|400:336,1,60,8|2
336,272,103878,2,0,B|360:256|368:224,1,60,0|2
280,200,104362,2,0,B|288:168|280:136,2,60,8|2|4
104,224,105330,5,8
72,144,105571,1,2
160,160,105813,2,0,B|160:128|152:96,2,60,0|0|8
240,112,106539,1,4
312,280,107023,1,0
384,336,107265,5,8
384,336,107507,1,10
464,296,107749,1,8
464,296,107991,1,10
440,208,108233,1,8
440,208,108475,1,10
496,136,108717,6,0,B|480:72|400:56,1,120,4|8
320,56,109442,2,0,B|280:104|200:96,1,120,2|0
128,64,110168,1,8
128,64,110410,1,0
128,64,110652,6,0,B|112:128|48:152,1,120,4|8
64,240,111378,2,0,B|32:304|64:368,1,120,2|0
144,328,112104,2,0,B|160:360|184:376,2,60,8|10|4
256,192,113071,5,8
256,192,113313,2,0,B|256:152,2,30,2|0|2
408,296,114039,1,8
240,368,114523,6,0,B|200:320|128:328,1,120,4|8
160,240,115249,2,0,B|96:208|88:144,1,120,2|8
112,64,115975,1,8
112,64,116459,1,4
256,192,116700,12,2,120330
