osu file format v13

[General]
AudioFilename: blockskb.mp3
AudioLeadIn: 0
PreviewTime: 8014
Countdown: 0
SampleSet: Soft
StackLeniency: 0.7
Mode: 1
LetterboxInBreaks: 0
WidescreenStoryboard: 1

[Editor]
DistanceSpacing: 1
BeatDivisor: 4
GridSize: 32
TimelineZoom: 1

[Metadata]
Title:The Blocks We Loved
TitleUnicode:The Blocks We Loved
Artist:KILLERBLOOD
ArtistUnicode:KILLERBLOOD
Creator:tetsutaro
Version:Oni
Source:Cytus
Tags:Korobeiniki Tetris
BeatmapID:473304
BeatmapSetID:199584

[Difficulty]
HPDrainRate:6
CircleSize:5
OverallDifficulty:6
ApproachRate:5
SliderMultiplier:1.4
SliderTickRate:1

[Events]
//Background and Video events
0,0,"blockskb.PNG",0,0
//Break Periods
//Storyboard Layer 0 (Background)
//Storyboard Layer 1 (Fail)
//Storyboard Layer 2 (Pass)
//Storyboard Layer 3 (Foreground)
//Storyboard Sound Samples

[TimingPoints]
850,447.761194029851,4,2,0,100,1,0
22342,-100,4,2,0,100,0,1
36670,-100,4,2,0,100,0,0
79655,-100,4,2,0,100,0,1
101148,-100,4,2,0,100,0,0

[HitObjects]
256,160,1297,5,8,0:0:0:0:
256,160,2193,1,8,0:0:0:0:
256,160,3088,1,8,0:0:0:0:
256,160,3984,1,8,0:0:0:0:
256,128,4320,1,0,0:0:0:0:
256,128,4432,1,0,0:0:0:0:
256,128,4655,1,8,0:0:0:0:
256,128,4879,1,0,0:0:0:0:
256,128,4991,1,8,0:0:0:0:
256,128,5215,1,0,0:0:0:0:
256,128,5439,1,0,0:0:0:0:
256,128,5550,1,8,0:0:0:0:
256,128,5774,1,0,0:0:0:0:
256,128,5886,1,8,0:0:0:0:
256,128,6111,1,8,0:0:0:0:
256,128,6223,1,0,0:0:0:0:
256,128,6446,1,8,0:0:0:0:
256,128,6670,1,0,0:0:0:0:
256,128,6782,1,8,0:0:0:0:
256,128,7006,1,0,0:0:0:0:
256,128,7118,1,0,0:0:0:0:
256,128,7230,1,8,0:0:0:0:
256,128,7342,1,0,0:0:0:0:
256,128,7454,1,0,0:0:0:0:
256,128,7566,1,8,0:0:0:0:
256,128,8014,1,0,0:0:0:0:
256,128,8238,1,0,0:0:0:0:
256,128,8461,1,8,0:0:0:0:
256,128,8685,1,0,0:0:0:0:
256,128,8797,1,0,0:0:0:0:
256,128,9021,1,0,0:0:0:0:
256,128,9133,1,0,0:0:0:0:
256,128,9357,1,8,0:0:0:0:
256,128,9805,1,0,0:0:0:0:
256,128,10029,1,0,0:0:0:0:
256,128,10252,1,8,0:0:0:0:
256,128,10476,1,0,0:0:0:0:
256,128,10588,1,0,0:0:0:0:
256,128,10812,1,0,0:0:0:0:
256,128,10924,1,0,0:0:0:0:
256,128,11148,1,8,0:0:0:0:
256,128,11596,1,0,0:0:0:0:
256,128,11820,1,0,0:0:0:0:
256,128,12043,1,8,0:0:0:0:
256,128,12267,1,0,0:0:0:0:
256,128,12379,1,0,0:0:0:0:
256,128,12603,1,0,0:0:0:0:
256,128,12715,1,0,0:0:0:0:
256,128,12939,1,8,0:0:0:0:
256,128,13387,1,0,0:0:0:0:
256,128,13611,1,0,0:0:0:0:
256,128,13834,1,8,0:0:0:0:
256,128,14058,1,0,0:0:0:0:
256,128,14282,1,8,0:0:0:0:
256,128,14394,1,8,0:0:0:0:
256,128,14506,1,0,0:0:0:0:
256,128,14730,1,8,0:0:0:0:
256,128,15178,1,0,0:0:0:0:
256,128,15402,1,0,0:0:0:0:
256,128,15625,1,8,0:0:0:0:
256,128,15849,1,0,0:0:0:0:
256,128,15961,1,0,0:0:0:0:
256,128,16185,1,0,0:0:0:0:
256,128,16297,1,0,0:0:0:0:
256,128,16521,1,8,0:0:0:0:
256,128,16970,1,0,0:0:0:0:
256,128,17194,1,0,0:0:0:0:
256,128,17418,1,8,0:0:0:0:
256,128,17641,1,0,0:0:0:0:
256,128,17753,1,0,0:0:0:0:
256,128,17977,1,0,0:0:0:0:
256,128,18089,1,0,0:0:0:0:
256,128,18313,1,8,0:0:0:0:
256,128,18760,1,0,0:0:0:0:
256,128,18984,1,0,0:0:0:0:
256,128,19207,1,8,0:0:0:0:
256,128,19431,1,0,0:0:0:0:
256,128,19543,1,0,0:0:0:0:
256,128,19767,1,0,0:0:0:0:
256,128,19879,1,0,0:0:0:0:
256,128,20103,1,8,0:0:0:0:
256,128,20551,1,0,0:0:0:0:
256,128,20775,1,0,0:0:0:0:
256,128,20998,1,8,0:0:0:0:
256,128,21222,1,0,0:0:0:0:
256,128,21447,1,8,0:0:0:0:
256,128,21558,1,8,0:0:0:0:
256,128,21670,1,0,0:0:0:0:
256,128,21894,1,8,0:0:0:0:
256,128,22342,1,8,0:0:0:0:
256,128,22566,1,8,0:0:0:0:
256,128,22790,1,0,0:0:0:0:
256,128,23014,1,0,0:0:0:0:
256,128,23126,1,8,0:0:0:0:
256,128,23350,1,8,0:0:0:0:
256,128,23573,1,8,0:0:0:0:
256,128,23685,1,0,0:0:0:0:
256,128,23909,1,0,0:0:0:0:
256,128,24133,1,0,0:0:0:0:
256,128,24357,1,0,0:0:0:0:
256,128,24581,1,8,0:0:0:0:
256,128,24805,1,8,0:0:0:0:
256,128,24917,1,8,0:0:0:0:
256,128,25141,1,8,0:0:0:0:
256,128,25364,1,8,0:0:0:0:
256,128,25476,1,0,0:0:0:0:
256,128,25700,1,0,0:0:0:0:
256,128,25924,1,8,0:0:0:0:
256,128,26148,1,0,0:0:0:0:
256,128,26372,1,8,0:0:0:0:
256,128,26596,1,0,0:0:0:0:
256,128,26708,1,8,0:0:0:0:
256,128,26932,1,8,0:0:0:0:
256,128,27155,1,0,0:0:0:0:
256,128,27267,1,0,0:0:0:0:
256,128,27491,1,0,0:0:0:0:
224,128,27715,1,8,0:0:0:0:
256,128,27939,1,8,0:0:0:0:
256,128,28163,1,0,0:0:0:0:
256,128,28387,1,0,0:0:0:0:
256,128,28499,1,8,0:0:0:0:
256,128,28723,1,8,0:0:0:0:
256,128,28947,1,0,0:0:0:0:
256,128,29058,1,8,0:0:0:0:
256,128,29170,1,0,0:0:0:0:
256,128,29394,1,0,0:0:0:0:
256,128,29506,1,8,0:0:0:0:
256,128,29730,1,0,0:0:0:0:
256,128,29954,1,8,0:0:0:0:
256,128,30178,1,8,0:0:0:0:
256,128,30290,1,8,0:0:0:0:
256,128,30514,1,8,0:0:0:0:
256,128,30738,1,8,0:0:0:0:
256,128,30850,1,0,0:0:0:0:
256,128,31073,1,0,0:0:0:0:
256,128,31297,1,8,0:0:0:0:
256,128,31521,1,8,0:0:0:0:
256,128,31745,1,0,0:0:0:0:
256,128,31969,1,0,0:0:0:0:
256,128,32081,1,8,0:0:0:0:
256,96,32305,1,0,0:0:0:0:
256,96,32417,1,0,0:0:0:0:
256,96,32529,1,8,0:0:0:0:
256,96,32641,1,0,0:0:0:0:
256,96,32864,1,0,0:0:0:0:
256,96,33088,1,8,0:0:0:0:
256,96,33312,1,0,0:0:0:0:
256,96,33536,1,8,0:0:0:0:
256,96,33760,1,0,0:0:0:0:
256,96,33872,1,8,0:0:0:0:
256,96,34096,1,0,0:0:0:0:
256,96,34320,1,0,0:0:0:0:
256,96,34432,1,8,0:0:0:0:
256,96,34655,1,0,0:0:0:0:
256,96,34879,1,12,0:0:0:0:
256,96,35215,1,12,0:0:0:0:
256,96,35551,1,4,0:0:0:0:
256,96,35775,1,4,0:0:0:0:
256,96,36111,1,0,0:0:0:0:
256,96,36223,1,0,0:0:0:0:
256,96,36335,1,0,0:0:0:0:
256,96,36447,1,0,0:0:0:0:
256,96,36558,1,0,0:0:0:0:
256,96,36670,1,0,0:0:0:0:
256,96,37118,1,8,0:0:0:0:
256,96,37790,1,8,0:0:0:0:
256,96,38014,1,0,0:0:0:0:
256,96,38126,1,8,0:0:0:0:
256,96,38461,1,0,0:0:0:0:
256,96,38909,1,8,0:0:0:0:
256,96,39581,1,8,0:0:0:0:
256,96,39805,1,0,0:0:0:0:
256,96,39917,1,8,0:0:0:0:
256,96,40253,1,0,0:0:0:0:
256,96,40701,1,8,0:0:0:0:
256,96,41373,1,8,0:0:0:0:
256,96,41597,1,0,0:0:0:0:
256,96,41709,1,8,0:0:0:0:
256,96,42044,1,0,0:0:0:0:
256,96,42491,1,8,0:0:0:0:
256,96,42939,1,8,0:0:0:0:
256,96,43163,1,0,0:0:0:0:
256,96,43387,1,8,0:0:0:0:
256,96,43611,1,0,0:0:0:0:
256,96,43835,1,0,0:0:0:0:
256,96,44058,1,0,0:0:0:0:
256,96,44282,1,0,0:0:0:0:
256,96,44394,1,0,0:0:0:0:
256,96,44506,1,8,0:0:0:0:
256,96,44618,1,0,0:0:0:0:
256,96,44730,1,8,0:0:0:0:
256,96,44954,1,8,0:0:0:0:
256,96,45066,1,8,0:0:0:0:
256,96,45290,1,0,0:0:0:0:
256,96,45626,1,0,0:0:0:0:
256,96,45849,1,0,0:0:0:0:
256,96,46073,1,0,0:0:0:0:
256,96,46185,1,0,0:0:0:0:
256,96,46297,1,8,0:0:0:0:
256,96,46409,1,0,0:0:0:0:
256,96,46521,1,8,0:0:0:0:
256,96,46633,1,8,0:0:0:0:
256,96,46745,1,0,0:0:0:0:
256,96,46857,1,0,0:0:0:0:
256,96,46969,1,8,0:0:0:0:
256,96,47081,1,0,0:0:0:0:
256,96,47193,1,0,0:0:0:0:
256,96,47305,1,0,0:0:0:0:
256,96,47417,1,0,0:0:0:0:
256,96,47864,1,4,0:0:0:0:
256,96,48312,1,12,0:0:0:0:
256,96,48760,1,12,0:0:0:0:
256,64,49208,1,0,0:0:0:0:
256,64,49432,1,0,0:0:0:0:
256,64,49655,1,0,0:0:0:0:
256,64,49879,1,0,0:0:0:0:
256,64,50103,1,0,0:0:0:0:
256,64,50215,1,0,0:0:0:0:
256,96,50327,1,8,0:0:0:0:
256,96,50439,1,8,0:0:0:0:
256,64,50551,1,8,0:0:0:0:
256,64,50663,1,8,0:0:0:0:
256,64,50775,1,8,0:0:0:0:
256,64,50887,1,8,0:0:0:0:
256,64,50999,1,0,0:0:0:0:
256,64,51223,1,8,0:0:0:0:
256,64,51335,1,8,0:0:0:0:
256,64,51447,1,0,0:0:0:0:
256,64,51782,1,8,0:0:0:0:
256,64,51894,1,0,0:0:0:0:
256,64,52006,1,0,0:0:0:0:
256,64,52118,1,8,0:0:0:0:
256,64,52230,1,0,0:0:0:0:
256,64,52342,1,0,0:0:0:0:
256,64,52454,1,0,0:0:0:0:
256,64,52566,1,0,0:0:0:0:
256,64,52678,1,8,0:0:0:0:
224,64,52902,1,8,0:0:0:0:
224,64,53126,1,8,0:0:0:0:
224,64,53238,1,0,0:0:0:0:
224,64,53350,1,0,0:0:0:0:
224,64,53461,1,0,0:0:0:0:
256,64,53685,1,0,0:0:0:0:
256,64,53797,1,0,0:0:0:0:
256,64,53909,1,0,0:0:0:0:
256,64,54021,1,8,0:0:0:0:
256,64,54133,1,0,0:0:0:0:
256,64,54245,1,0,0:0:0:0:
256,64,54357,1,8,0:0:0:0:
256,64,54469,1,8,0:0:0:0:
224,64,54581,1,0,0:0:0:0:
224,64,54693,1,8,0:0:0:0:
224,64,54805,1,0,0:0:0:0:
224,64,55029,1,0,0:0:0:0:
224,64,55141,1,8,0:0:0:0:
224,64,55364,1,0,0:0:0:0:
224,64,55588,1,0,0:0:0:0:
224,64,55700,1,0,0:0:0:0:
224,64,55812,1,8,0:0:0:0:
224,64,55924,1,0,0:0:0:0:
224,64,56036,1,0,0:0:0:0:
224,64,56148,1,8,0:0:0:0:
224,64,56260,1,8,0:0:0:0:
224,64,56372,1,0,0:0:0:0:
224,64,56484,1,0,0:0:0:0:
224,64,56596,1,8,0:0:0:0:
224,64,56708,1,0,0:0:0:0:
224,64,56820,1,0,0:0:0:0:
224,64,56932,1,0,0:0:0:0:
224,64,57044,1,8,0:0:0:0:
224,64,57155,1,0,0:0:0:0:
224,64,57267,1,8,0:0:0:0:
224,64,57379,1,0,0:0:0:0:
224,64,57491,1,8,0:0:0:0:
224,64,57603,1,0,0:0:0:0:
224,64,57715,1,0,0:0:0:0:
224,64,57827,1,0,0:0:0:0:
224,64,57939,1,8,0:0:0:0:
224,64,58051,1,0,0:0:0:0:
224,64,58163,1,0,0:0:0:0:
224,96,58275,1,8,0:0:0:0:
224,128,58387,1,0,0:0:0:0:
224,96,58499,1,0,0:0:0:0:
192,96,58611,1,0,0:0:0:0:
224,96,58723,1,0,0:0:0:0:
192,96,58835,1,8,0:0:0:0:
224,96,58947,1,0,0:0:0:0:
224,96,59058,1,8,0:0:0:0:
224,96,59282,1,8,0:0:0:0:
224,96,59394,1,0,0:0:0:0:
224,96,59506,1,0,0:0:0:0:
224,96,59618,1,0,0:0:0:0:
224,96,59730,1,0,0:0:0:0:
224,96,59842,1,8,0:0:0:0:
224,96,60066,1,8,0:0:0:0:
224,96,60178,1,0,0:0:0:0:
224,96,60290,1,8,0:0:0:0:
224,96,60514,1,0,0:0:0:0:
224,96,60626,1,8,0:0:0:0:
224,96,60738,1,0,0:0:0:0:
224,96,60850,1,8,0:0:0:0:
224,96,60961,1,8,0:0:0:0:
224,96,61073,1,0,0:0:0:0:
224,96,61185,1,0,0:0:0:0:
224,96,61297,1,8,0:0:0:0:
224,96,61409,1,8,0:0:0:0:
224,96,61521,1,0,0:0:0:0:
224,96,61633,1,0,0:0:0:0:
224,96,61745,1,0,0:0:0:0:
224,96,61969,1,8,0:0:0:0:
224,96,62193,1,0,0:0:0:0:
224,96,62305,1,8,0:0:0:0:
224,96,62529,1,8,0:0:0:0:
224,96,62641,1,0,0:0:0:0:
224,96,62752,1,8,0:0:0:0:
224,96,62976,1,8,0:0:0:0:
224,96,63088,1,0,0:0:0:0:
224,96,63200,1,8,0:0:0:0:
224,96,63312,1,0,0:0:0:0:
224,96,63424,1,8,0:0:0:0:
224,96,63536,1,0,0:0:0:0:
224,64,63648,1,0,0:0:0:0:
224,64,63760,1,8,0:0:0:0:
224,64,63872,1,8,0:0:0:0:
224,64,63984,1,0,0:0:0:0:
224,96,64096,1,0,0:0:0:0:
224,96,64208,1,8,0:0:0:0:
224,96,64320,1,8,0:0:0:0:
224,96,64432,1,0,0:0:0:0:
224,96,64544,1,0,0:0:0:0:
224,96,64655,1,8,0:0:0:0:
224,96,64767,1,8,0:0:0:0:
224,96,64879,1,8,0:0:0:0:
224,96,64991,1,8,0:0:0:0:
224,96,65103,1,8,0:0:0:0:
224,96,65215,1,8,0:0:0:0:
256,128,65327,1,0,0:0:0:0:
256,128,65551,1,0,0:0:0:0:
256,128,65774,1,8,0:0:0:0:
256,128,65998,1,0,0:0:0:0:
256,128,66110,1,0,0:0:0:0:
256,128,66334,1,0,0:0:0:0:
256,128,66446,1,0,0:0:0:0:
256,128,66670,1,8,0:0:0:0:
256,128,67118,1,0,0:0:0:0:
256,128,67342,1,0,0:0:0:0:
256,128,67565,1,8,0:0:0:0:
256,128,67789,1,0,0:0:0:0:
256,128,67901,1,0,0:0:0:0:
256,128,68125,1,0,0:0:0:0:
256,128,68237,1,0,0:0:0:0:
256,128,68461,1,8,0:0:0:0:
256,128,68909,1,0,0:0:0:0:
256,128,69133,1,0,0:0:0:0:
256,128,69356,1,8,0:0:0:0:
256,128,69580,1,0,0:0:0:0:
256,128,69692,1,0,0:0:0:0:
256,128,69916,1,0,0:0:0:0:
256,128,70028,1,0,0:0:0:0:
256,128,70252,1,8,0:0:0:0:
256,128,70700,1,0,0:0:0:0:
256,128,70924,1,0,0:0:0:0:
256,128,71147,1,8,0:0:0:0:
256,128,71371,1,0,0:0:0:0:
256,128,71595,1,8,0:0:0:0:
256,128,71707,1,8,0:0:0:0:
256,128,71819,1,0,0:0:0:0:
256,128,72043,1,8,0:0:0:0:
256,128,72491,1,0,0:0:0:0:
256,128,72715,1,0,0:0:0:0:
256,128,72938,1,8,0:0:0:0:
256,128,73162,1,0,0:0:0:0:
256,128,73274,1,0,0:0:0:0:
256,128,73498,1,0,0:0:0:0:
256,128,73610,1,0,0:0:0:0:
256,128,73834,1,8,0:0:0:0:
256,128,74283,1,0,0:0:0:0:
256,128,74507,1,0,0:0:0:0:
256,128,74731,1,8,0:0:0:0:
256,128,74954,1,0,0:0:0:0:
256,128,75066,1,0,0:0:0:0:
256,128,75290,1,0,0:0:0:0:
256,128,75402,1,0,0:0:0:0:
256,128,75626,1,8,0:0:0:0:
256,128,76073,1,0,0:0:0:0:
256,128,76297,1,0,0:0:0:0:
256,128,76520,1,8,0:0:0:0:
256,128,76744,1,0,0:0:0:0:
256,128,76856,1,0,0:0:0:0:
256,128,77080,1,0,0:0:0:0:
256,128,77192,1,0,0:0:0:0:
256,128,77416,1,8,0:0:0:0:
256,128,77864,1,0,0:0:0:0:
256,128,78088,1,0,0:0:0:0:
256,128,78311,1,8,0:0:0:0:
256,128,78535,1,0,0:0:0:0:
256,128,78760,1,8,0:0:0:0:
256,128,78871,1,8,0:0:0:0:
256,128,78983,1,0,0:0:0:0:
256,128,79207,1,8,0:0:0:0:
256,128,79319,1,0,0:0:0:0:
256,128,79655,1,8,0:0:0:0:
256,128,79879,1,8,0:0:0:0:
256,128,80103,1,0,0:0:0:0:
256,128,80327,1,0,0:0:0:0:
256,128,80439,1,8,0:0:0:0:
256,128,80663,1,8,0:0:0:0:
256,128,80886,1,8,0:0:0:0:
256,128,80998,1,0,0:0:0:0:
256,128,81222,1,0,0:0:0:0:
256,128,81446,1,0,0:0:0:0:
256,128,81670,1,0,0:0:0:0:
256,128,81894,1,8,0:0:0:0:
256,128,82118,1,8,0:0:0:0:
256,128,82230,1,8,0:0:0:0:
256,128,82454,1,8,0:0:0:0:
256,128,82677,1,8,0:0:0:0:
256,128,82789,1,0,0:0:0:0:
256,128,83013,1,0,0:0:0:0:
256,128,83237,1,8,0:0:0:0:
256,128,83461,1,0,0:0:0:0:
256,128,83685,1,8,0:0:0:0:
256,128,83909,1,0,0:0:0:0:
256,128,84021,1,8,0:0:0:0:
256,128,84245,1,8,0:0:0:0:
256,128,84468,1,0,0:0:0:0:
256,128,84580,1,0,0:0:0:0:
256,128,84804,1,0,0:0:0:0:
224,128,85028,1,8,0:0:0:0:
256,128,85252,1,8,0:0:0:0:
256,128,85476,1,0,0:0:0:0:
256,128,85700,1,0,0:0:0:0:
256,128,85812,1,8,0:0:0:0:
256,128,86036,1,8,0:0:0:0:
256,128,86260,1,0,0:0:0:0:
256,128,86371,1,8,0:0:0:0:
256,128,86483,1,0,0:0:0:0:
256,128,86596,1,0,0:0:0:0:
256,128,86707,1,0,0:0:0:0:
256,128,86819,1,8,0:0:0:0:
256,128,87043,1,0,0:0:0:0:
256,128,87267,1,8,0:0:0:0:
256,128,87491,1,8,0:0:0:0:
256,128,87603,1,8,0:0:0:0:
256,128,87827,1,8,0:0:0:0:
256,128,88051,1,8,0:0:0:0:
256,128,88163,1,0,0:0:0:0:
256,128,88386,1,0,0:0:0:0:
256,128,88610,1,8,0:0:0:0:
256,128,88834,1,8,0:0:0:0:
256,128,89058,1,0,0:0:0:0:
256,128,89282,1,0,0:0:0:0:
256,128,89394,1,8,0:0:0:0:
256,96,89618,1,0,0:0:0:0:
256,96,89730,1,0,0:0:0:0:
256,96,89842,1,8,0:0:0:0:
256,96,89954,1,0,0:0:0:0:
256,96,90177,1,0,0:0:0:0:
256,96,90401,1,8,0:0:0:0:
256,96,90625,1,0,0:0:0:0:
256,96,90849,1,8,0:0:0:0:
256,96,91073,1,0,0:0:0:0:
256,96,91185,1,8,0:0:0:0:
256,96,91409,1,0,0:0:0:0:
256,96,91521,1,8,0:0:0:0:
256,96,91633,1,0,0:0:0:0:
256,96,91745,1,8,0:0:0:0:
256,96,91968,1,0,0:0:0:0:
256,96,92192,1,12,0:0:0:0:
256,96,92528,1,12,0:0:0:0:
256,96,92864,1,4,0:0:0:0:
256,96,93088,1,4,0:0:0:0:
256,96,93424,1,0,0:0:0:0:
256,96,93536,1,0,0:0:0:0:
256,96,93648,1,0,0:0:0:0:
256,96,93760,1,8,0:0:0:0:
256,96,93871,1,8,0:0:0:0:
256,128,93984,1,8,0:0:0:0:
256,128,94208,1,0,0:0:0:0:
256,128,94432,1,8,0:0:0:0:
256,128,94656,1,8,0:0:0:0:
256,128,94768,1,8,0:0:0:0:
256,128,94992,1,8,0:0:0:0:
256,128,95216,1,8,0:0:0:0:
256,128,95328,1,0,0:0:0:0:
256,128,95551,1,0,0:0:0:0:
256,128,95775,1,8,0:0:0:0:
256,128,95999,1,8,0:0:0:0:
256,128,96223,1,0,0:0:0:0:
256,128,96447,1,0,0:0:0:0:
256,128,96559,1,8,0:0:0:0:
256,96,96783,1,0,0:0:0:0:
256,96,96895,1,0,0:0:0:0:
256,96,97007,1,8,0:0:0:0:
256,96,97119,1,0,0:0:0:0:
256,96,97342,1,0,0:0:0:0:
256,96,97566,1,8,0:0:0:0:
256,96,97790,1,0,0:0:0:0:
256,96,98014,1,8,0:0:0:0:
256,96,98238,1,0,0:0:0:0:
256,96,98350,1,8,0:0:0:0:
256,96,98574,1,0,0:0:0:0:
256,96,98685,1,8,0:0:0:0:
256,96,98798,1,0,0:0:0:0:
256,96,98910,1,8,0:0:0:0:
256,96,99133,1,0,0:0:0:0:
256,96,99357,1,12,0:0:0:0:
256,96,99693,1,12,0:0:0:0:
256,96,100029,1,4,0:0:0:0:
256,96,100253,1,4,0:0:0:0:
256,96,100589,1,0,0:0:0:0:
256,96,100701,1,0,0:0:0:0:
256,96,100813,1,0,0:0:0:0:
256,96,100925,1,0,0:0:0:0:
256,96,101036,1,0,0:0:0:0:
256,96,101148,1,0,0:0:0:0:
