osu file format v13

[General]
AudioFilename: blockskb.mp3
AudioLeadIn: 0
PreviewTime: 8014
Countdown: 0
SampleSet: Soft
StackLeniency: 0.7
Mode: 1
LetterboxInBreaks: 0
WidescreenStoryboard: 0

[Editor]
DistanceSpacing: 1
BeatDivisor: 4
GridSize: 32
TimelineZoom: 1

[Metadata]
Title:The Blocks We Loved
TitleUnicode:The Blocks We Loved
Artist:KILLERBLOOD
ArtistUnicode:KILLERBLOOD
Creator:tetsutaro
Version:Muzukashii
Source:Cytus
Tags:Korobeiniki Tetris
BeatmapID:473303
BeatmapSetID:199584

[Difficulty]
HPDrainRate:5
CircleSize:5
OverallDifficulty:6
ApproachRate:5
SliderMultiplier:1.4
SliderTickRate:1

[Events]
//Background and Video events
0,0,"blockskb.PNG",0,0
//Break Periods
//Storyboard Layer 0 (Background)
//Storyboard Layer 1 (Fail)
//Storyboard Layer 2 (Pass)
//Storyboard Layer 3 (Foreground)
//Storyboard Sound Samples

[TimingPoints]
850,447.761194029851,4,2,0,100,1,0
22342,-100,4,2,0,100,0,1
36670,-100,4,2,0,100,0,0
79655,-100,4,2,0,100,0,1
101148,-100,4,2,0,100,0,0

[HitObjects]
256,160,1297,5,8,0:0:0:0:
256,160,2193,1,8,0:0:0:0:
256,160,3088,1,8,0:0:0:0:
256,160,3984,1,8,0:0:0:0:
256,160,4432,1,0,0:0:0:0:
256,160,4879,1,8,0:0:0:0:
256,160,5215,1,0,0:0:0:0:
256,160,5551,1,0,0:0:0:0:
256,160,5775,1,8,0:0:0:0:
256,160,6223,1,0,0:0:0:0:
256,160,6670,1,8,0:0:0:0:
256,160,7118,1,8,0:0:0:0:
256,160,7342,1,0,0:0:0:0:
256,160,7566,1,8,0:0:0:0:
256,160,8014,1,0,0:0:0:0:
256,160,8461,1,0,0:0:0:0:
256,160,8685,1,0,0:0:0:0:
256,160,8909,1,8,0:0:0:0:
256,160,9357,1,8,0:0:0:0:
256,160,9581,1,8,0:0:0:0:
256,160,9805,1,0,0:0:0:0:
256,160,10252,1,0,0:0:0:0:
256,160,10476,1,0,0:0:0:0:
256,160,10700,1,8,0:0:0:0:
256,160,11148,1,8,0:0:0:0:
256,160,11372,1,8,0:0:0:0:
256,160,11596,1,0,0:0:0:0:
256,160,12044,1,0,0:0:0:0:
256,160,12267,1,0,0:0:0:0:
256,160,12491,1,8,0:0:0:0:
256,160,12939,1,8,0:0:0:0:
352,160,13387,1,4,0:0:0:0:
352,160,13835,1,4,0:0:0:0:
352,160,14282,1,4,0:0:0:0:
256,160,14730,1,8,0:0:0:0:
256,160,15402,1,0,0:0:0:0:
256,160,15850,1,0,0:0:0:0:
256,160,16073,1,8,0:0:0:0:
256,160,16521,1,8,0:0:0:0:
256,160,16745,1,8,0:0:0:0:
256,160,16969,1,0,0:0:0:0:
256,160,17641,1,0,0:0:0:0:
256,160,17864,1,8,0:0:0:0:
256,160,18312,1,8,0:0:0:0:
256,160,18536,1,8,0:0:0:0:
256,160,18760,1,0,0:0:0:0:
256,160,19208,1,0,0:0:0:0:
256,160,19432,1,0,0:0:0:0:
256,160,19655,1,8,0:0:0:0:
256,160,20103,1,8,0:0:0:0:
256,160,20551,1,4,0:0:0:0:
256,160,20999,1,4,0:0:0:0:
256,160,21447,1,4,0:0:0:0:
256,160,22342,1,8,0:0:0:0:
256,160,22566,1,8,0:0:0:0:
256,160,22790,1,0,0:0:0:0:
256,160,23014,1,0,0:0:0:0:
256,160,23126,1,0,0:0:0:0:
256,160,23350,1,0,0:0:0:0:
256,160,23573,1,0,0:0:0:0:
256,160,23685,1,0,0:0:0:0:
256,160,24133,1,0,0:0:0:0:
256,160,24357,1,0,0:0:0:0:
256,160,24581,1,8,0:0:0:0:
256,160,24805,1,8,0:0:0:0:
256,160,24917,1,8,0:0:0:0:
256,160,25141,1,8,0:0:0:0:
256,160,25364,1,8,0:0:0:0:
256,160,25476,1,8,0:0:0:0:
256,160,25924,1,0,0:0:0:0:
256,160,26148,1,0,0:0:0:0:
256,160,26372,1,0,0:0:0:0:
256,160,26596,1,8,0:0:0:0:
256,160,26708,1,8,0:0:0:0:
256,160,26932,1,8,0:0:0:0:
256,160,27155,1,0,0:0:0:0:
256,160,27267,1,0,0:0:0:0:
256,160,27715,1,8,0:0:0:0:
256,160,27939,1,8,0:0:0:0:
256,160,28163,1,8,0:0:0:0:
256,160,28387,1,0,0:0:0:0:
256,160,28499,1,0,0:0:0:0:
256,160,28723,1,0,0:0:0:0:
256,160,28946,1,0,0:0:0:0:
256,160,29058,1,0,0:0:0:0:
256,160,29170,1,0,0:0:0:0:
256,160,29506,1,0,0:0:0:0:
256,160,29730,1,0,0:0:0:0:
256,160,29954,1,8,0:0:0:0:
256,160,30178,1,8,0:0:0:0:
256,160,30290,1,8,0:0:0:0:
256,160,30514,1,8,0:0:0:0:
256,160,30737,1,8,0:0:0:0:
256,160,30849,1,8,0:0:0:0:
256,160,31297,1,8,0:0:0:0:
256,160,31521,1,8,0:0:0:0:
256,160,31745,1,0,0:0:0:0:
256,160,31969,1,0,0:0:0:0:
256,160,32081,1,0,0:0:0:0:
256,160,32305,1,0,0:0:0:0:
256,160,32417,1,0,0:0:0:0:
256,160,32529,1,0,0:0:0:0:
256,160,32641,1,0,0:0:0:0:
256,160,33088,1,0,0:0:0:0:
256,160,33312,1,0,0:0:0:0:
256,160,33536,1,0,0:0:0:0:
256,160,33760,1,8,0:0:0:0:
256,160,33872,1,8,0:0:0:0:
256,160,34096,1,0,0:0:0:0:
256,160,34319,1,0,0:0:0:0:
256,160,34431,1,8,0:0:0:0:
256,160,34879,1,12,0:0:0:0:
256,160,35215,1,12,0:0:0:0:
256,160,35551,1,12,0:0:0:0:
256,160,35775,1,4,0:0:0:0:
256,160,36111,1,4,0:0:0:0:
256,160,36447,1,4,0:0:0:0:
256,160,36670,1,8,0:0:0:0:
256,160,37566,1,0,0:0:0:0:
256,160,38461,1,8,0:0:0:0:
256,160,39357,1,0,0:0:0:0:
256,160,40252,1,8,0:0:0:0:
256,160,41148,1,0,0:0:0:0:
256,160,42044,1,0,0:0:0:0:
256,160,42939,1,8,0:0:0:0:
256,160,43387,1,8,0:0:0:0:
256,160,43835,1,0,0:0:0:0:
256,160,44058,1,0,0:0:0:0:
256,160,44282,1,8,0:0:0:0:
256,160,44954,1,0,0:0:0:0:
256,160,45290,1,0,0:0:0:0:
256,160,45626,1,0,0:0:0:0:
256,160,45850,1,0,0:0:0:0:
256,160,46073,1,8,0:0:0:0:
256,160,46745,1,0,0:0:0:0:
256,160,47081,1,0,0:0:0:0:
256,160,47417,1,0,0:0:0:0:
256,160,47864,1,0,0:0:0:0:
256,160,48312,1,8,0:0:0:0:
256,160,48760,1,8,0:0:0:0:
256,160,49208,1,4,0:0:0:0:
256,160,50103,1,4,0:0:0:0:
256,160,50999,1,0,0:0:0:0:
256,160,51223,1,0,0:0:0:0:
256,160,51447,1,8,0:0:0:0:
256,160,51782,1,0,0:0:0:0:
256,160,52118,1,0,0:0:0:0:
256,160,52342,1,8,0:0:0:0:
256,160,52790,1,0,0:0:0:0:
256,160,53014,1,0,0:0:0:0:
256,160,53238,1,8,0:0:0:0:
256,160,53573,1,0,0:0:0:0:
256,160,53797,1,0,0:0:0:0:
256,160,53908,1,0,0:0:0:0:
256,160,54132,1,8,0:0:0:0:
256,160,54581,1,0,0:0:0:0:
256,160,54805,1,0,0:0:0:0:
256,160,55029,1,8,0:0:0:0:
256,160,55364,1,0,0:0:0:0:
256,160,55700,1,0,0:0:0:0:
256,160,55924,1,8,0:0:0:0:
256,160,56372,1,0,0:0:0:0:
256,160,56596,1,0,0:0:0:0:
256,160,56820,1,8,0:0:0:0:
256,160,57267,1,8,0:0:0:0:
256,160,57491,1,0,0:0:0:0:
256,160,57715,1,8,0:0:0:0:
256,160,57939,1,0,0:0:0:0:
256,160,58163,1,0,0:0:0:0:
256,160,58387,1,0,0:0:0:0:
256,160,58611,1,8,0:0:0:0:
256,160,58947,1,0,0:0:0:0:
256,160,59282,1,0,0:0:0:0:
256,160,59506,1,8,0:0:0:0:
256,160,59954,1,0,0:0:0:0:
256,160,60178,1,0,0:0:0:0:
256,160,60402,1,8,0:0:0:0:
256,160,60738,1,0,0:0:0:0:
256,160,60961,1,0,0:0:0:0:
256,160,61073,1,0,0:0:0:0:
256,160,61297,1,8,0:0:0:0:
256,160,61745,1,4,0:0:0:0:
256,160,62193,1,4,0:0:0:0:
256,160,62641,1,12,0:0:0:0:
256,160,63088,1,12,0:0:0:0:
256,160,63536,1,8,0:0:0:0:
256,160,63760,1,8,0:0:0:0:
256,160,63984,1,8,0:0:0:0:
256,160,64208,1,8,0:0:0:0:
256,160,64431,1,8,0:0:0:0:
256,160,64544,1,8,0:0:0:0:
256,160,64655,1,8,0:0:0:0:
256,160,64767,1,8,0:0:0:0:
256,160,64879,1,8,0:0:0:0:
256,160,65327,1,0,0:0:0:0:
256,160,65774,1,0,0:0:0:0:
256,160,65998,1,0,0:0:0:0:
256,160,66222,1,8,0:0:0:0:
256,160,66670,1,8,0:0:0:0:
256,160,66894,1,8,0:0:0:0:
256,160,67118,1,0,0:0:0:0:
256,160,67565,1,0,0:0:0:0:
256,160,67789,1,0,0:0:0:0:
256,160,68012,1,8,0:0:0:0:
256,160,68461,1,8,0:0:0:0:
256,160,68685,1,8,0:0:0:0:
256,160,68909,1,0,0:0:0:0:
256,160,69357,1,0,0:0:0:0:
256,160,69580,1,0,0:0:0:0:
256,160,69804,1,8,0:0:0:0:
256,160,70252,1,8,0:0:0:0:
256,160,70700,1,4,0:0:0:0:
256,160,71148,1,4,0:0:0:0:
256,160,71595,1,4,0:0:0:0:
256,160,72043,1,8,0:0:0:0:
256,160,72715,1,0,0:0:0:0:
256,160,73163,1,0,0:0:0:0:
256,160,73386,1,8,0:0:0:0:
256,160,73834,1,8,0:0:0:0:
256,160,74058,1,8,0:0:0:0:
256,160,74282,1,0,0:0:0:0:
256,160,74954,1,0,0:0:0:0:
256,160,75177,1,8,0:0:0:0:
256,160,75625,1,8,0:0:0:0:
256,160,75849,1,8,0:0:0:0:
256,160,76073,1,0,0:0:0:0:
256,160,76521,1,0,0:0:0:0:
256,160,76745,1,0,0:0:0:0:
256,160,76968,1,8,0:0:0:0:
256,160,77416,1,8,0:0:0:0:
256,160,77864,1,4,0:0:0:0:
256,160,78312,1,4,0:0:0:0:
256,160,78760,1,0,0:0:0:0:
256,160,78983,1,0,0:0:0:0:
256,160,79207,1,0,0:0:0:0:
256,160,79320,1,0,0:0:0:0:
256,160,79655,1,8,0:0:0:0:
256,160,79879,1,8,0:0:0:0:
256,160,80103,1,0,0:0:0:0:
256,160,80327,1,0,0:0:0:0:
256,160,80439,1,0,0:0:0:0:
256,160,80663,1,0,0:0:0:0:
256,160,80886,1,0,0:0:0:0:
256,160,80998,1,0,0:0:0:0:
256,160,81446,1,0,0:0:0:0:
256,160,81670,1,0,0:0:0:0:
256,160,81894,1,8,0:0:0:0:
256,160,82118,1,8,0:0:0:0:
256,160,82230,1,8,0:0:0:0:
256,160,82454,1,8,0:0:0:0:
256,160,82677,1,8,0:0:0:0:
256,160,82789,1,8,0:0:0:0:
256,160,83237,1,0,0:0:0:0:
256,160,83461,1,0,0:0:0:0:
256,160,83685,1,0,0:0:0:0:
256,160,83909,1,8,0:0:0:0:
256,160,84021,1,8,0:0:0:0:
256,160,84245,1,8,0:0:0:0:
256,160,84468,1,0,0:0:0:0:
256,160,84580,1,0,0:0:0:0:
256,160,85028,1,8,0:0:0:0:
256,160,85252,1,8,0:0:0:0:
256,160,85476,1,8,0:0:0:0:
256,160,85700,1,0,0:0:0:0:
256,160,85812,1,0,0:0:0:0:
256,160,86036,1,0,0:0:0:0:
256,160,86259,1,0,0:0:0:0:
256,160,86371,1,0,0:0:0:0:
256,160,86483,1,0,0:0:0:0:
256,160,86819,1,0,0:0:0:0:
256,160,87043,1,0,0:0:0:0:
256,160,87267,1,8,0:0:0:0:
256,160,87491,1,8,0:0:0:0:
256,160,87603,1,8,0:0:0:0:
256,160,87827,1,8,0:0:0:0:
256,160,88050,1,8,0:0:0:0:
256,160,88162,1,8,0:0:0:0:
256,160,88610,1,8,0:0:0:0:
256,160,88834,1,8,0:0:0:0:
256,160,89058,1,0,0:0:0:0:
256,160,89282,1,0,0:0:0:0:
256,160,89394,1,0,0:0:0:0:
256,160,89618,1,0,0:0:0:0:
256,160,89730,1,0,0:0:0:0:
256,160,89842,1,0,0:0:0:0:
256,160,89954,1,0,0:0:0:0:
256,160,90401,1,0,0:0:0:0:
256,160,90625,1,0,0:0:0:0:
256,160,90849,1,0,0:0:0:0:
256,160,91073,1,8,0:0:0:0:
256,160,91185,1,8,0:0:0:0:
256,160,91409,1,0,0:0:0:0:
256,160,91632,1,0,0:0:0:0:
256,160,91744,1,8,0:0:0:0:
256,160,91969,1,0,0:0:0:0:
256,160,92192,1,12,0:0:0:0:
256,160,92528,1,12,0:0:0:0:
256,160,92864,1,12,0:0:0:0:
256,160,93088,1,4,0:0:0:0:
256,160,93424,1,4,0:0:0:0:
256,160,93760,1,4,0:0:0:0:
256,160,93983,1,0,0:0:0:0:
256,160,94208,1,0,0:0:0:0:
256,160,94432,1,8,0:0:0:0:
256,160,94656,1,8,0:0:0:0:
256,160,94768,1,8,0:0:0:0:
256,160,94992,1,8,0:0:0:0:
256,160,95215,1,8,0:0:0:0:
256,160,95327,1,8,0:0:0:0:
256,160,95551,1,8,0:0:0:0:
256,160,95775,1,8,0:0:0:0:
256,160,95999,1,8,0:0:0:0:
256,160,96223,1,0,0:0:0:0:
256,160,96447,1,0,0:0:0:0:
256,160,96559,1,0,0:0:0:0:
256,160,96783,1,0,0:0:0:0:
256,160,96895,1,0,0:0:0:0:
256,160,97007,1,0,0:0:0:0:
256,160,97119,1,0,0:0:0:0:
256,160,97342,1,0,0:0:0:0:
256,160,97566,1,0,0:0:0:0:
256,160,97790,1,0,0:0:0:0:
256,160,98014,1,0,0:0:0:0:
256,160,98238,1,8,0:0:0:0:
256,160,98350,1,8,0:0:0:0:
256,160,98574,1,0,0:0:0:0:
256,160,98797,1,0,0:0:0:0:
256,160,98909,1,8,0:0:0:0:
256,160,99134,1,0,0:0:0:0:
256,160,99357,1,12,0:0:0:0:
256,160,99693,1,12,0:0:0:0:
256,160,100029,1,12,0:0:0:0:
256,160,100253,1,4,0:0:0:0:
256,160,100588,1,4,0:0:0:0:
256,160,100924,1,4,0:0:0:0:
256,160,101148,1,4,0:0:0:0:
