osu file format v13

[General]
AudioFilename: blockskb.mp3
AudioLeadIn: 0
PreviewTime: 8014
Countdown: 0
SampleSet: Soft
StackLeniency: 0.7
Mode: 1
LetterboxInBreaks: 0
WidescreenStoryboard: 1

[Editor]
DistanceSpacing: 1
BeatDivisor: 4
GridSize: 32
TimelineZoom: 1

[Metadata]
Title:The Blocks We Loved
TitleUnicode:The Blocks We Loved
Artist:KILLERBLOOD
ArtistUnicode:KILLERBLOOD
Creator:tetsutaro
Version:Futsuu
Source:Cytus
Tags:Korobeiniki Tetris
BeatmapID:473302
BeatmapSetID:199584

[Difficulty]
HPDrainRate:5
CircleSize:5
OverallDifficulty:5
ApproachRate:5
SliderMultiplier:1.4
SliderTickRate:1

[Events]
//Background and Video events
0,0,"blockskb.PNG",0,0
//Break Periods
//Storyboard Layer 0 (Background)
//Storyboard Layer 1 (Fail)
//Storyboard Layer 2 (Pass)
//Storyboard Layer 3 (Foreground)
//Storyboard Sound Samples

[TimingPoints]
850,447.761194029851,4,2,0,100,1,0
22342,-100,4,2,0,100,0,1
36670,-100,4,2,0,100,0,0
79655,-100,4,2,0,100,0,1
101148,-100,4,2,0,100,0,0

[HitObjects]
256,160,1297,5,8,0:0:0:0:
256,160,2193,1,8,0:0:0:0:
256,160,3088,1,8,0:0:0:0:
256,160,3984,1,8,0:0:0:0:
256,160,4879,1,8,0:0:0:0:
256,160,5775,1,8,0:0:0:0:
256,160,6670,1,8,0:0:0:0:
256,160,7118,1,8,0:0:0:0:
256,160,7566,1,8,0:0:0:0:
256,160,8014,1,0,0:0:0:0:
256,160,8461,1,0,0:0:0:0:
256,160,8685,1,0,0:0:0:0:
256,160,8909,1,0,0:0:0:0:
256,160,9357,1,8,0:0:0:0:
256,160,9805,1,0,0:0:0:0:
256,160,10252,1,0,0:0:0:0:
256,160,10476,1,0,0:0:0:0:
256,160,10700,1,0,0:0:0:0:
256,160,11596,1,0,0:0:0:0:
256,160,12044,1,0,0:0:0:0:
256,160,12267,1,0,0:0:0:0:
256,160,12491,1,0,0:0:0:0:
256,128,12939,1,8,0:0:0:0:
256,160,13387,1,0,0:0:0:0:
256,160,13835,1,0,0:0:0:0:
256,160,14282,1,0,0:0:0:0:
256,160,15402,1,0,0:0:0:0:
256,160,15850,1,0,0:0:0:0:
256,160,16073,1,0,0:0:0:0:
256,160,16521,1,8,0:0:0:0:
256,160,16969,1,0,0:0:0:0:
256,160,17641,1,0,0:0:0:0:
256,160,17864,1,0,0:0:0:0:
256,160,18312,1,8,0:0:0:0:
256,160,18760,1,0,0:0:0:0:
256,160,19208,1,0,0:0:0:0:
256,160,19432,1,0,0:0:0:0:
256,160,19655,1,0,0:0:0:0:
256,160,20103,1,8,0:0:0:0:
256,160,20551,1,0,0:0:0:0:
256,160,20999,1,0,0:0:0:0:
256,160,21447,1,0,0:0:0:0:
256,160,22342,1,0,0:0:0:0:
256,160,22790,1,0,0:0:0:0:
256,160,23461,1,0,0:0:0:0:
256,160,23685,1,0,0:0:0:0:
256,160,24133,1,8,0:0:0:0:
256,160,24581,1,8,0:0:0:0:
256,160,25252,1,8,0:0:0:0:
256,160,25476,1,8,0:0:0:0:
256,160,25924,1,0,0:0:0:0:
256,160,26372,1,0,0:0:0:0:
256,160,27044,1,0,0:0:0:0:
256,160,27267,1,0,0:0:0:0:
256,160,27715,1,8,0:0:0:0:
256,160,28163,1,8,0:0:0:0:
256,160,28611,1,12,0:0:0:0:
256,160,29058,1,12,0:0:0:0:
256,128,29506,1,0,0:0:0:0:
256,128,29954,1,0,0:0:0:0:
256,128,30626,1,0,0:0:0:0:
256,128,30850,1,0,0:0:0:0:
256,128,31297,1,8,0:0:0:0:
256,128,31745,1,8,0:0:0:0:
256,128,32417,1,8,0:0:0:0:
256,128,32641,1,8,0:0:0:0:
256,128,33088,1,0,0:0:0:0:
256,128,33536,1,0,0:0:0:0:
256,128,34208,1,0,0:0:0:0:
256,128,34432,1,0,0:0:0:0:
0,224,34879,2,0,L|448:224,1,420
256,128,36670,1,0,0:0:0:0:
256,128,37566,1,0,0:0:0:0:
256,128,38461,1,0,0:0:0:0:
256,128,39357,1,0,0:0:0:0:
256,128,40252,1,0,0:0:0:0:
256,128,41148,1,0,0:0:0:0:
256,128,42044,1,0,0:0:0:0:
256,128,42939,1,0,0:0:0:0:
256,128,43835,1,0,0:0:0:0:
256,128,44282,1,8,0:0:0:0:
256,128,44730,1,0,0:0:0:0:
256,128,45626,1,0,0:0:0:0:
256,128,46073,1,8,0:0:0:0:
256,128,46521,1,0,0:0:0:0:
256,128,47417,1,0,0:0:0:0:
256,128,47864,1,0,0:0:0:0:
256,128,48312,1,8,0:0:0:0:
256,128,48760,1,8,0:0:0:0:
256,128,49208,1,4,0:0:0:0:
256,128,50103,1,4,0:0:0:0:
256,128,50999,1,0,0:0:0:0:
256,128,51447,1,8,0:0:0:0:
256,128,52118,1,0,0:0:0:0:
256,128,52342,1,8,0:0:0:0:
256,128,52790,1,0,0:0:0:0:
256,128,53238,1,8,0:0:0:0:
256,128,53685,1,0,0:0:0:0:
256,128,53909,1,0,0:0:0:0:
256,128,54133,1,8,0:0:0:0:
256,128,54581,1,0,0:0:0:0:
256,128,55029,1,8,0:0:0:0:
256,128,55700,1,0,0:0:0:0:
256,128,55924,1,8,0:0:0:0:
256,128,56372,1,0,0:0:0:0:
256,128,56820,1,8,0:0:0:0:
256,128,57267,1,12,0:0:0:0:
256,128,57715,1,12,0:0:0:0:
256,128,58163,1,0,0:0:0:0:
256,128,58611,1,8,0:0:0:0:
256,128,59282,1,0,0:0:0:0:
256,128,59506,1,8,0:0:0:0:
256,128,59954,1,0,0:0:0:0:
256,128,60402,1,8,0:0:0:0:
256,128,60850,1,0,0:0:0:0:
256,128,61073,1,0,0:0:0:0:
256,128,61297,1,8,0:0:0:0:
256,128,61745,1,0,0:0:0:0:
256,128,62193,1,0,0:0:0:0:
256,128,62641,1,8,0:0:0:0:
256,128,63088,1,8,0:0:0:0:
256,128,63536,1,4,0:0:0:0:
256,128,64432,1,4,0:0:0:0:
256,128,65327,1,0,0:0:0:0:
256,128,65775,1,0,0:0:0:0:
256,128,65999,1,0,0:0:0:0:
256,128,66223,1,0,0:0:0:0:
256,128,66670,1,8,0:0:0:0:
256,128,67118,1,0,0:0:0:0:
256,128,67566,1,0,0:0:0:0:
256,128,67790,1,0,0:0:0:0:
256,128,68014,1,0,0:0:0:0:
256,128,68461,1,8,0:0:0:0:
256,128,68909,1,0,0:0:0:0:
256,128,69357,1,0,0:0:0:0:
256,128,69581,1,0,0:0:0:0:
256,128,69805,1,0,0:0:0:0:
256,128,70252,1,8,0:0:0:0:
256,128,70700,1,0,0:0:0:0:
256,128,71148,1,0,0:0:0:0:
256,128,71596,1,0,0:0:0:0:
256,128,72715,1,0,0:0:0:0:
256,128,73163,1,0,0:0:0:0:
256,128,73387,1,8,0:0:0:0:
256,128,73835,1,8,0:0:0:0:
256,128,74282,1,0,0:0:0:0:
256,128,74954,1,0,0:0:0:0:
256,128,75178,1,8,0:0:0:0:
256,128,75626,1,8,0:0:0:0:
256,128,76073,1,0,0:0:0:0:
256,128,76521,1,0,0:0:0:0:
256,128,76745,1,0,0:0:0:0:
256,128,76969,1,0,0:0:0:0:
256,128,77417,1,8,0:0:0:0:
256,128,77864,1,0,0:0:0:0:
256,128,78312,1,0,0:0:0:0:
256,128,78760,1,0,0:0:0:0:
256,128,79655,1,0,0:0:0:0:
256,128,80103,1,8,0:0:0:0:
256,128,80775,1,0,0:0:0:0:
256,128,80999,1,0,0:0:0:0:
256,128,81447,1,0,0:0:0:0:
256,128,81894,1,8,0:0:0:0:
256,128,82566,1,8,0:0:0:0:
256,128,82790,1,8,0:0:0:0:
256,128,83238,1,0,0:0:0:0:
256,128,83685,1,8,0:0:0:0:
256,128,84357,1,0,0:0:0:0:
256,128,84581,1,0,0:0:0:0:
256,128,85029,1,0,0:0:0:0:
256,128,85476,1,8,0:0:0:0:
256,128,85924,1,8,0:0:0:0:
256,128,86148,1,8,0:0:0:0:
256,128,86372,1,8,0:0:0:0:
256,128,86820,1,0,0:0:0:0:
256,128,87267,1,8,0:0:0:0:
256,128,87939,1,0,0:0:0:0:
256,128,88163,1,0,0:0:0:0:
256,128,88611,1,0,0:0:0:0:
256,128,89058,1,8,0:0:0:0:
256,128,89730,1,8,0:0:0:0:
256,128,89954,1,8,0:0:0:0:
256,128,90402,1,0,0:0:0:0:
256,128,90850,1,8,0:0:0:0:
256,128,91521,1,0,0:0:0:0:
256,128,91745,1,0,0:0:0:0:
0,224,92193,2,0,L|448:224,1,420
256,128,93984,1,0,0:0:0:0:
256,128,94432,1,0,0:0:0:0:
256,128,94879,1,0,0:0:0:0:
256,128,95103,1,0,0:0:0:0:
256,128,95327,1,0,0:0:0:0:
256,96,95775,1,8,0:0:0:0:
256,128,96223,1,8,0:0:0:0:
256,128,96670,1,8,0:0:0:0:
256,128,96894,1,8,0:0:0:0:
256,128,97118,1,8,0:0:0:0:
256,128,97566,1,0,0:0:0:0:
256,128,98014,1,0,0:0:0:0:
256,128,98461,1,0,0:0:0:0:
256,128,98685,1,0,0:0:0:0:
256,128,98909,1,0,0:0:0:0:
256,128,99357,1,12,0:0:0:0:
256,128,99693,1,12,0:0:0:0:
256,128,100028,1,12,0:0:0:0:
256,128,100252,1,4,0:0:0:0:
256,128,100588,1,4,0:0:0:0:
256,128,100924,1,4,0:0:0:0:
256,128,101148,1,4,0:0:0:0:
