osu file format v12

[General]
AudioFilename: The Black Case.mp3
AudioLeadIn: 1000
PreviewTime: 53419
Countdown: 0
SampleSet: Normal
StackLeniency: 0.7
Mode: 1
LetterboxInBreaks: 0
WidescreenStoryboard: 0

[Editor]
DistanceSpacing: 0.8
BeatDivisor: 4
GridSize: 32
TimelineZoom: 1

[Metadata]
Title:The Black Case
TitleUnicode:The Black Case
Artist:KILLERBLOOD
ArtistUnicode:KILLERBLOOD
Creator:tetsutaro
Version:Oni
Source:Cytus
Tags:ans ao no senritsu taiko rayark
BeatmapID:254187
BeatmapSetID:94437

[Difficulty]
HPDrainRate:6
CircleSize:5
OverallDifficulty:6
ApproachRate:5
SliderMultiplier:1.4
SliderTickRate:1

[Events]
//Background and Video events
0,0,"TheBlackCase.jpg",0,0
//Break Periods
//Storyboard Layer 0 (Background)
//Storyboard Layer 1 (Fail)
//Storyboard Layer 2 (Pass)
//Storyboard Layer 3 (Foreground)
//Storyboard Sound Samples
//Background Colour Transformations
3,100,163,162,255

[TimingPoints]
150,384.615384615385,4,1,0,100,1,0
1688,-100,4,1,0,100,0,1
17073,-100,4,1,0,100,0,0
53996,-100,4,1,0,100,0,1
69380,-100,4,1,0,100,0,0

[HitObjects]
160,96,1111,5,8,0:0:0:0:
96,96,1303,1,0,0:0:0:0:
32,96,1496,1,0,0:0:0:0:
32,32,1688,1,12,0:0:0:0:
160,32,2072,1,8,0:0:0:0:
224,32,2265,1,4,0:0:0:0:
288,32,2457,1,12,0:0:0:0:
416,32,2842,1,8,0:0:0:0:
480,32,3034,1,4,0:0:0:0:
416,96,3419,1,0,0:0:0:0:
384,96,3515,1,0,0:0:0:0:
352,96,3611,1,0,0:0:0:0:
288,96,3803,1,8,0:0:0:0:
224,96,3996,1,0,0:0:0:0:
96,96,4380,1,0,0:0:0:0:
32,96,4572,1,0,0:0:0:0:
32,160,4765,1,8,0:0:0:0:
64,160,4861,1,8,0:0:0:0:
96,160,4957,1,8,0:0:0:0:
160,160,5149,1,0,0:0:0:0:
224,160,5342,1,8,0:0:0:0:
352,160,5726,1,0,0:0:0:0:
384,160,5822,1,0,0:0:0:0:
416,160,5919,1,0,0:0:0:0:
480,160,6111,1,8,0:0:0:0:
416,224,6496,1,0,0:0:0:0:
384,224,6592,1,0,0:0:0:0:
352,224,6688,1,8,0:0:0:0:
288,224,6880,1,0,0:0:0:0:
160,224,7265,1,8,0:0:0:0:
96,224,7457,1,0,0:0:0:0:
32,224,7649,1,0,0:0:0:0:
32,288,7842,1,12,0:0:0:0:
160,288,8226,1,8,0:0:0:0:
224,288,8419,1,12,0:0:0:0:
288,288,8611,1,4,0:0:0:0:
416,288,8996,1,8,0:0:0:0:
480,288,9188,1,4,0:0:0:0:
416,224,9572,1,0,0:0:0:0:
384,224,9669,1,0,0:0:0:0:
352,224,9765,1,0,0:0:0:0:
288,224,9957,1,8,0:0:0:0:
224,224,10149,1,0,0:0:0:0:
96,224,10534,1,0,0:0:0:0:
32,224,10726,1,0,0:0:0:0:
32,160,10919,1,8,0:0:0:0:
64,160,11015,1,8,0:0:0:0:
96,160,11111,1,8,0:0:0:0:
160,160,11303,1,0,0:0:0:0:
224,160,11496,1,8,0:0:0:0:
352,160,11880,1,0,0:0:0:0:
384,160,11976,1,0,0:0:0:0:
416,160,12072,1,0,0:0:0:0:
480,160,12265,1,8,0:0:0:0:
416,96,12649,1,0,0:0:0:0:
384,96,12746,1,0,0:0:0:0:
352,96,12842,1,8,0:0:0:0:
288,96,13034,1,0,0:0:0:0:
160,96,13419,1,0,0:0:0:0:
96,96,13611,1,8,0:0:0:0:
64,96,13707,1,8,0:0:0:0:
32,96,13803,1,8,0:0:0:0:
32,32,13996,1,12,0:0:0:0:
160,32,14380,1,4,0:0:0:0:
224,32,14572,1,12,0:0:0:0:
352,32,14957,1,4,0:0:0:0:
480,32,15342,1,12,0:0:0:0:
416,96,15726,1,12,0:0:0:0:
224,96,16303,1,8,0:0:0:0:
192,96,16399,1,8,0:0:0:0:
160,96,16496,1,0,0:0:0:0:
96,96,16688,1,8,0:0:0:0:
32,96,16880,1,0,0:0:0:0:
32,160,17072,1,0,0:0:0:0:
64,160,17169,1,0,0:0:0:0:
96,160,17265,1,0,0:0:0:0:
160,160,17457,1,8,0:0:0:0:
224,160,17649,1,0,0:0:0:0:
288,160,17842,1,0,0:0:0:0:
320,160,17938,1,0,0:0:0:0:
352,160,18034,1,0,0:0:0:0:
416,160,18226,1,8,0:0:0:0:
480,160,18419,1,0,0:0:0:0:
416,224,18803,1,0,0:0:0:0:
352,224,18996,1,8,0:0:0:0:
288,224,19188,1,0,0:0:0:0:
224,224,19380,1,0,0:0:0:0:
192,224,19476,1,0,0:0:0:0:
160,224,19572,1,0,0:0:0:0:
96,224,19765,1,8,0:0:0:0:
32,288,20149,1,0,0:0:0:0:
64,288,20246,1,0,0:0:0:0:
96,288,20342,1,0,0:0:0:0:
160,288,20534,1,8,0:0:0:0:
224,288,20726,1,0,0:0:0:0:
288,288,20919,1,0,0:0:0:0:
320,288,21015,1,0,0:0:0:0:
352,288,21111,1,0,0:0:0:0:
416,288,21303,1,8,0:0:0:0:
480,288,21496,1,0,0:0:0:0:
416,352,21880,1,0,0:0:0:0:
352,352,22072,1,8,0:0:0:0:
288,352,22265,1,0,0:0:0:0:
256,352,22361,1,0,0:0:0:0:
224,352,22457,1,8,0:0:0:0:
160,352,22649,1,8,0:0:0:0:
96,352,22842,1,8,0:0:0:0:
64,352,22938,1,8,0:0:0:0:
32,352,23034,1,0,0:0:0:0:
32,288,23226,1,0,0:0:0:0:
96,288,23419,1,8,0:0:0:0:
128,288,23515,1,8,0:0:0:0:
160,288,23611,1,8,0:0:0:0:
224,288,23803,1,8,0:0:0:0:
288,288,23996,1,0,0:0:0:0:
352,288,24188,1,8,0:0:0:0:
384,288,24284,1,8,0:0:0:0:
416,288,24380,1,8,0:0:0:0:
480,288,24572,1,0,0:0:0:0:
416,224,24957,1,0,0:0:0:0:
352,224,25150,1,0,0:0:0:0:
288,224,25342,1,8,0:0:0:0:
224,224,25534,1,8,0:0:0:0:
192,224,25630,1,8,0:0:0:0:
160,224,25726,1,8,0:0:0:0:
96,224,25919,1,0,0:0:0:0:
32,160,26303,1,0,0:0:0:0:
96,160,26496,1,8,0:0:0:0:
128,160,26592,1,8,0:0:0:0:
160,160,26688,1,8,0:0:0:0:
224,160,26880,1,8,0:0:0:0:
288,160,27072,1,0,0:0:0:0:
352,160,27265,1,8,0:0:0:0:
384,160,27361,1,8,0:0:0:0:
416,160,27457,1,8,0:0:0:0:
480,160,27649,1,0,0:0:0:0:
416,96,28034,1,0,0:0:0:0:
352,96,28226,1,8,0:0:0:0:
288,96,28419,1,0,0:0:0:0:
256,96,28515,1,0,0:0:0:0:
224,96,28611,1,8,0:0:0:0:
160,96,28803,1,8,0:0:0:0:
96,96,28996,1,0,0:0:0:0:
32,96,29188,1,8,0:0:0:0:
32,32,29380,1,4,0:0:0:0:
96,32,29572,1,8,0:0:0:0:
160,32,29765,1,8,0:0:0:0:
224,32,29957,1,0,0:0:0:0:
288,32,30149,1,8,0:0:0:0:
352,32,30342,1,8,0:0:0:0:
416,32,30534,1,0,0:0:0:0:
480,32,30726,1,8,0:0:0:0:
480,96,30919,1,0,0:0:0:0:
416,96,31111,1,0,0:0:0:0:
352,96,31303,1,8,0:0:0:0:
288,96,31496,1,0,0:0:0:0:
224,96,31688,1,0,0:0:0:0:
160,96,31880,1,8,0:0:0:0:
96,96,32072,1,0,0:0:0:0:
32,96,32265,1,8,0:0:0:0:
32,160,32457,1,0,0:0:0:0:
96,160,32649,1,8,0:0:0:0:
160,160,32842,1,8,0:0:0:0:
224,160,33034,1,0,0:0:0:0:
288,160,33226,1,8,0:0:0:0:
352,160,33419,1,8,0:0:0:0:
416,160,33611,1,0,0:0:0:0:
480,160,33803,1,8,0:0:0:0:
480,224,33996,1,0,0:0:0:0:
416,224,34188,1,0,0:0:0:0:
352,224,34380,1,8,0:0:0:0:
288,224,34572,1,0,0:0:0:0:
224,224,34765,1,0,0:0:0:0:
160,224,34957,1,8,0:0:0:0:
96,224,35149,1,0,0:0:0:0:
32,224,35342,1,8,0:0:0:0:
32,288,35534,1,4,0:0:0:0:
224,288,36111,1,0,0:0:0:0:
288,288,36303,1,8,0:0:0:0:
480,288,36880,1,0,0:0:0:0:
480,352,37072,1,0,0:0:0:0:
416,352,37265,1,8,0:0:0:0:
352,352,37457,1,0,0:0:0:0:
288,352,37649,1,0,0:0:0:0:
224,352,37842,1,8,0:0:0:0:
32,288,38611,1,4,0:0:0:0:
224,288,39188,1,0,0:0:0:0:
288,288,39380,1,8,0:0:0:0:
480,288,39957,1,0,0:0:0:0:
480,224,40149,1,0,0:0:0:0:
416,224,40342,1,8,0:0:0:0:
352,224,40534,1,0,0:0:0:0:
288,224,40726,1,0,0:0:0:0:
224,224,40919,1,8,0:0:0:0:
96,224,41303,1,8,0:0:0:0:
64,224,41399,1,8,0:0:0:0:
32,224,41496,1,8,0:0:0:0:
32,160,41688,1,0,0:0:0:0:
96,160,41880,1,0,0:0:0:0:
160,160,42072,1,0,0:0:0:0:
192,160,42169,1,0,0:0:0:0:
224,160,42265,1,0,0:0:0:0:
288,160,42457,1,8,0:0:0:0:
352,160,42649,1,0,0:0:0:0:
416,160,42842,1,0,0:0:0:0:
480,160,43034,1,8,0:0:0:0:
416,96,43419,1,0,0:0:0:0:
352,96,43611,1,0,0:0:0:0:
320,96,43707,1,0,0:0:0:0:
288,96,43803,1,0,0:0:0:0:
224,96,43996,1,8,0:0:0:0:
160,96,44188,1,0,0:0:0:0:
96,96,44380,1,8,0:0:0:0:
32,96,44572,1,0,0:0:0:0:
96,32,44957,1,0,0:0:0:0:
160,32,45149,1,0,0:0:0:0:
192,32,45246,1,0,0:0:0:0:
224,32,45342,1,0,0:0:0:0:
288,32,45534,1,8,0:0:0:0:
352,32,45726,1,0,0:0:0:0:
416,32,45919,1,0,0:0:0:0:
480,32,46111,1,8,0:0:0:0:
416,96,46496,1,0,0:0:0:0:
352,96,46688,1,0,0:0:0:0:
320,96,46784,1,0,0:0:0:0:
288,96,46880,1,0,0:0:0:0:
224,96,47072,1,8,0:0:0:0:
160,96,47265,1,0,0:0:0:0:
96,96,47457,1,0,0:0:0:0:
32,96,47649,1,0,0:0:0:0:
96,160,48034,1,0,0:0:0:0:
160,160,48226,1,0,0:0:0:0:
192,160,48322,1,0,0:0:0:0:
224,160,48419,1,0,0:0:0:0:
288,160,48611,1,8,0:0:0:0:
352,160,48803,1,0,0:0:0:0:
416,160,48996,1,0,0:0:0:0:
480,160,49188,1,8,0:0:0:0:
416,224,49572,1,0,0:0:0:0:
352,224,49765,1,0,0:0:0:0:
320,224,49861,1,0,0:0:0:0:
288,224,49957,1,0,0:0:0:0:
224,224,50149,1,8,0:0:0:0:
160,224,50342,1,0,0:0:0:0:
96,224,50534,1,8,0:0:0:0:
32,224,50726,1,0,0:0:0:0:
96,288,51111,1,0,0:0:0:0:
160,288,51303,1,0,0:0:0:0:
192,288,51400,1,0,0:0:0:0:
224,288,51496,1,0,0:0:0:0:
288,288,51688,1,8,0:0:0:0:
352,288,51880,1,0,0:0:0:0:
416,288,52072,1,0,0:0:0:0:
480,288,52265,1,0,0:0:0:0:
416,352,52649,1,8,0:0:0:0:
352,352,52842,1,8,0:0:0:0:
288,352,53034,1,8,0:0:0:0:
224,352,53226,1,8,0:0:0:0:
192,352,53322,1,8,0:0:0:0:
160,352,53419,1,0,0:0:0:0:
96,352,53611,1,8,0:0:0:0:
64,352,53707,1,8,0:0:0:0:
32,352,53803,1,0,0:0:0:0:
32,320,53899,1,0,0:0:0:0:
32,288,53996,1,8,0:0:0:0:
160,288,54380,1,8,0:0:0:0:
224,288,54572,1,4,0:0:0:0:
288,288,54765,1,12,0:0:0:0:
416,288,55149,1,8,0:0:0:0:
480,288,55342,1,4,0:0:0:0:
416,224,55726,1,0,0:0:0:0:
384,224,55822,1,0,0:0:0:0:
352,224,55919,1,0,0:0:0:0:
288,224,56111,1,8,0:0:0:0:
224,224,56303,1,0,0:0:0:0:
96,224,56688,1,0,0:0:0:0:
32,224,56880,1,0,0:0:0:0:
32,160,57072,1,8,0:0:0:0:
64,160,57169,1,8,0:0:0:0:
96,160,57265,1,8,0:0:0:0:
160,160,57457,1,0,0:0:0:0:
224,160,57649,1,8,0:0:0:0:
352,160,58034,1,0,0:0:0:0:
384,160,58130,1,0,0:0:0:0:
416,160,58226,1,0,0:0:0:0:
480,160,58419,1,8,0:0:0:0:
416,96,58803,1,0,0:0:0:0:
384,96,58899,1,0,0:0:0:0:
352,96,58996,1,8,0:0:0:0:
288,96,59188,1,0,0:0:0:0:
160,96,59572,1,8,0:0:0:0:
96,96,59765,1,0,0:0:0:0:
32,96,59957,1,0,0:0:0:0:
32,32,60149,1,12,0:0:0:0:
160,32,60534,1,8,0:0:0:0:
224,32,60726,1,12,0:0:0:0:
288,32,60919,1,4,0:0:0:0:
416,32,61303,1,8,0:0:0:0:
480,32,61496,1,4,0:0:0:0:
416,96,61880,1,0,0:0:0:0:
384,96,61976,1,0,0:0:0:0:
352,96,62072,1,0,0:0:0:0:
288,96,62265,1,8,0:0:0:0:
224,96,62457,1,0,0:0:0:0:
96,96,62842,1,0,0:0:0:0:
32,96,63034,1,0,0:0:0:0:
32,160,63226,1,8,0:0:0:0:
64,160,63322,1,8,0:0:0:0:
96,160,63419,1,8,0:0:0:0:
160,160,63611,1,0,0:0:0:0:
224,160,63803,1,8,0:0:0:0:
352,160,64188,1,0,0:0:0:0:
384,160,64284,1,0,0:0:0:0:
416,160,64380,1,0,0:0:0:0:
480,160,64572,1,8,0:0:0:0:
416,224,64957,1,0,0:0:0:0:
384,224,65053,1,0,0:0:0:0:
352,224,65149,1,8,0:0:0:0:
288,224,65342,1,0,0:0:0:0:
160,224,65726,1,0,0:0:0:0:
96,224,65919,1,8,0:0:0:0:
64,224,66015,1,8,0:0:0:0:
32,224,66111,1,8,0:0:0:0:
32,288,66303,1,12,0:0:0:0:
160,288,66688,1,4,0:0:0:0:
224,288,66880,1,12,0:0:0:0:
352,288,67265,1,4,0:0:0:0:
480,288,67649,1,12,0:0:0:0:
416,224,68034,1,12,0:0:0:0:
224,224,68611,1,8,0:0:0:0:
192,224,68707,1,8,0:0:0:0:
160,224,68803,1,0,0:0:0:0:
96,224,68996,1,8,0:0:0:0:
32,224,69188,1,0,0:0:0:0:
32,160,69380,1,8,0:0:0:0:
64,160,69476,1,8,0:0:0:0:
96,160,69572,1,8,0:0:0:0:
160,160,69765,1,0,0:0:0:0:
224,160,69957,1,0,0:0:0:0:
288,160,70149,1,8,0:0:0:0:
320,160,70246,1,8,0:0:0:0:
352,160,70342,1,8,0:0:0:0:
416,160,70534,1,0,0:0:0:0:
480,160,70726,1,0,0:0:0:0:
480,96,70919,1,8,0:0:0:0:
448,96,71015,1,8,0:0:0:0:
416,96,71111,1,8,0:0:0:0:
352,96,71303,1,0,0:0:0:0:
288,96,71496,1,8,0:0:0:0:
160,96,71880,1,0,0:0:0:0:
96,96,72072,1,0,0:0:0:0:
32,32,72457,1,8,0:0:0:0:
64,32,72553,1,8,0:0:0:0:
96,32,72649,1,8,0:0:0:0:
160,32,72842,1,0,0:0:0:0:
224,32,73034,1,0,0:0:0:0:
288,32,73226,1,8,0:0:0:0:
320,32,73322,1,8,0:0:0:0:
352,32,73419,1,8,0:0:0:0:
416,32,73611,1,8,0:0:0:0:
480,32,73803,1,0,0:0:0:0:
416,96,74188,1,8,0:0:0:0:
352,96,74380,1,0,0:0:0:0:
288,96,74572,1,8,0:0:0:0:
224,96,74765,1,0,0:0:0:0:
160,96,74957,1,8,0:0:0:0:
96,96,75149,1,0,0:0:0:0:
64,96,75246,1,0,0:0:0:0:
32,96,75342,1,0,0:0:0:0:
32,160,75534,1,8,0:0:0:0:
64,160,75630,1,8,0:0:0:0:
96,160,75726,1,8,0:0:0:0:
160,160,75919,1,0,0:0:0:0:
224,160,76111,1,0,0:0:0:0:
288,160,76303,1,8,0:0:0:0:
320,160,76399,1,8,0:0:0:0:
352,160,76496,1,8,0:0:0:0:
416,160,76688,1,0,0:0:0:0:
480,160,76880,1,0,0:0:0:0:
480,224,77072,1,8,0:0:0:0:
448,224,77169,1,8,0:0:0:0:
416,224,77265,1,8,0:0:0:0:
352,224,77457,1,0,0:0:0:0:
288,224,77649,1,8,0:0:0:0:
160,224,78034,1,0,0:0:0:0:
96,224,78226,1,0,0:0:0:0:
32,288,78611,1,8,0:0:0:0:
64,288,78707,1,8,0:0:0:0:
96,288,78803,1,8,0:0:0:0:
160,288,78996,1,0,0:0:0:0:
224,288,79188,1,0,0:0:0:0:
288,288,79380,1,0,0:0:0:0:
320,288,79476,1,0,0:0:0:0:
352,288,79572,1,0,0:0:0:0:
416,288,79765,1,8,0:0:0:0:
480,288,79957,1,0,0:0:0:0:
416,224,80342,1,0,0:0:0:0:
352,224,80534,1,8,0:0:0:0:
288,224,80726,1,0,0:0:0:0:
224,224,80919,1,8,0:0:0:0:
160,224,81111,1,0,0:0:0:0:
96,224,81303,1,8,0:0:0:0:
64,224,81399,1,8,0:0:0:0:
32,224,81496,1,0,0:0:0:0:
32,160,81688,1,8,0:0:0:0:
64,160,81784,1,8,0:0:0:0:
96,160,81880,1,8,0:0:0:0:
160,160,82072,1,0,0:0:0:0:
224,160,82265,1,0,0:0:0:0:
288,160,82457,1,8,0:0:0:0:
320,160,82553,1,8,0:0:0:0:
352,160,82649,1,8,0:0:0:0:
416,160,82842,1,0,0:0:0:0:
480,160,83034,1,0,0:0:0:0:
480,96,83226,1,8,0:0:0:0:
448,96,83322,1,8,0:0:0:0:
416,96,83419,1,8,0:0:0:0:
352,96,83611,1,0,0:0:0:0:
288,96,83803,1,8,0:0:0:0:
160,96,84188,1,0,0:0:0:0:
96,96,84380,1,0,0:0:0:0:
32,32,84765,1,8,0:0:0:0:
64,32,84861,1,8,0:0:0:0:
96,32,84957,1,8,0:0:0:0:
160,32,85149,1,0,0:0:0:0:
224,32,85342,1,0,0:0:0:0:
288,32,85534,1,8,0:0:0:0:
320,32,85630,1,8,0:0:0:0:
352,32,85726,1,8,0:0:0:0:
416,32,85919,1,8,0:0:0:0:
480,32,86111,1,0,0:0:0:0:
416,96,86496,1,8,0:0:0:0:
352,96,86688,1,0,0:0:0:0:
288,96,86880,1,8,0:0:0:0:
224,96,87072,1,0,0:0:0:0:
160,96,87265,1,8,0:0:0:0:
96,96,87457,1,0,0:0:0:0:
64,96,87553,1,0,0:0:0:0:
32,96,87649,1,0,0:0:0:0:
32,160,87842,1,8,0:0:0:0:
64,160,87938,1,8,0:0:0:0:
96,160,88034,1,8,0:0:0:0:
160,160,88226,1,0,0:0:0:0:
224,160,88419,1,0,0:0:0:0:
288,160,88611,1,8,0:0:0:0:
320,160,88707,1,8,0:0:0:0:
352,160,88803,1,8,0:0:0:0:
416,160,88996,1,0,0:0:0:0:
480,160,89188,1,0,0:0:0:0:
480,224,89380,1,8,0:0:0:0:
448,224,89476,1,8,0:0:0:0:
416,224,89572,1,8,0:0:0:0:
352,224,89765,1,0,0:0:0:0:
288,224,89957,1,8,0:0:0:0:
160,224,90342,1,0,0:0:0:0:
96,224,90534,1,0,0:0:0:0:
32,288,90919,1,8,0:0:0:0:
64,288,91015,1,8,0:0:0:0:
96,288,91111,1,8,0:0:0:0:
160,288,91303,1,0,0:0:0:0:
224,288,91496,1,0,0:0:0:0:
288,288,91688,1,0,0:0:0:0:
320,288,91784,1,0,0:0:0:0:
352,288,91880,1,0,0:0:0:0:
416,288,92072,1,8,0:0:0:0:
480,288,92265,1,0,0:0:0:0:
416,224,92649,1,0,0:0:0:0:
352,224,92842,1,8,0:0:0:0:
288,224,93034,1,0,0:0:0:0:
224,224,93226,1,0,0:0:0:0:
192,224,93322,1,0,0:0:0:0:
160,224,93419,1,0,0:0:0:0:
96,224,93611,1,8,0:0:0:0:
32,224,93803,1,0,0:0:0:0:
96,160,94188,1,4,0:0:0:0:
