osu file format v12

[General]
AudioFilename: The Black Case.mp3
AudioLeadIn: 1000
PreviewTime: 53419
Countdown: 0
SampleSet: Normal
StackLeniency: 0.7
Mode: 1
LetterboxInBreaks: 0
WidescreenStoryboard: 0

[Editor]
DistanceSpacing: 0.8
BeatDivisor: 4
GridSize: 32
TimelineZoom: 1

[Metadata]
Title:The Black Case
TitleUnicode:The Black Case
Artist:KILLERBLOOD
ArtistUnicode:KILLERBLOOD
Creator:tetsutaro
Version:Muzukashii
Source:Cytus
Tags:ans ao no senritsu taiko rayark
BeatmapID:254186
BeatmapSetID:94437

[Difficulty]
HPDrainRate:5
CircleSize:5
OverallDifficulty:6
ApproachRate:5
SliderMultiplier:1.4
SliderTickRate:1

[Events]
//Background and Video events
0,0,"TheBlackCase.jpg",0,0
//Break Periods
//Storyboard Layer 0 (Background)
//Storyboard Layer 1 (Fail)
//Storyboard Layer 2 (Pass)
//Storyboard Layer 3 (Foreground)
//Storyboard Sound Samples
//Background Colour Transformations
3,100,163,162,255

[TimingPoints]
150,384.615384615385,4,1,0,100,1,0
1688,-100,4,1,0,100,0,1
17073,-100,4,1,0,100,0,0
53996,-100,4,1,0,100,0,1
69380,-100,4,1,0,100,0,0

[HitObjects]
256,160,1688,5,12,0:0:0:0:
256,160,2265,1,4,0:0:0:0:
256,160,2457,1,12,0:0:0:0:
256,160,3034,1,4,0:0:0:0:
256,160,3419,1,4,0:0:0:0:
256,160,3611,1,4,0:0:0:0:
256,160,3803,1,12,0:0:0:0:
256,160,3996,1,4,0:0:0:0:
256,160,4380,1,0,0:0:0:0:
256,160,4572,1,0,0:0:0:0:
256,160,4765,1,8,0:0:0:0:
256,160,5149,1,0,0:0:0:0:
256,160,5342,1,8,0:0:0:0:
256,160,5726,1,0,0:0:0:0:
256,160,6111,1,8,0:0:0:0:
256,160,6496,1,0,0:0:0:0:
256,160,6688,1,8,0:0:0:0:
256,160,6880,1,0,0:0:0:0:
256,160,7265,1,8,0:0:0:0:
256,160,7457,1,0,0:0:0:0:
256,160,7649,1,0,0:0:0:0:
256,160,7842,1,12,0:0:0:0:
256,160,8419,1,12,0:0:0:0:
256,160,8611,1,4,0:0:0:0:
256,160,9188,1,4,0:0:0:0:
256,160,9572,1,4,0:0:0:0:
256,160,9765,1,4,0:0:0:0:
256,160,9957,1,12,0:0:0:0:
256,160,10149,1,4,0:0:0:0:
256,160,10534,1,0,0:0:0:0:
256,160,10726,1,0,0:0:0:0:
256,160,10919,1,8,0:0:0:0:
256,160,11303,1,0,0:0:0:0:
256,160,11496,1,8,0:0:0:0:
256,160,11880,1,0,0:0:0:0:
256,160,12265,1,8,0:0:0:0:
256,160,12649,1,0,0:0:0:0:
256,160,12842,1,8,0:0:0:0:
256,160,13034,1,0,0:0:0:0:
256,160,13419,1,0,0:0:0:0:
256,160,13996,1,12,0:0:0:0:
256,160,14380,1,4,0:0:0:0:
256,160,14572,1,12,0:0:0:0:
256,160,14957,1,4,0:0:0:0:
256,160,15342,1,12,0:0:0:0:
256,192,15726,8,0,16688,0:0:0:0:
256,160,17073,5,0,0:0:0:0:
256,160,17457,5,8,0:0:0:0:
256,160,17842,1,0,0:0:0:0:
256,160,18226,1,8,0:0:0:0:
256,160,18611,1,0,0:0:0:0:
256,160,18996,1,8,0:0:0:0:
256,160,19380,1,0,0:0:0:0:
256,160,19572,1,0,0:0:0:0:
256,160,19765,1,8,0:0:0:0:
256,160,20150,1,0,0:0:0:0:
256,160,20534,1,8,0:0:0:0:
256,160,20919,1,0,0:0:0:0:
256,160,21303,1,8,0:0:0:0:
256,160,21688,1,0,0:0:0:0:
256,160,22072,1,8,0:0:0:0:
256,160,22457,1,8,0:0:0:0:
256,160,22649,1,8,0:0:0:0:
256,160,22842,1,0,0:0:0:0:
256,160,23034,1,0,0:0:0:0:
256,160,23226,1,0,0:0:0:0:
256,160,23419,1,8,0:0:0:0:
256,160,23803,1,8,0:0:0:0:
256,160,24188,1,8,0:0:0:0:
256,160,24572,1,0,0:0:0:0:
256,160,24957,1,0,0:0:0:0:
256,160,25342,1,0,0:0:0:0:
256,160,25534,1,8,0:0:0:0:
256,160,25726,1,8,0:0:0:0:
256,160,25919,1,0,0:0:0:0:
256,160,26303,1,0,0:0:0:0:
256,160,26496,1,8,0:0:0:0:
256,160,26880,1,8,0:0:0:0:
256,160,27265,1,8,0:0:0:0:
256,160,27649,1,0,0:0:0:0:
256,160,28034,1,0,0:0:0:0:
256,160,28419,1,0,0:0:0:0:
256,160,28611,1,8,0:0:0:0:
256,160,28803,1,8,0:0:0:0:
256,160,28996,1,0,0:0:0:0:
256,160,29188,1,8,0:0:0:0:
256,160,29380,1,0,0:0:0:0:
256,160,29765,1,0,0:0:0:0:
256,160,29957,1,0,0:0:0:0:
256,160,30149,1,8,0:0:0:0:
256,160,30342,1,0,0:0:0:0:
256,160,30726,1,8,0:0:0:0:
256,160,31111,1,0,0:0:0:0:
256,160,31496,1,0,0:0:0:0:
256,160,31880,1,8,0:0:0:0:
256,160,32265,1,0,0:0:0:0:
256,160,32842,1,0,0:0:0:0:
256,160,33034,1,0,0:0:0:0:
256,160,33226,1,8,0:0:0:0:
256,160,33419,1,0,0:0:0:0:
256,160,33803,1,0,0:0:0:0:
256,160,34188,1,8,0:0:0:0:
256,160,34572,1,0,0:0:0:0:
256,160,34957,1,8,0:0:0:0:
256,160,35342,1,0,0:0:0:0:
256,160,35534,1,4,0:0:0:0:
256,160,36111,1,0,0:0:0:0:
256,160,36303,1,8,0:0:0:0:
256,160,37072,1,4,0:0:0:0:
256,160,37649,1,0,0:0:0:0:
256,160,37842,1,8,0:0:0:0:
256,160,38611,1,4,0:0:0:0:
256,160,39188,1,0,0:0:0:0:
256,160,39380,1,8,0:0:0:0:
256,160,40149,1,4,0:0:0:0:
256,160,40726,1,0,0:0:0:0:
256,160,40919,1,8,0:0:0:0:
256,160,41303,1,8,0:0:0:0:
256,160,41400,1,8,0:0:0:0:
256,160,41496,1,8,0:0:0:0:
320,160,41688,6,0,P|192:288|128:64,1,490
256,160,43611,1,0,0:0:0:0:
256,160,43803,1,0,0:0:0:0:
256,160,43996,1,8,0:0:0:0:
256,160,44188,1,0,0:0:0:0:
256,160,44380,1,0,0:0:0:0:
256,160,44572,1,8,0:0:0:0:
128,160,45149,2,0,P|224:256|352:96,1,350
256,160,46688,1,0,0:0:0:0:
256,160,46880,1,0,0:0:0:0:
256,160,47072,1,8,0:0:0:0:
256,160,47265,1,0,0:0:0:0:
256,160,47457,1,0,0:0:0:0:
256,160,47649,1,0,0:0:0:0:
128,160,48226,2,0,P|224:256|352:96,1,350
256,160,49765,1,0,0:0:0:0:
256,160,49957,1,0,0:0:0:0:
256,160,50149,1,8,0:0:0:0:
256,160,50342,1,0,0:0:0:0:
256,160,50534,1,0,0:0:0:0:
192,32,50726,2,0,L|192:352,1,281
320,256,51688,2,0,L|320:64,1,140
256,160,52265,1,0,0:0:0:0:
256,160,52649,1,8,0:0:0:0:
256,160,53034,1,8,0:0:0:0:
256,160,53419,1,8,0:0:0:0:
256,160,53611,1,0,0:0:0:0:
256,160,53803,1,0,0:0:0:0:
256,160,53996,1,12,0:0:0:0:
256,160,54572,1,4,0:0:0:0:
256,160,54765,1,12,0:0:0:0:
256,160,55342,1,4,0:0:0:0:
256,160,55726,1,4,0:0:0:0:
256,160,55919,1,4,0:0:0:0:
256,160,56111,1,12,0:0:0:0:
256,160,56303,1,4,0:0:0:0:
256,160,56688,1,0,0:0:0:0:
256,160,56880,1,0,0:0:0:0:
256,160,57072,1,8,0:0:0:0:
256,160,57265,1,8,0:0:0:0:
256,160,57457,1,0,0:0:0:0:
256,160,57649,1,8,0:0:0:0:
256,160,58034,1,0,0:0:0:0:
256,160,58226,1,0,0:0:0:0:
256,160,58419,1,8,0:0:0:0:
256,160,58803,1,0,0:0:0:0:
256,160,58996,1,8,0:0:0:0:
256,160,59188,1,0,0:0:0:0:
256,160,59572,1,8,0:0:0:0:
256,160,59765,1,0,0:0:0:0:
256,160,59957,1,0,0:0:0:0:
256,160,60149,1,12,0:0:0:0:
256,160,60726,1,12,0:0:0:0:
256,160,60919,1,4,0:0:0:0:
256,160,61496,1,4,0:0:0:0:
256,160,61880,1,4,0:0:0:0:
256,160,62072,1,4,0:0:0:0:
256,160,62265,1,12,0:0:0:0:
256,160,62457,1,4,0:0:0:0:
256,160,62842,1,0,0:0:0:0:
256,160,63034,1,0,0:0:0:0:
256,160,63226,1,8,0:0:0:0:
256,160,63419,1,8,0:0:0:0:
256,160,63611,1,0,0:0:0:0:
256,160,63803,1,8,0:0:0:0:
256,160,64188,1,0,0:0:0:0:
256,160,64380,1,0,0:0:0:0:
256,160,64572,1,8,0:0:0:0:
256,160,64957,1,0,0:0:0:0:
256,160,65149,1,8,0:0:0:0:
256,160,65342,1,0,0:0:0:0:
256,160,65726,1,0,0:0:0:0:
256,160,66303,1,12,0:0:0:0:
256,160,66688,1,4,0:0:0:0:
256,160,66880,1,12,0:0:0:0:
256,160,67265,1,4,0:0:0:0:
256,160,67649,1,12,0:0:0:0:
256,192,68034,8,0,68996,0:0:0:0:
256,160,69380,5,8,0:0:0:0:
256,160,69765,1,0,0:0:0:0:
256,160,69957,1,0,0:0:0:0:
256,160,70149,1,8,0:0:0:0:
256,160,70534,1,0,0:0:0:0:
256,160,70726,1,0,0:0:0:0:
256,160,70919,1,8,0:0:0:0:
256,160,71111,1,8,0:0:0:0:
256,160,71303,1,0,0:0:0:0:
256,160,71496,1,8,0:0:0:0:
256,160,71880,1,0,0:0:0:0:
256,160,72072,1,0,0:0:0:0:
256,160,72457,1,8,0:0:0:0:
256,160,72842,1,0,0:0:0:0:
256,160,73034,1,0,0:0:0:0:
256,160,73226,1,8,0:0:0:0:
256,160,73419,1,8,0:0:0:0:
256,160,73611,1,8,0:0:0:0:
256,160,73803,1,0,0:0:0:0:
256,160,74380,1,8,0:0:0:0:
256,160,74957,1,8,0:0:0:0:
256,160,75149,1,8,0:0:0:0:
256,160,75246,1,8,0:0:0:0:
256,160,75342,1,8,0:0:0:0:
256,160,75534,1,8,0:0:0:0:
256,160,75919,1,0,0:0:0:0:
256,160,76111,1,0,0:0:0:0:
256,160,76303,1,8,0:0:0:0:
256,160,76688,1,0,0:0:0:0:
256,160,76880,1,0,0:0:0:0:
256,160,77072,1,8,0:0:0:0:
256,160,77265,1,8,0:0:0:0:
256,160,77457,1,0,0:0:0:0:
256,160,77649,1,8,0:0:0:0:
256,160,78034,1,0,0:0:0:0:
256,160,78226,1,0,0:0:0:0:
256,160,78611,1,8,0:0:0:0:
256,160,78803,1,8,0:0:0:0:
256,160,78996,1,0,0:0:0:0:
256,160,79188,1,0,0:0:0:0:
256,160,79380,1,0,0:0:0:0:
256,160,79572,1,0,0:0:0:0:
256,160,79765,1,8,0:0:0:0:
256,160,79957,1,0,0:0:0:0:
256,160,80534,1,8,0:0:0:0:
256,160,81111,1,8,0:0:0:0:
256,160,81303,1,8,0:0:0:0:
256,160,81399,1,8,0:0:0:0:
256,160,81496,1,8,0:0:0:0:
256,160,81688,1,8,0:0:0:0:
256,160,81880,1,8,0:0:0:0:
256,160,82072,1,0,0:0:0:0:
256,160,82265,1,0,0:0:0:0:
256,160,82457,1,8,0:0:0:0:
256,160,82649,1,8,0:0:0:0:
256,160,82842,1,0,0:0:0:0:
256,160,83034,1,0,0:0:0:0:
256,160,83226,1,8,0:0:0:0:
256,160,83419,1,8,0:0:0:0:
256,160,83611,1,0,0:0:0:0:
256,160,83803,1,8,0:0:0:0:
256,160,84188,1,0,0:0:0:0:
256,160,84380,1,0,0:0:0:0:
256,160,84765,1,8,0:0:0:0:
256,160,84957,1,8,0:0:0:0:
256,160,85149,1,0,0:0:0:0:
256,160,85342,1,0,0:0:0:0:
256,160,85534,1,8,0:0:0:0:
256,160,85726,1,8,0:0:0:0:
256,160,85919,1,8,0:0:0:0:
256,160,86111,1,0,0:0:0:0:
256,160,86688,1,8,0:0:0:0:
256,160,87265,1,8,0:0:0:0:
256,160,87457,1,8,0:0:0:0:
256,160,87553,1,8,0:0:0:0:
256,160,87649,1,8,0:0:0:0:
256,160,87842,1,8,0:0:0:0:
256,160,88034,1,8,0:0:0:0:
256,160,88226,1,0,0:0:0:0:
256,160,88419,1,0,0:0:0:0:
256,160,88611,1,8,0:0:0:0:
256,160,88803,1,8,0:0:0:0:
256,160,88996,1,0,0:0:0:0:
256,160,89188,1,0,0:0:0:0:
256,160,89380,1,8,0:0:0:0:
256,160,89572,1,8,0:0:0:0:
256,160,89765,1,0,0:0:0:0:
256,160,89957,1,8,0:0:0:0:
256,160,90342,1,0,0:0:0:0:
256,160,90534,1,0,0:0:0:0:
256,160,90919,1,8,0:0:0:0:
256,160,91111,1,8,0:0:0:0:
256,160,91303,1,0,0:0:0:0:
256,160,91496,1,0,0:0:0:0:
256,160,91688,1,0,0:0:0:0:
256,160,91880,1,0,0:0:0:0:
256,160,92072,1,8,0:0:0:0:
256,160,92265,1,0,0:0:0:0:
256,160,92649,1,0,0:0:0:0:
256,160,92842,1,8,0:0:0:0:
256,160,93034,1,0,0:0:0:0:
256,160,93226,1,0,0:0:0:0:
256,160,93323,1,0,0:0:0:0:
256,160,93419,1,0,0:0:0:0:
256,160,93611,1,8,0:0:0:0:
256,160,93803,1,0,0:0:0:0:
256,160,94188,1,4,0:0:0:0:
