osu file format v12

[General]
AudioFilename: The Black Case.mp3
AudioLeadIn: 1000
PreviewTime: 53419
Countdown: 0
SampleSet: Normal
StackLeniency: 0.7
Mode: 1
LetterboxInBreaks: 0
WidescreenStoryboard: 0

[Editor]
DistanceSpacing: 0.8
BeatDivisor: 4
GridSize: 32
TimelineZoom: 1

[Metadata]
Title:The Black Case
TitleUnicode:The Black Case
Artist:KILLERBLOOD
ArtistUnicode:KILLERBLOOD
Creator:tetsutaro
Version:Futsuu
Source:Cytus
Tags:ans ao no senritsu taiko rayark
BeatmapID:254184
BeatmapSetID:94437

[Difficulty]
HPDrainRate:5
CircleSize:5
OverallDifficulty:5
ApproachRate:5
SliderMultiplier:1.4
SliderTickRate:1

[Events]
//Background and Video events
0,0,"TheBlackCase.jpg",0,0
//Break Periods
//Storyboard Layer 0 (Background)
//Storyboard Layer 1 (Fail)
//Storyboard Layer 2 (Pass)
//Storyboard Layer 3 (Foreground)
//Storyboard Sound Samples
//Background Colour Transformations
3,100,163,162,255

[TimingPoints]
150,384.615384615385,4,1,0,100,1,0
1688,-100,4,1,0,100,0,1
17073,-100,4,1,0,100,0,0
53996,-100,4,1,0,100,0,1
69380,-100,4,1,0,100,0,0

[HitObjects]
32,32,1688,1,4,0:0:0:0:
160,32,2457,1,4,0:0:0:0:
256,32,3034,1,4,0:0:0:0:
352,32,3611,1,4,0:0:0:0:
416,32,3996,1,4,0:0:0:0:
480,96,4765,1,0,0:0:0:0:
416,96,5149,1,8,0:0:0:0:
288,96,5919,1,8,0:0:0:0:
160,96,6688,1,8,0:0:0:0:
64,96,7265,1,8,0:0:0:0:
32,96,7457,1,8,0:0:0:0:
32,160,7842,1,4,0:0:0:0:
160,160,8611,1,4,0:0:0:0:
256,160,9188,1,4,0:0:0:0:
352,160,9765,1,4,0:0:0:0:
416,160,10149,1,4,0:0:0:0:
480,224,10919,1,0,0:0:0:0:
416,224,11303,1,8,0:0:0:0:
288,224,12072,1,8,0:0:0:0:
160,224,12842,1,8,0:0:0:0:
64,224,13419,1,8,0:0:0:0:
32,224,13611,1,8,0:0:0:0:
32,288,13996,1,4,0:0:0:0:
128,288,14572,1,4,0:0:0:0:
192,288,14957,1,4,0:0:0:0:
256,288,15342,1,4,0:0:0:0:
320,288,15726,2,0,B|448:288|448:288|480:288|512:320|480:352|448:352|448:352|320:352,1,350
32,336,17073,1,0,0:0:0:0:
96,352,17457,1,8,0:0:0:0:
224,352,18226,1,8,0:0:0:0:
352,352,18996,1,8,0:0:0:0:
416,320,19380,1,0,0:0:0:0:
480,352,19765,1,0,0:0:0:0:
480,272,20150,1,0,0:0:0:0:
416,288,20534,1,8,0:0:0:0:
288,288,21303,1,8,0:0:0:0:
160,288,22072,1,8,0:0:0:0:
112,288,22457,1,8,0:0:0:0:
64,288,22649,1,8,0:0:0:0:
32,288,22842,1,8,0:0:0:0:
32,224,23226,1,0,0:0:0:0:
96,224,23611,1,8,0:0:0:0:
160,224,23996,1,0,0:0:0:0:
224,224,24380,1,8,0:0:0:0:
288,224,24765,1,0,0:0:0:0:
352,224,25149,1,8,0:0:0:0:
416,224,25534,1,0,0:0:0:0:
448,224,25726,1,0,0:0:0:0:
480,224,25919,1,0,0:0:0:0:
480,160,26303,1,0,0:0:0:0:
416,160,26688,1,8,0:0:0:0:
352,160,27073,1,0,0:0:0:0:
288,160,27457,1,8,0:0:0:0:
224,160,27842,1,0,0:0:0:0:
160,160,28226,1,8,0:0:0:0:
96,160,28611,1,8,0:0:0:0:
64,160,28803,1,8,0:0:0:0:
32,160,28996,1,8,0:0:0:0:
32,96,29380,1,4,0:0:0:0:
256,96,30726,1,0,0:0:0:0:
320,96,31111,1,0,0:0:0:0:
384,96,31496,1,0,0:0:0:0:
448,96,31880,1,0,0:0:0:0:
480,64,32265,1,0,0:0:0:0:
256,32,33803,1,8,0:0:0:0:
192,32,34188,1,8,0:0:0:0:
128,32,34572,1,8,0:0:0:0:
64,32,34957,1,8,0:0:0:0:
32,64,35342,1,8,0:0:0:0:
32,96,35534,1,4,0:0:0:0:
160,96,36303,1,8,0:0:0:0:
288,96,37072,1,4,0:0:0:0:
416,96,37842,1,8,0:0:0:0:
480,160,38611,1,4,0:0:0:0:
352,160,39380,1,8,0:0:0:0:
224,160,40149,1,4,0:0:0:0:
96,160,40919,1,8,0:0:0:0:
32,224,41688,2,0,L|544:224,1,490
352,224,43611,1,8,0:0:0:0:
416,224,43996,1,8,0:0:0:0:
480,224,44380,1,8,0:0:0:0:
480,256,44573,1,8,0:0:0:0:
448,320,45150,2,0,L|96:320,1,350
160,288,46688,1,0,0:0:0:0:
96,288,47073,1,0,0:0:0:0:
32,288,47457,1,0,0:0:0:0:
32,352,47650,1,0,0:0:0:0:
96,320,48226,2,0,L|448:320,1,350
352,352,49765,1,8,0:0:0:0:
416,352,50150,1,8,0:0:0:0:
480,352,50534,1,8,0:0:0:0:
512,320,50726,2,0,B|480:288|448:288|448:288|-64:288,1,560
128,224,52649,1,8,0:0:0:0:
192,224,53034,1,8,0:0:0:0:
256,224,53419,1,8,0:0:0:0:
288,224,53611,1,8,0:0:0:0:
32,352,53996,1,4,0:0:0:0:
160,352,54765,1,4,0:0:0:0:
256,352,55342,1,4,0:0:0:0:
352,352,55919,1,4,0:0:0:0:
416,352,56303,1,4,0:0:0:0:
480,288,57072,1,0,0:0:0:0:
416,288,57457,1,8,0:0:0:0:
288,288,58226,1,8,0:0:0:0:
160,288,58996,1,8,0:0:0:0:
64,288,59572,1,8,0:0:0:0:
32,288,59765,1,8,0:0:0:0:
32,224,60149,1,4,0:0:0:0:
160,224,60919,1,4,0:0:0:0:
256,224,61496,1,4,0:0:0:0:
352,224,62072,1,4,0:0:0:0:
416,224,62457,1,4,0:0:0:0:
480,160,63226,1,0,0:0:0:0:
416,160,63611,1,8,0:0:0:0:
288,160,64380,1,8,0:0:0:0:
160,160,65149,1,8,0:0:0:0:
64,160,65726,1,8,0:0:0:0:
32,160,65919,1,8,0:0:0:0:
32,96,66303,1,4,0:0:0:0:
128,96,66880,1,4,0:0:0:0:
192,96,67265,1,4,0:0:0:0:
256,96,67649,1,4,0:0:0:0:
320,96,68034,2,0,B|448:96|448:96|480:96|512:64|480:32|448:32|448:32|320:32,1,350
32,96,69380,1,0,0:0:0:0:
96,96,69765,1,8,0:0:0:0:
160,96,70150,1,0,0:0:0:0:
224,96,70534,1,8,0:0:0:0:
288,96,70919,1,0,0:0:0:0:
352,96,71303,1,0,0:0:0:0:
384,96,71496,1,0,0:0:0:0:
480,160,72457,1,0,0:0:0:0:
416,160,72842,1,8,0:0:0:0:
352,160,73226,1,0,0:0:0:0:
288,160,73611,1,8,0:0:0:0:
256,160,73803,1,8,0:0:0:0:
32,224,75534,1,0,0:0:0:0:
96,224,75919,1,8,0:0:0:0:
160,224,76303,1,0,0:0:0:0:
224,224,76688,1,8,0:0:0:0:
288,224,77073,1,0,0:0:0:0:
352,224,77457,1,0,0:0:0:0:
448,224,77650,1,0,0:0:0:0:
480,288,78611,1,0,0:0:0:0:
416,288,78996,1,8,0:0:0:0:
352,288,79380,1,0,0:0:0:0:
288,288,79765,1,0,0:0:0:0:
256,288,79957,2,0,B|64:288|64:288|32:288|32:352|64:352|64:352|224:352,1,420
32,352,81688,1,0,0:0:0:0:
96,352,82072,1,8,0:0:0:0:
160,352,82457,1,0,0:0:0:0:
224,352,82842,1,8,0:0:0:0:
288,352,83226,1,0,0:0:0:0:
320,352,83419,1,0,0:0:0:0:
352,352,83611,1,0,0:0:0:0:
384,352,83803,1,0,0:0:0:0:
480,352,84380,1,8,0:0:0:0:
480,288,84765,1,0,0:0:0:0:
416,288,85149,1,8,0:0:0:0:
352,288,85534,1,8,0:0:0:0:
320,288,85726,1,8,0:0:0:0:
288,288,85919,1,8,0:0:0:0:
256,288,86111,1,8,0:0:0:0:
160,288,86688,1,8,0:0:0:0:
64,288,87265,1,8,0:0:0:0:
32,288,87457,1,8,0:0:0:0:
32,224,87842,1,0,0:0:0:0:
96,224,88226,1,8,0:0:0:0:
160,224,88611,1,0,0:0:0:0:
224,224,88996,1,8,0:0:0:0:
288,224,89380,1,0,0:0:0:0:
320,224,89572,1,0,0:0:0:0:
352,224,89765,1,0,0:0:0:0:
384,224,89957,1,0,0:0:0:0:
480,224,90534,1,8,0:0:0:0:
480,160,90919,1,0,0:0:0:0:
416,160,91303,1,8,0:0:0:0:
352,160,91688,1,0,0:0:0:0:
320,160,91880,1,0,0:0:0:0:
288,160,92072,1,0,0:0:0:0:
256,160,92265,1,0,0:0:0:0:
160,160,92842,1,8,0:0:0:0:
96,160,93226,1,8,0:0:0:0:
64,160,93419,1,8,0:0:0:0:
32,160,93611,1,8,0:0:0:0:
32,128,93803,1,8,0:0:0:0:
32,64,94188,1,4,0:0:0:0:
