osu file format v13

[General]
AudioFilename: Just A Trip.mp3
AudioLeadIn: 0
PreviewTime: 55443
Countdown: 0
SampleSet: Soft
StackLeniency: 0.3
Mode: 0
LetterboxInBreaks: 1
WidescreenStoryboard: 0

[Editor]
DistanceSpacing: 1.2
BeatDivisor: 4
GridSize: 4
TimelineZoom: 3.499999

[Metadata]
Title:Just A Trip
TitleUnicode:Just A Trip
Artist:KILLERBLOOD
ArtistUnicode:KILLERBLOOD
Creator:12BARRY21
Version:Wonderful Trip
Source:Cytus
Tags:
BeatmapID:527995
BeatmapSetID:226449

[Difficulty]
HPDrainRate:7
CircleSize:4
OverallDifficulty:7.5
ApproachRate:9
SliderMultiplier:1.92
SliderTickRate:2

[Events]
//Background and Video events
0,0,"BG.jpg",0,0
//Break Periods
2,77599,78799
//Storyboard Layer 0 (Background)
//Storyboard Layer 1 (Fail)
//Storyboard Layer 2 (Pass)
//Storyboard Layer 3 (Foreground)
//Storyboard Sound Samples
//Background Colour Transformations
3,100,163,162,255

[TimingPoints]
1400,333.333333333333,4,2,1,30,1,0
2066,-200,4,2,1,30,0,0
2733,-100,4,2,1,60,0,0
24066,-80,4,2,1,70,0,1
33233,-80,4,2,1,55,0,1
33566,-80,4,2,1,35,0,1
33899,-80,4,2,1,55,0,1
34066,-80,4,3,1,75,0,1
34399,-80,4,3,1,70,0,1
34566,-80,4,3,1,75,0,1
34733,-200,4,3,1,50,0,0
40066,-133.333333333333,4,3,1,75,0,0
41233,-133.333333333333,4,3,1,60,0,0
41399,-133.333333333333,4,3,1,75,0,0
41899,-133.333333333333,4,3,1,60,0,0
42066,-133.333333333333,4,3,1,75,0,0
42399,-133.333333333333,4,3,1,60,0,0
42733,-133.333333333333,4,3,1,75,0,0
43899,-133.333333333333,4,3,1,60,0,0
44233,-133.333333333333,4,3,1,75,0,0
44566,-133.333333333333,4,3,1,60,0,0
44733,-133.333333333333,4,3,1,75,0,0
45066,-133.333333333333,4,2,1,70,0,0
45233,-133.333333333333,4,2,1,55,0,0
45399,-100,4,2,1,60,0,0
55733,-166.666666666667,4,2,1,60,0,0
56066,-100,4,2,1,60,0,0
79399,-100,4,3,1,55,0,0
80066,-100,4,2,1,70,0,1
80149,-100,4,3,1,60,0,1
80733,-100,4,2,1,70,0,1
80816,-100,4,3,1,60,0,1
81399,-100,4,2,1,70,0,1
81483,-100,4,3,1,60,0,1
82066,-100,4,2,1,70,0,1
82149,-100,4,3,1,60,0,1
82733,-100,4,2,1,40,0,1
82816,-100,4,3,1,50,0,1
83399,-100,4,2,1,50,0,1
83483,-100,4,3,1,55,0,1
84066,-100,4,2,1,70,0,1
84149,-100,4,3,1,60,0,1
84733,-100,4,2,1,80,0,1
84816,-100,4,3,1,70,0,1
85399,-100,4,3,1,50,0,1
85733,-100,4,3,1,65,0,1
86066,-100,4,3,1,80,0,1
86399,-100,4,3,1,95,0,1
86733,-100,4,2,1,50,0,1
86899,-100,4,2,1,60,0,1
87066,-100,4,2,1,70,0,1
87233,-100,4,2,1,80,0,1
87399,-100,4,3,1,70,0,1
87899,-100,4,3,1,60,0,0
88066,-50,4,2,1,75,0,1
88149,-50,4,2,1,60,0,0
88399,-100,4,2,1,60,0,0
109399,-100,4,2,1,65,0,0
130566,-100,4,3,1,50,0,0
130733,-80,4,2,1,70,0,1
139899,-80,4,2,1,60,0,1
140233,-80,4,2,1,40,0,1
140566,-80,4,2,1,60,0,1
140899,-80,4,2,1,40,0,1
141066,-80,4,3,1,60,0,1
141316,-80,4,2,1,70,0,0
141399,-80,4,2,1,75,0,1
145399,-80,4,3,1,50,0,1
145733,-80,4,3,1,70,0,1
146066,-80,4,3,1,60,0,1
146733,-133.333333333333,4,2,1,30,0,0
150566,-133.333333333333,4,2,1,80,0,0
150899,-133.333333333333,4,2,1,50,0,0
151233,-133.333333333333,4,2,1,80,0,0
151566,-133.333333333333,4,2,1,60,0,0
151899,-133.333333333333,4,2,1,85,0,0

[Colours]
Combo1 : 126,63,63
Combo2 : 237,225,12
Combo3 : 4,189,251
Combo4 : 255,255,255

[HitObjects]
31,46,2066,6,0,B|55:34|75:38|75:38|83:34|83:34|103:38|127:26,1,96,2|0,0:0|0:0,0:0:0:0:
124,28,2733,6,0,B|107:82|131:122|131:122|151:162|131:214,1,192,4|8,0:0|0:0,0:0:0:0:
60,356,3233,2,0,B|80:304|60:264|60:264|36:224|53:170,1,192,0|0,3:0|3:0,0:0:0:0:
124,28,3733,1,8,0:0:0:0:
280,76,3899,2,0,P|320:92|296:8,1,192,2|0,0:0|0:0,0:0:0:0:
248,160,4399,6,0,P|296:180|352:172,1,96,8|0,0:0|3:0,0:0:0:0:
496,132,4733,2,0,P|454:163|433:216,1,96,2|0,0:0|3:0,0:0:0:0:
400,360,5066,2,0,P|393:308|358:263,1,96,8|0,0:0|0:0,0:0:0:0:
256,256,5399,6,0,B|168:276|152:224|68:244,1,192,2|8,0:0|0:0,0:0:0:0:
148,328,5899,1,0,3:0:0:0:
192,176,6066,2,0,P|188:128|164:84,1,96,0|0,0:0|3:0,0:0:0:0:
76,124,6399,1,8,0:0:0:0:
200,16,6566,6,0,B|232:40|248:76|248:76|292:36|356:48,1,192,2|0,0:0|0:0,0:0:0:0:
428,160,7066,2,0,B|400:160|400:160|364:144|364:144|336:144,1,96,8|0,0:0|3:0,0:0:0:0:
272,252,7399,1,0,0:0:0:0:
356,332,7566,1,8,0:0:0:0:
464,288,7733,1,8,0:0:0:0:
464,288,8066,5,2,0:0:0:0:
272,252,8233,1,0,0:0:0:0:
356,332,8399,1,8,0:0:0:0:
164,296,8566,6,0,P|108:256|128:144,1,192,0|0,3:0|3:0,0:0:0:0:
232,104,9066,1,8,0:0:0:0:
4,256,9233,2,0,B|56:224|124:256|188:208,1,192,2|0,0:0|0:0,0:0:0:0:
340,140,9733,1,8,0:0:0:0:
232,104,9899,1,0,3:0:0:0:
308,252,10066,2,0,P|360:264|408:252,1,96,2|0,0:0|3:0,0:0:0:0:
492,52,10399,2,0,L|488:148,1,96,8|0,0:0|0:0,0:0:0:0:
448,340,10733,6,0,P|352:360|260:336,1,192,2|8,0:0|0:0,0:0:0:0:
192,244,11233,2,0,P|112:220|56:300,1,192,2|0,0:0|0:0,0:0:0:0:
156,352,11733,1,8,0:0:0:0:
244,180,11899,2,0,P|144:136|56:156,1,192,2|2,0:0|0:0,0:0:0:0:
65,150,12316,1,2,0:0:0:0:
65,150,12399,1,8,0:0:0:0:
252,88,12566,2,0,B|312:84|312:84|352:108,1,96,2|0,0:0|0:0,0:0:0:0:
468,248,12899,5,8,0:0:0:0:
488,56,13066,1,8,0:0:0:0:
488,56,13399,5,4,0:0:0:0:
412,144,13566,1,0,0:0:0:0:
468,248,13733,1,8,0:0:0:0:
392,336,13899,6,0,B|332:324|272:368|200:336,1,192,0|0,3:0|3:0,0:0:0:0:
168,228,14399,1,8,0:0:0:0:
92,316,14566,1,2,0:0:0:0:
168,228,14733,2,0,B|248:224|248:224|236:236,1,96
92,316,15066,2,0,P|60:272|52:224,1,96,8|0,0:0|3:0,0:0:0:0:
159,79,15399,5,2,0:0:0:0:
26,35,15566,1,0,3:0:0:0:
108,148,15733,1,8,0:0:0:0:
26,122,15899,1,0,0:0:0:0:
108,9,16066,6,0,B|196:32|192:64|292:68,1,192,2|8,0:0|0:0,0:0:0:0:
492,128,16566,2,0,B|404:151|408:183|308:187,1,192,0|0,3:0|3:0,0:0:0:0:
288,67,17066,1,8,0:0:0:0:
228,152,17233,1,2,0:0:0:0:
252,256,17399,6,0,B|304:280|304:280|352:272,1,96,0|0,3:0|0:0,0:0:0:0:
488,324,17733,2,0,B|436:348|436:348|388:340,1,96,8|0,0:0|0:0,0:0:0:0:
252,256,18066,1,0,0:0:0:0:
120,368,18233,1,8,0:0:0:0:
120,368,18316,1,8,0:0:0:0:
120,368,18399,1,8,0:0:0:0:
120,368,18733,6,0,P|96:324|116:232,1,144,2|0,0:0|0:0,0:0:0:0:
192,204,19066,1,8,0:0:0:0:
392,16,19233,2,0,P|416:60|396:152,1,144,2|0,0:0|0:0,0:0:0:0:
320,180,19566,1,8,0:0:0:0:
132,120,19733,6,0,B|176:100|176:100|228:116|228:116|272:96,1,144,10|0,0:0|0:0,0:0:0:0:
220,28,20066,1,8,0:0:0:0:
380,264,20233,2,0,B|336:284|336:284|284:268|284:268|240:288,1,144,2|0,0:0|0:0,0:0:0:0:
292,356,20566,1,8,0:0:0:0:
500,176,20733,6,0,P|452:188|404:176,1,96,2|0,0:0|0:0,0:0:0:0:
132,120,21066,2,0,P|180:132|228:120,1,96,8|0,0:0|0:0,0:0:0:0:
124,48,21399,2,0,P|60:124|116:192,3,192,2|8|0|8,0:0|0:0|0:0|0:0,0:0:0:0:
236,248,22566,1,0,3:0:0:0:
92,264,22733,2,0,P|44:244|12:208,1,96,2|0,0:0|0:0,0:0:0:0:
236,248,23066,2,0,P|204:289|161:310,1,96,8|0,0:0|0:0,0:0:0:0:
408,64,23399,5,2,0:0:0:0:
364,84,23483,1,0,0:0:0:0:
332,120,23566,1,10,0:0:0:0:
320,164,23649,1,0,0:0:0:0:
324,212,23733,1,10,0:0:0:0:
348,252,23816,1,0,0:0:0:0:
388,280,23899,1,2,0:0:0:0:
436,288,23983,1,0,0:0:0:0:
480,272,24066,6,0,B|448:288|448:288|440:340|440:340|412:360,1,120,4|0,0:0|0:0,0:0:0:0:
235,325,24399,2,0,B|267:322|267:322|300:281|300:281|336:284,1,120,8|0,0:0|3:0,0:0:0:0:
208,220,24733,2,0,B|178:200|178:200|129:219|129:219|97:205,1,120,2|0,0:0|3:0,0:0:0:0:
33,34,25066,2,0,B|52:60|52:60|104:67|104:67|120:100,1,120,8|0,0:0|0:0,0:0:0:0:
208,220,25399,5,2,0:0:0:0:
64,240,25566,1,0,0:0:0:0:
119,98,25733,1,8,0:0:0:0:
228,244,25899,1,0,3:0:0:0:
48,268,26066,2,0,L|12:284,2,40,2|0|2,0:0|0:0|0:0,0:0:0:0:
48,268,26233,1,0,0:0:0:0:
48,268,26566,5,2,0:0:0:0:
228,244,26733,1,0,3:0:0:0:
119,98,26899,1,0,0:0:0:0:
24,312,27066,1,8,0:0:0:0:
260,284,27233,1,0,3:0:0:0:
119,98,27399,2,0,L|112:32,2,40,2|0|2,0:0|0:0|0:0,0:0:0:0:
119,98,27566,1,0,0:0:0:0:
119,98,27899,5,2,0:0:0:0:
288,32,28066,2,0,L|416:40,1,120,0|0,3:0|0:0,0:0:0:0:
504,148,28399,2,0,L|376:156,1,120,8|0,0:0|0:0,0:0:0:0:
312,320,28733,1,2,0:0:0:0:
360,348,28816,1,0,0:0:0:0:
412,336,28899,1,2,0:0:0:0:
260,244,29066,2,0,P|228:292|232:356,1,120,8|0,0:0|0:0,0:0:0:0:
340,240,29399,6,0,B|332:188|288:168|288:168|296:140,1,120,4|0,0:0|0:0,0:0:0:0:
364,12,29733,1,8,0:0:0:0:
448,128,29899,1,0,3:0:0:0:
72,132,30066,6,0,B|92:108|124:108|124:108|148:88|180:92,1,120,2|0,0:0|3:0,0:0:0:0:
176,236,30399,1,8,0:0:0:0:
36,276,30566,1,0,0:0:0:0:
310,336,30733,6,0,B|284:352|284:352|232:340|232:340|200:356,1,120,2|0,0:0|0:0,0:0:0:0:
392,224,31066,1,8,0:0:0:0:
440,360,31233,1,0,3:0:0:0:
264,88,31399,2,0,B|312:72|356:92|388:80,1,120,2|0,0:0|3:0,0:0:0:0:
124,172,31733,2,0,B|172:156|216:176|248:164,1,120,8|0,0:0|0:0,0:0:0:0:
84,64,32066,6,0,B|61:126|97:171|97:171|91:191|91:191|122:233|103:291,2,240,2|8|0,0:0|0:0|3:0,0:0:0:0:
224,36,32899,2,0,B|264:28|312:48|348:40,1,120,0|8,3:0|0:0,0:0:0:0:
472,108,33233,6,0,P|416:152|500:260,1,240,6|4,0:0|0:0,0:0:0:0:
300,176,33733,1,8,0:0:0:0:
188,360,33899,1,6,0:0:0:0:
88,168,34066,2,0,B|84:128|84:128|60:100|60:100|64:56,1,120
63,57,34316,1,0,0:0:0:0:
63,57,34399,1,8,0:0:0:0:
63,57,34483,1,8,0:0:0:0:
63,57,34566,1,0,0:0:0:0:
300,12,34733,5,0,0:0:0:0:
215,371,35066,2,0,L|220:320,1,48,0|2,0:0|0:0,0:0:0:0:
240,22,35399,5,0,0:0:0:0:
275,361,35733,2,0,L|256:308,1,48,0|2,0:0|0:0,0:0:0:0:
180,34,36066,5,0,0:0:0:0:
335,349,36399,2,0,L|300:308,1,48,0|2,0:0|0:0,0:0:0:0:
121,44,36732,5,0,0:0:0:0:
394,339,37065,1,8,0:0:0:0:
450,10,37399,5,0,0:0:0:0:
61,369,37733,2,0,L|104:340,1,48,0|2,0:0|0:0,0:0:0:0:
462,88,38066,5,0,0:0:0:0:
49,291,38399,2,0,L|96:276,1,48,0|2,0:0|0:0,0:0:0:0:
479,167,38733,5,0,0:0:0:0:
32,212,39066,2,0,L|100:220,1,48,0|2,0:0|0:0,0:0:0:0:
491,245,39399,5,0,0:0:0:0:
20,134,39733,1,8,0:0:0:0:
228,168,39899,1,0,0:0:0:0:
228,168,39983,1,0,0:0:0:0:
228,168,40066,6,0,P|276:152|320:184,1,108.000004119873,8|0,0:0|0:0,0:0:0:0:
393,197,40399,2,0,P|380:231|352:252,1,72.0000027465821
228,168,40733,2,0,L|220:96,1,72.0000027465821
180,248,40983,1,0,0:0:0:0:
180,248,41066,2,0,L|172:320,1,72.0000027465821,0|8,0:0|0:0,0:0:0:0:
148,136,41399,2,0,L|140:64,1,72.0000027465821
100,216,41649,1,0,0:0:0:0:
100,216,41733,2,0,L|92:288,1,72.0000027465821,0|8,0:0|0:0,0:0:0:0:
60,136,42066,5,0,0:0:0:0:
180,248,42233,1,0,0:0:0:0:
336,204,42399,1,8,0:0:0:0:
336,204,42733,6,0,P|352:256|416:280,1,108.000004119873,8|0,0:0|0:0,0:0:0:0:
424,136,43066,2,0,L|408:212,1,72.0000027465821
320,92,43399,1,0,0:0:0:0:
200,168,43566,1,0,0:0:0:0:
200,168,43649,1,0,0:0:0:0:
200,168,43733,1,0,0:0:0:0:
84,84,43899,2,0,B|56:80|56:80|-4:96,1,72.0000027465821,8|0,0:0|0:0,0:0:0:0:
248,292,44233,5,0,0:0:0:0:
248,292,44316,1,0,0:0:0:0:
248,292,44399,2,0,P|284:296|316:284,1,72.0000027465821,0|8,0:0|0:0,0:0:0:0:
500,172,44733,1,0,0:0:0:0:
452,192,44816,1,0,0:0:0:0:
428,240,44899,1,0,0:0:0:0:
444,292,44983,1,0,0:0:0:0:
492,316,45066,1,8,0:0:0:0:
484,68,45233,2,0,L|444:56,1,36.0000013732911,8|8,0:0|0:0,0:0:0:0:
384,16,45399,6,0,L|192:44,1,192,4|8,0:0|0:0,0:0:0:0:
136,144,45899,1,0,3:0:0:0:
216,228,46066,2,0,B|296:216|296:216|276:200,1,96,2|0,0:0|3:0,0:0:0:0:
136,144,46399,1,8,0:0:0:0:
100,304,46566,6,0,B|204:324|204:324|292:312,1,192,2|0,0:0|0:0,0:0:0:0:
376,212,47066,1,8,0:0:0:0:
468,308,47233,1,0,3:0:0:0:
468,308,47316,1,0,0:0:0:0:
468,308,47399,2,0,P|500:284|512:232,1,96,0|0,0:0|3:0,0:0:0:0:
456,48,47733,2,0,B|448:96|448:96|468:140,1,96,8|0,0:0|0:0,0:0:0:0:
276,132,48066,6,0,B|232:104|144:144|88:112,1,192,2|8,0:0|0:0,0:0:0:0:
180,44,48566,1,0,3:0:0:0:
196,200,48733,2,0,B|200:280|200:280|184:268,1,96,2|0,0:0|3:0,0:0:0:0:
92,224,49066,1,8,0:0:0:0:
280,284,49233,6,0,P|216:360|128:320,1,192,2|0,0:0|0:0,0:0:0:0:
168,124,49733,1,8,0:0:0:0:
400,200,49899,1,0,3:0:0:0:
400,200,49983,1,0,0:0:0:0:
400,200,50066,2,0,B|480:188|480:188|464:176,1,96,0|0,0:0|3:0,0:0:0:0:
168,124,50399,2,0,B|88:112|88:112|104:100,1,96,8|0,0:0|0:0,0:0:0:0:
320,24,50733,5,0,0:0:0:0:
320,24,50899,2,0,B|288:72|292:152|268:212,1,192,2|0,0:0|0:0,0:0:0:0:
84,124,51399,2,0,B|116:172|112:252|136:312,1,192,2|8,0:0|0:0,0:0:0:0:
396,260,51899,2,0,P|344:284|417:355,1,192,2|0,0:0|3:0,0:0:0:0:
500,224,52399,1,8,0:0:0:0:
368,128,52566,6,0,L|320:124,2,48,0|0|0,0:0|0:0|0:0,0:0:0:0:
420,24,52899,1,0,3:0:0:0:
228,52,53066,1,8,0:0:0:0:
228,52,53399,6,0,B|196:88|160:72|140:96,1,96,2|0,0:0|0:0,0:0:0:0:
48,84,53649,2,0,P|64:132|60:180,1,96,2|0,0:0|0:0,0:0:0:0:
36,272,53899,2,0,P|96:264|136:280,1,96,2|0,0:0|0:0,0:0:0:0:
164,364,54149,2,0,P|212:372|256:352,1,96,2|0,0:0|0:0,0:0:0:0:
304,272,54399,2,0,P|352:256|396:292,1,96,10|0,0:0|0:0,0:0:0:0:
416,304,54649,1,0,0:0:0:0:
452,312,54733,6,0,B|436:256|436:256|440:208,1,96,8|8,0:0|0:0,0:0:0:0:
492,20,55066,2,0,B|476:76|476:76|480:124,1,96,8|8,0:0|0:0,0:0:0:0:
312,20,55399,1,8,0:0:0:0:
312,20,55483,1,8,0:0:0:0:
312,20,55566,1,8,0:0:0:0:
140,104,55733,6,0,P|120:144|128:188,1,86.3999973632813,8|0,0:0|0:0,0:0:0:0:
200,216,56066,6,0,P|144:204|176:288,1,192,4|8,0:0|0:0,0:0:0:0:
348,204,56566,1,0,3:0:0:0:
192,320,56733,1,0,0:0:0:0:
360,228,56899,1,0,3:0:0:0:
492,368,57066,1,8,0:0:0:0:
348,204,57233,6,0,B|328:152|332:96|384:68|384:68|376:104|376:104,1,192,2|0,0:0|0:0,0:0:0:0:
340,312,57733,1,8,0:0:0:0:
460,232,57899,1,0,3:0:0:0:
228,284,58066,2,0,B|188:280|188:280|164:300|136:300,1,96,2|0,0:0|3:0,0:0:0:0:
124,100,58399,2,0,B|150:99|174:119|174:119|214:115,1,96,8|0,0:0|0:0,0:0:0:0:
104,172,58733,6,0,P|60:136|148:28,1,192,2|8,0:0|0:0,0:0:0:0:
407,27,59233,2,0,P|461:99|408:172,1,192,0|0,3:0|3:0,0:0:0:0:
320,96,59733,1,8,0:0:0:0:
360,264,59899,6,0,B|416:272|416:272|452:256,1,96,2|0,0:0|3:0,0:0:0:0:
268,312,60233,2,0,B|212:320|212:320|176:304,1,96,0|8,0:0|0:0,0:0:0:0:
372,344,60566,2,0,B|428:352|428:352|464:336,1,96,0|0,3:0|0:0,0:0:0:0:
256,232,60899,1,8,0:0:0:0:
256,232,60983,1,8,0:0:0:0:
256,232,61066,1,8,0:0:0:0:
80,364,61233,1,8,0:0:0:0:
80,364,61316,1,8,0:0:0:0:
80,364,61399,6,0,P|104:264|88:176,1,192,2|8,0:0|0:0,0:0:0:0:
28,68,61899,2,0,B|124:96|136:40|220:72,1,192,0|0,3:0|3:0,0:0:0:0:
256,276,62399,1,8,0:0:0:0:
472,160,62566,2,0,B|376:188|364:132|280:164,1,192,2|0,0:0|0:0,0:0:0:0:
148,216,63066,5,8,0:0:0:0:
164,360,63233,1,0,3:0:0:0:
232,280,63399,2,0,B|280:272|280:272|336:284,1,96,2|0,0:0|3:0,0:0:0:0:
148,216,63733,2,0,B|100:208|100:208|44:220,1,96,8|0,0:0|0:0,0:0:0:0:
211,102,64066,6,0,B|204:124|204:124|156:132|112:100|120:36|152:12,1,192,2|8,0:0|0:0,0:0:0:0:
332,76,64566,2,0,B|356:124|344:168|344:168|328:212|352:264,1,192,2|0,0:0|0:0,0:0:0:0:
508,160,65066,1,8,0:0:0:0:
340,340,65233,2,0,B|288:328|276:280|276:280|232:316|180:288,1,192,2|2,0:0|0:0,0:0:0:0:
88,140,65649,5,2,0:0:0:0:
88,140,65733,2,0,P|152:124|196:140,1,96,8|2,0:0|0:0,0:0:0:0:
52,276,66066,1,0,3:0:0:0:
12,88,66233,1,8,0:0:0:0:
188,12,66399,1,8,0:0:0:0:
188,12,66733,6,0,B|240:20|276:48|276:48|312:32|376:36,1,192,4|8,0:0|0:0,0:0:0:0:
220,156,67233,2,0,B|168:164|132:192|132:192|96:176|32:180,1,192,0|0,3:0|3:0,0:0:0:0:
152,336,67733,1,8,0:0:0:0:
220,156,67899,1,2,0:0:0:0:
356,292,68066,6,0,B|368:372|368:372|384:356,1,96,0|0,3:0|0:0,0:0:0:0:
432,196,68399,1,8,0:0:0:0:
364,36,68566,1,0,3:0:0:0:
332,284,68733,6,0,B|344:364|344:364|360:348,1,96,2|0,0:0|3:0,0:0:0:0:
408,188,69066,1,8,0:0:0:0:
340,28,69233,1,0,0:0:0:0:
248,172,69399,6,0,P|216:208|196:120,1,192,2|8,0:0|0:0,0:0:0:0:
244,280,69899,2,0,P|196:288|148:272,1,96,0|0,3:0|0:0,0:0:0:0:
120,72,70233,2,0,P|88:120|84:172,1,96,0|8,3:0|0:0,0:0:0:0:
108,336,70566,6,0,P|212:364|300:336,1,192,2|0,0:0|0:0,0:0:0:0:
324,152,71066,1,8,0:0:0:0:
404,328,71233,1,0,3:0:0:0:
432,140,71399,1,2,0:0:0:0:
432,140,71483,1,0,0:0:0:0:
432,140,71566,1,0,3:0:0:0:
432,140,71649,1,0,0:0:0:0:
432,140,71733,1,8,0:0:0:0:
404,328,71899,1,0,0:0:0:0:
324,152,72066,6,0,P|284:124|240:136,1,96,2|0,0:0|0:0,0:0:0:0:
172,292,72316,1,0,0:0:0:0:
172,292,72399,1,8,0:0:0:0:
172,292,72483,1,0,0:0:0:0:
172,292,72566,6,0,P|212:320|256:308,1,96,10|0,0:0|0:0,0:0:0:0:
140,180,72816,1,0,0:0:0:0:
140,180,72899,1,8,0:0:0:0:
140,180,72983,1,0,0:0:0:0:
140,180,73066,6,0,B|108:176|108:176|84:164|84:164|48:160,1,96,10|0,0:0|0:0,0:0:0:0:
172,40,73316,1,0,0:0:0:0:
172,40,73399,1,8,0:0:0:0:
172,40,73483,1,0,0:0:0:0:
172,40,73566,6,0,B|208:36|208:36|232:24|232:24|264:20,1,96,10|8,0:0|0:0,0:0:0:0:
428,76,73816,1,0,0:0:0:0:
428,76,73899,1,0,0:0:0:0:
428,76,73983,1,0,0:0:0:0:
428,76,74066,6,0,B|440:140|440:140|432:176,1,96,10|0,0:0|0:0,0:0:0:0:
84,308,74399,2,0,B|72:244|72:244|80:208,1,96,10|0,0:0|0:0,0:0:0:0:
256,192,74733,12,4,77399,0:0:0:0:
96,112,79399,5,0,0:0:0:0:
96,112,79483,1,8,0:0:0:0:
96,112,79566,2,0,L|92:160,2,48,0|0|8,0:0|0:0|0:0,0:0:0:0:
96,112,80066,5,2,0:0:0:0:
128,76,80149,1,0,0:0:0:0:
176,84,80233,1,8,0:0:0:0:
208,48,80316,1,0,0:0:0:0:
256,60,80399,1,0,0:0:0:0:
284,100,80483,1,0,0:0:0:0:
324,124,80566,1,8,0:0:0:0:
372,116,80649,1,0,0:0:0:0:
408,84,80733,5,2,0:0:0:0:
448,112,80816,1,0,0:0:0:0:
456,160,80899,1,8,0:0:0:0:
428,200,80983,1,0,0:0:0:0:
448,244,81066,1,0,0:0:0:0:
424,284,81149,1,0,0:0:0:0:
460,320,81233,1,8,0:0:0:0:
432,360,81316,1,0,0:0:0:0:
384,352,81399,5,2,0:0:0:0:
336,364,81483,1,0,0:0:0:0:
292,348,81566,1,8,0:0:0:0:
244,340,81649,1,0,0:0:0:0:
200,364,81733,1,0,0:0:0:0:
156,348,81816,1,0,0:0:0:0:
116,320,81899,1,8,0:0:0:0:
72,344,81983,1,0,0:0:0:0:
32,316,82066,5,2,0:0:0:0:
40,268,82149,1,0,0:0:0:0:
72,232,82233,1,8,0:0:0:0:
72,184,82316,1,0,0:0:0:0:
44,144,82399,1,0,0:0:0:0:
60,100,82483,1,0,0:0:0:0:
100,76,82566,1,8,0:0:0:0:
100,28,82649,1,0,0:0:0:0:
148,16,82733,5,4,0:0:0:0:
148,16,82816,1,0,0:0:0:0:
148,16,82899,2,0,L|196:24,1,48,8|0,0:0|0:0,0:0:0:0:
280,176,83066,5,4,0:0:0:0:
280,176,83149,1,0,0:0:0:0:
280,176,83232,2,0,L|232:184,1,48,8|0,0:0|0:0,0:0:0:0:
376,60,83399,5,4,0:0:0:0:
376,60,83483,1,0,0:0:0:0:
376,60,83566,2,0,L|380:12,1,48,8|0,0:0|0:0,0:0:0:0:
496,212,83733,5,4,0:0:0:0:
496,212,83817,1,0,0:0:0:0:
496,212,83900,2,0,L|500:260,1,48,8|0,0:0|0:0,0:0:0:0:
360,332,84066,5,4,0:0:0:0:
324,300,84149,1,0,0:0:0:0:
276,312,84233,1,8,0:0:0:0:
248,276,84316,1,0,0:0:0:0:
200,284,84399,1,0,0:0:0:0:
168,248,84483,1,0,0:0:0:0:
176,200,84566,1,8,0:0:0:0:
212,172,84649,1,0,0:0:0:0:
256,188,84733,5,4,0:0:0:0:
272,232,84816,1,0,0:0:0:0:
248,276,84899,1,8,0:0:0:0:
200,284,84983,1,0,0:0:0:0:
168,320,85066,1,0,0:0:0:0:
120,308,85149,1,0,0:0:0:0:
76,324,85233,1,8,0:0:0:0:
36,296,85316,1,0,0:0:0:0:
32,248,85399,6,0,B|40:216|40:216|40:188|40:188|48:152,1,96,2|0,0:0|0:0,0:0:0:0:
480,248,85733,2,0,B|472:216|472:216|472:188|472:188|464:152,1,96,8|0,0:0|0:0,0:0:0:0:
120,188,86066,6,0,B|128:156|128:156|128:128|128:128|136:92,1,96,2|0,0:0|0:0,0:0:0:0:
392,188,86399,2,0,B|384:156|384:156|384:128|384:128|376:92,1,96,8|0,0:0|0:0,0:0:0:0:
120,188,86733,5,4,0:0:0:0:
376,93,86899,1,4,0:0:0:0:
135,93,87066,1,4,0:0:0:0:
392,188,87233,1,4,0:0:0:0:
256,16,87399,5,0,0:0:0:0:
232,68,87483,1,0,0:0:0:0:
224,124,87566,1,0,0:0:0:0:
240,180,87649,1,0,0:0:0:0:
272,228,87733,1,0,0:0:0:0:
288,284,87816,1,0,0:0:0:0:
276,340,87899,2,0,L|268:368,3,24,0|0|0|0,0:0|0:0|0:0|0:0,0:0:0:0:
184,376,88066,6,0,B|158:384|101:361|16:327|47:242|129:232|181:262|187:315|152:335|131:373|37:353,1,384,6|8,0:0|0:0,0:0:0:0:
112,108,88566,6,0,B|109:63|109:63|101:62|101:62|99:13,1,96,0|0,3:0|0:0,0:0:0:0:
184,220,88899,2,0,B|182:262|182:262|174:263|174:263|171:308,1,96,0|8,3:0|0:0,0:0:0:0:
292,140,89233,6,0,B|364:136|364:136|404:108|404:108|476:100,1,192,2|0,0:0|0:0,0:0:0:0:
364,24,89733,1,8,0:0:0:0:
292,140,89899,1,0,3:0:0:0:
352,280,90066,2,0,B|272:284|272:284|284:264,1,96,2|0,0:0|3:0,0:0:0:0:
412,232,90399,2,0,B|492:228|492:228|480:248,1,96,8|0,0:0|0:0,0:0:0:0:
232,344,90733,6,0,B|196:320|192:280|204:244|228:220|228:220|184:248,1,192,2|8,0:0|0:0,0:0:0:0:
96,336,91233,2,0,B|72:272|100:220|76:144,1,192,0|0,3:0|3:0,0:0:0:0:
8,44,91733,1,8,0:0:0:0:
124,88,91899,6,0,B|172:108|216:84|216:84|268:96|308:60,1,192,2|0,0:0|0:0,0:0:0:0:
424,20,92399,2,0,P|396:64|408:112,1,96,8|0,0:0|3:0,0:0:0:0:
476,208,92733,2,0,L|500:164,2,48,0|8|0,0:0|0:0|0:0,0:0:0:0:
356,240,93066,1,8,0:0:0:0:
440,332,93233,1,8,0:0:0:0:
440,332,93316,1,8,0:0:0:0:
440,332,93399,6,0,P|344:364|264:324,1,192,2|8,0:0|0:0,0:0:0:0:
208,240,93899,2,0,P|122:202|34:234,1,192,0|0,3:0|3:0,0:0:0:0:
72,332,94399,2,0,P|108:308|128:252,1,96,8|2,0:0|0:0,0:0:0:0:
112,148,94733,2,0,P|80:108|36:96,1,96,0|0,3:0|0:0,0:0:0:0:
212,196,95066,2,0,B|260:212|260:212|304:188,1,96,8|0,0:0|3:0,0:0:0:0:
452,44,95399,5,2,0:0:0:0:
400,148,95566,1,0,3:0:0:0:
480,232,95733,1,8,0:0:0:0:
404,320,95899,1,0,0:0:0:0:
404,320,95983,1,0,0:0:0:0:
404,320,96066,6,0,B|340:312|280:328|280:328|216:312,1,192,2|8,0:0|0:0,0:0:0:0:
132,160,96566,2,0,P|144:232|80:188,1,192,2|0,3:0|0:0,0:0:0:0:
272,64,97066,2,0,P|200:76|244:12,1,192,8|0,0:0|0:0,0:0:0:0:
416,48,97566,2,0,L|468:52,2,48,2|2|8,0:0|0:0|0:0,0:0:0:0:
416,48,97899,5,2,0:0:0:0:
448,260,98066,1,0,3:0:0:0:
492,96,98233,1,8,0:0:0:0:
368,216,98399,1,8,0:0:0:0:
368,216,98733,6,0,B|328:232|312:288|336:320|352:336|352:336|304:320,1,192,4|8,0:0|0:0,0:0:0:0:
224,192,99233,1,0,3:0:0:0:
400,280,99399,1,0,0:0:0:0:
436,248,99483,1,0,0:0:0:0:
440,200,99566,1,0,3:0:0:0:
336,100,99733,1,8,0:0:0:0:
224,192,99899,6,0,B|184:216|144:200|144:200|96:160|44:192,1,192,2|0,0:0|0:0,0:0:0:0:
44,316,100399,2,0,P|92:332|140:312,1,96,8|0,0:0|3:0,0:0:0:0:
124,136,100733,2,0,P|80:128|32:144,1,96,2|0,0:0|3:0,0:0:0:0:
44,352,101066,2,0,P|92:368|140:348,1,96,8|0,0:0|0:0,0:0:0:0:
412,204,101399,6,0,B|365:231|321:227|321:227|277:255|229:251,1,192,2|8,0:0|0:0,0:0:0:0:
64,116,101899,2,0,B|110:143|154:139|154:139|198:167|246:163,1,192,0|0,3:0|3:0,0:0:0:0:
184,32,102399,1,8,0:0:0:0:
40,196,102566,2,0,B|92:224|136:221|136:221|177:245|228:245,1,192,2|0,0:0|0:0,0:0:0:0:
368,228,103066,6,0,P|388:272|388:324,1,96,8|0,0:0|0:0,0:0:0:0:
396,200,103399,2,0,P|423:239|432:291,1,96,2|0,0:0|0:0,0:0:0:0:
404,164,103733,2,0,P|437:198|455:247,1,96,8|0,0:0|0:0,0:0:0:0:
424,92,103983,1,0,0:0:0:0:
424,92,104066,6,0,P|368:100|352:216,1,192,2|8,0:0|0:0,0:0:0:0:
444,248,104566,2,0,B|396:232|344:272|256:232,1,192,0|0,3:0|3:0,0:0:0:0:
208,148,105066,2,0,P|230:208|180:321,1,192,10|0,0:0|3:0,0:0:0:0:
86,302,105566,2,0,P|63:241|113:128,1,192,2|0,0:0|3:0,0:0:0:0:
260,60,106066,5,2,0:0:0:0:
111,130,106233,1,0,3:0:0:0:
208,148,106399,1,8,0:0:0:0:
163,43,106566,1,0,0:0:0:0:
256,192,106733,12,8,109066,0:0:0:0:
136,24,109399,6,0,B|108:68|124:119|124:119|118:134|118:134|128:172|106:209,1,192,4|8,0:0|0:0,0:0:0:0:
20,284,109899,1,2,0:0:0:0:
204,176,110066,2,0,P|192:232|168:268,1,96
20,284,110399,1,8,0:0:0:0:
208,352,110566,6,0,B|244:312|296:324|296:324|332:292|388:312,1,192,2|0,0:0|0:0,0:0:0:0:
456,164,111066,2,0,B|448:84|448:84|432:104,1,96,8|0,0:0|0:0,0:0:0:0:
403,243,111399,2,0,B|395:323|395:323|379:303,1,96,0|0,3:0|3:0,0:0:0:0:
352,80,111733,2,0,B|344:0|344:0|328:20,1,96,8|0,0:0|0:0,0:0:0:0:
296,200,112066,6,0,P|204:236|156:172,1,192,2|8,0:0|0:0,0:0:0:0:
208,28,112566,1,0,0:0:0:0:
84,120,112733,2,0,P|80:168|88:224,1,96,2|0,0:0|0:0,0:0:0:0:
156,308,113066,1,8,0:0:0:0:
48,92,113233,6,0,P|44:192|64:284,1,192,2|0,0:0|3:0,0:0:0:0:
204,248,113733,1,8,0:0:0:0:
324,324,113899,1,2,0:0:0:0:
324,324,113983,1,2,0:0:0:0:
324,324,114066,2,0,B|384:316|384:316|424:324,1,96,2|0,0:0|3:0,0:0:0:0:
204,248,114399,2,0,B|169:254|169:254|109:246,1,96,8|0,0:0|0:0,0:0:0:0:
308,168,114733,6,0,B|372:132|440:168|440:168|408:124,1,192,2|8,0:0|0:0,0:0:0:0:
308,64,115233,2,0,B|208:32|216:100|120:80,1,192,2|0,0:0|3:0,0:0:0:0:
44,8,115733,1,8,0:0:0:0:
72,168,115899,1,2,0:0:0:0:
72,168,115983,1,0,0:0:0:0:
72,168,116066,6,0,P|72:216|56:268,1,96
236,188,116399,2,0,P|194:164|157:124,1,96,8|0,0:0|0:0,0:0:0:0:
136,320,116733,1,0,0:0:0:0:
136,320,116816,1,8,0:0:0:0:
136,320,116899,2,0,P|177:296|230:283,1,96,0|8,0:0|0:0,0:0:0:0:
392,376,117233,1,8,0:0:0:0:
392,376,117316,1,8,0:0:0:0:
392,376,117399,6,0,B|356:300|392:236|392:236|424:164|384:100,1,288,4|0,0:0|0:0,0:0:0:0:
284,40,118066,2,0,B|184:40|192:96|100:88,1,192,2|8,0:0|0:0,0:0:0:0:
48,188,118566,1,2,0:0:0:0:
136,264,118733,2,0,L|232:276,1,96,0|2,0:0|0:0,0:0:0:0:
148,356,119066,2,0,B|68:368|68:368|80:352,1,96,8|2,0:0|0:0,0:0:0:0:
168,188,119399,5,0,3:0:0:0:
264,356,119566,1,8,0:0:0:0:
444,292,119733,1,8,0:0:0:0:
444,292,120066,6,0,B|432:212|432:212|448:216|448:216|432:120,1,192,4|8,0:0|0:0,0:0:0:0:
276,20,120566,1,0,0:0:0:0:
276,20,120649,1,0,0:0:0:0:
276,20,120733,2,0,L|180:32,1,96,0|0,3:0|3:0,0:0:0:0:
84,96,121066,1,8,0:0:0:0:
352,148,121233,6,0,B|271:144|271:144|276:159|276:159|179:154,1,192,2|0,0:0|0:0,0:0:0:0:
84,96,121733,2,0,P|68:144|76:200,1,96,8|0,0:0|0:0,0:0:0:0:
196,260,122066,1,0,3:0:0:0:
56,292,122233,1,0,3:0:0:0:
192,332,122399,1,8,0:0:0:0:
52,364,122566,1,2,0:0:0:0:
196,260,122733,6,0,B|252:268|263:325|263:325|304:296|352:320,1,192,4|8,0:0|0:0,0:0:0:0:
464,232,123233,1,0,0:0:0:0:
472,256,123316,1,0,0:0:0:0:
480,280,123399,2,0,L|492:184,1,96,0|0,3:0|3:0,0:0:0:0:
460,72,123733,1,8,0:0:0:0:
404,172,123899,6,0,P|308:184|260:112,1,192,2|2,0:0|0:0,0:0:0:0:
364,60,124399,1,8,0:0:0:0:
84,176,124566,2,0,B|160:160|160:160|140:132,1,96,2|0,0:0|3:0,0:0:0:0:
88,48,124899,5,8,0:0:0:0:
136,292,125066,1,8,0:0:0:0:
136,292,125399,6,0,B|192:256|256:292|256:292|284:276|320:288,2,192,4|8|0,0:0|0:0|3:0,0:0:0:0:
196,368,126233,1,0,3:0:0:0:
164,180,126399,1,8,0:0:0:0:
32,320,126566,2,0,B|64:264|44:180|44:180|68:132,1,192,4|0,0:0|0:0,0:0:0:0:
232,44,127066,6,0,B|184:72|184:72|140:60,1,96,8|0,0:0|0:0,0:0:0:0:
312,152,127399,1,0,0:0:0:0:
312,152,127483,1,2,0:0:0:0:
312,152,127566,2,0,B|360:180|360:180|404:168,2,96,0|8|0,0:0|0:0|0:0,0:0:0:0:
180,292,128066,6,0,P|208:328|208:252,1,192,4|8,0:0|0:0,0:0:0:0:
84,320,128566,1,0,0:0:0:0:
300,292,128733,2,0,P|344:288|396:292,1,96,0|0,3:0|3:0,0:0:0:0:
484,368,129066,1,8,0:0:0:0:
440,188,129233,6,0,B|422:109|456:68|456:68|432:96|392:88,1,192,6|2,0:0|0:0,0:0:0:0:
208,216,129733,2,0,P|156:216|112:192,1,96,8|2,0:0|0:0,0:0:0:0:
188,72,130066,1,0,3:0:0:0:
208,216,130233,1,2,0:0:0:0:
148,348,130399,1,8,0:0:0:0:
148,348,130483,1,8,0:0:0:0:
148,348,130566,1,8,0:0:0:0:
388,332,130733,6,0,B|480:320|480:320|452:308,1,120,4|0,0:0|0:0,0:0:0:0:
124,292,131066,2,0,B|32:280|32:280|60:268,1,120,8|0,0:0|3:0,0:0:0:0:
412,240,131399,6,0,B|504:228|504:228|476:216,1,120,2|0,0:0|3:0,0:0:0:0:
148,200,131732,2,0,B|56:188|56:188|84:176,1,120,8|0,0:0|0:0,0:0:0:0:
436,148,132066,6,0,B|528:136|528:136|500:124,1,120,2|0,0:0|0:0,0:0:0:0:
172,108,132399,2,0,B|80:96|80:96|108:84,1,120,8|0,0:0|3:0,0:0:0:0:
316,64,132733,5,2,0:0:0:0:
316,64,132788,1,0,0:0:0:0:
316,64,132844,1,2,0:0:0:0:
316,64,132899,1,0,0:0:0:0:
316,64,133233,5,2,0:0:0:0:
205,291,133399,1,0,0:0:0:0:
161,42,133566,1,0,0:0:0:0:
343,218,133733,1,8,0:0:0:0:
93,183,133899,1,0,3:0:0:0:
224,160,134066,1,2,0:0:0:0:
224,160,134121,1,0,0:0:0:0:
224,160,134177,1,2,0:0:0:0:
224,160,134233,1,0,0:0:0:0:
224,159,134566,5,2,0:0:0:0:
405,334,134732,1,0,3:0:0:0:
360,83,134899,1,0,0:0:0:0:
250,312,135066,1,8,0:0:0:0:
473,194,135232,1,0,3:0:0:0:
343,217,135399,1,2,0:0:0:0:
343,217,135483,1,0,0:0:0:0:
343,217,135566,1,2,0:0:0:0:
100,60,135733,6,0,B|88:96|88:96|116:132|116:132|100:172,1,120,8|0,0:0|3:0,0:0:0:0:
52,316,136066,6,0,B|96:292|144:316|144:316|156:296,1,120,4|0,0:0|0:0,0:0:0:0:
216,192,136399,1,8,0:0:0:0:
300,280,136566,1,0,3:0:0:0:
332,164,136733,2,0,B|336:104|304:72|304:72|304:92,1,120,2|0,0:0|3:0,0:0:0:0:
300,280,137066,2,0,B|349:313|393:301|393:301|376:291,1,120,8|0,0:0|0:0,0:0:0:0:
216,192,137399,2,0,B|162:218|150:262|150:262|167:252,1,120,2|0,0:0|0:0,0:0:0:0:
376,291,137733,6,0,B|393:301|393:301|349:313|300:280,1,120,8|0,0:0|3:0,0:0:0:0:
304,92,138066,2,0,B|304:72|304:72|336:104|332:164,1,120,2|0,0:0|3:0,0:0:0:0:
167,252,138399,2,0,B|150:262|150:262|162:218|216:192,1,120,8|0,0:0|0:0,0:0:0:0:
256,192,138733,12,6,139899,0:0:0:0:
188,208,140233,5,4,0:0:0:0:
188,208,140566,1,6,0:0:0:0:
188,208,140899,1,4,0:0:0:0:
332,220,141066,2,0,B|368:224|368:224|392:216,2,60,0|0|8,0:0|0:0|0:0,0:0:0:0:
188,208,141399,5,6,0:0:0:0:
116,200,141483,1,2,0:0:0:0:
44,192,141566,1,8,0:0:0:0:
352,52,141733,2,0,B|452:44|452:44|424:60,1,120,2|8,0:0|0:0,0:0:0:0:
212,128,142066,5,6,0:0:0:0:
140,120,142150,1,2,0:0:0:0:
68,112,142233,1,8,0:0:0:0:
352,52,142399,2,0,B|452:44|452:44|424:60,1,120,2|8,0:0|0:0,0:0:0:0:
188,208,142733,6,0,L|44:192,1,120,6|8,0:0|0:0,0:0:0:0:
352,52,143066,2,0,B|452:44|452:44|424:60,1,120,2|8,0:0|0:0,0:0:0:0:
164,288,143399,6,0,L|120:284,1,40,6|0,0:0|0:0,0:0:0:0:
60,336,143511,2,0,L|16:340,1,40,2|0,0:0|0:0,0:0:0:0:
240,128,143733,6,0,B|248:80|248:80|268:68|268:68|276:20,1,120,2|8,0:0|0:0,0:0:0:0:
336,248,144066,2,0,B|344:296|344:296|364:308|364:308|372:356,1,120,6|8,0:0|0:0,0:0:0:0:
472,200,144399,2,0,B|464:152|464:152|444:140|444:140|436:92,1,120,2|8,0:0|0:0,0:0:0:0:
88,76,144733,2,0,L|48:84,1,40,6|0,0:0|0:0,0:0:0:0:
80,160,144844,2,0,L|120:168,1,40,2|0,0:0|0:0,0:0:0:0:
120,168,145066,5,8,0:0:0:0:
80,304,145232,1,0,0:0:0:0:
220,280,145399,2,0,P|260:284|292:308,2,80,0|0|0,0:0|0:0|0:0,0:0:0:0:
348,184,145733,2,0,P|388:180|420:156,2,80,0|0|0,0:0|0:0|0:0,0:0:0:0:
420,328,146066,1,0,0:0:0:0:
424,344,146149,1,0,0:0:0:0:
428,360,146233,1,0,0:0:0:0:
192,24,146399,6,0,B|176:32|176:32|160:24|160:24|144:32|144:32|124:24|124:24|80:36,1,120,0|8,0:0|0:0,0:0:0:0:
80,35,146733,6,0,L|75:107,1,72.0000027465821,4|0,0:0|0:0,0:0:0:0:
115,252,147066,2,0,L|120:180,1,72.0000027465821
200,67,147399,2,0,L|195:139,1,72.0000027465821,2|0,0:0|0:0,0:0:0:0:
235,284,147732,2,0,L|240:212,1,72.0000027465821
280,136,148066,5,2,0:0:0:0:
364,116,148233,1,0,0:0:0:0:
444,148,148399,1,0,0:0:0:0:
476,228,148566,1,0,0:0:0:0:
444,148,148733,5,2,0:0:0:0:
364,116,148899,1,0,0:0:0:0:
280,136,149066,1,0,0:0:0:0:
239,212,149233,1,0,0:0:0:0:
272,292,149399,6,0,P|228:367|164:191,1,432.000016479493,4|2,0:0|0:0,0:0:0:0:
500,296,150566,5,6,0:0:0:0:
256,16,150899,1,4,0:0:0:0:
12,296,151233,1,6,0:0:0:0:
256,44,151566,1,4,0:0:0:0:
500,296,151899,1,6,0:0:0:0:
