osu file format v5

[General]
AudioFilename: The Muppet Show.mp3
AudioLeadIn: 0
PreviewTime: -1
Countdown: 1
SampleSet: Normal
StackLeniency: 0.7
Mode: 0

[Metadata]
Title:The Muppet Show
Artist:KFT
Creator:KFT
Version:

[Difficulty]
HPDrainRate:5
CircleSize:5
OverallDifficulty:5
SliderMultiplier:2.6
SliderTickRate:4

[Events]
//Background and Video events
//Break Periods
2,34724,41956
2,58265,63470
//Storyboard Layer 0 (Background)
//Storyboard Layer 1 (Failing)
//Storyboard Layer 2 (Passing)
//Storyboard Layer 3 (Foreground)
//Storyboard Sound Samples
//Background Colour Transformations
3,100,163,162,255

[TimingPoints]
1174,523.141707688105,4,1,0,100

[HitObjects]
128,96,2154,1,0
128,96,2351,1,0
128,96,2547,1,0
128,96,2678,1,0
128,96,2874,1,0
128,96,3070,1,0
128,96,3266,1,0
128,96,3462,1,0
128,96,3658,1,0
128,96,3855,1,0
128,96,4116,1,0
128,96,4312,1,0
128,96,4509,1,0
128,96,4705,1,0
128,96,4901,1,0
128,96,5097,1,0
128,96,5293,1,0
128,96,5489,1,0
128,96,5686,1,0
352,96,6797,1,0
256,128,7647,1,0
96,96,8694,1,0
160,224,9675,1,0
256,224,9871,1,0
288,224,10132,1,0
320,192,10328,1,0
352,128,10655,1,0
160,64,11767,1,0
352,96,12748,1,0
352,96,12879,1,0
352,96,13140,1,0
64,192,13598,1,0
96,192,13860,1,0
256,192,14252,1,0
384,128,14841,1,0
160,64,15364,1,0
320,160,15952,1,0
256,192,16345,1,0
288,96,16737,1,0
384,128,16999,1,0
352,224,17456,1,0
224,160,17979,1,0
320,160,18437,1,0
256,160,18764,1,0
256,160,19026,1,0
224,128,19418,1,0
224,128,19549,1,0
224,128,19810,1,0
224,128,20072,1,0
224,128,20334,1,0
224,128,20530,1,0
128,128,21249,1,0
128,128,21511,1,0
128,128,21772,1,0
224,128,22165,1,0
224,128,22426,1,0
352,96,23342,1,0
352,192,23603,1,0
352,192,23865,1,0
352,192,24061,1,0
320,192,24388,1,0
224,224,24780,1,0
192,224,25173,1,0
160,224,25500,1,0
192,128,25892,1,0
256,128,26415,1,0
256,128,26677,1,0
384,160,27004,1,0
384,160,27265,1,0
320,256,27788,1,0
256,256,28311,1,0
224,256,28704,1,0
192,224,29031,1,0
160,192,29619,1,0
256,160,29946,1,0
256,160,30142,1,0
384,160,30404,1,0
384,160,30666,1,0
320,288,30927,1,0
224,288,31712,1,0
288,224,32039,1,0
288,224,32300,1,0
224,224,32627,1,0
224,192,32889,1,0
352,128,33085,1,0
352,224,33608,1,0
288,160,34066,1,0
288,128,34524,1,0
64,96,43156,5,0
160,96,43679,1,0
224,96,43940,1,0
224,96,44137,1,0
224,96,44333,1,0
320,128,44529,1,0
320,128,44921,1,0
256,160,45314,1,0
128,160,45771,1,0
128,160,46033,1,0
128,160,46229,1,0
128,160,46491,1,0
128,160,46752,1,0
128,160,46948,1,0
128,160,47145,1,0
128,160,47341,1,0
192,160,47995,1,0
192,160,48191,1,0
192,160,48452,1,0
192,160,48714,1,0
192,160,49041,1,0
320,128,49956,1,0
320,128,50218,1,0
320,128,50480,1,0
320,128,50741,1,0
320,128,51003,1,0
320,128,51199,1,0
256,224,52049,1,0
256,224,52245,1,0
256,224,52507,1,0
256,224,52768,1,0
256,224,53030,1,0
256,224,53226,1,0
256,224,53553,1,0
416,160,54338,1,0
256,128,54926,1,0
352,96,55449,1,0
128,96,55973,1,0
128,128,56365,1,0
224,192,56757,1,0
256,224,57084,1,0
352,192,57477,1,0
256,128,58065,1,0
256,192,64474,12,0,66697
