osu file format v6

[General]
AudioFilename: Chu-Bura.mp3
AudioLeadIn: 0
PreviewTime: -1
Countdown: 2
SampleSet: Normal
StackLeniency: 0.7
Mode: 0
LetterboxInBreaks: 1

[Editor]
DistanceSpacing: 0.600000023841858
BeatDivisor: 2
GridSize: 8

[Metadata]
Title:CHU-BURA (Tv size)
Artist:KELUN
Creator:Ichigo1129
Version:Normal
Source:
Tags:

[Difficulty]
HPDrainRate:4
CircleSize:5
OverallDifficulty:5
SliderMultiplier:1.4
SliderTickRate:1

[Events]
//Background and Video events
Video,0,"Chu-Bura.avi"
0,0,"Ichigo and rukia.jpg"
//Break Periods
2,86062,87160
//Storyboard Layer 0 (Background)
//Storyboard Layer 1 (Fail)
//Storyboard Layer 2 (Pass)
//Storyboard Layer 3 (Foreground)
//Storyboard Sound Samples
//Background Colour Transformations
3,100,163,162,255

[TimingPoints]
11270,333.002172615512,4,1,0,100,1,0

[HitObjects]
248,192,4942,1,8
248,192,5275,1,8
248,192,5775,1,8
248,192,6274,1,8
248,192,6940,1,8
248,192,8439,1,8
64,176,9771,1,8
232,112,10270,1,8
248,248,10603,1,8
296,96,12435,1,2
88,176,13767,1,2
312,184,15099,1,2
240,80,16431,1,2
176,160,17763,1,10
280,160,19095,1,10
200,136,19595,1,10
184,192,20094,1,10
232,240,20760,1,10
288,216,21260,1,10
288,160,21926,1,10
232,72,22758,5,10
152,184,23258,1,10
344,176,24257,1,10
248,88,24923,1,10
160,216,25589,1,10
320,192,26255,1,10
176,112,27087,1,10
256,256,27587,1,10
296,128,28253,1,10
128,208,29085,1,10
224,96,29751,1,10
320,200,30584,5,10
96,184,31250,1,10
248,88,31916,1,10
168,296,32415,1,10
360,200,33414,1,10
152,112,34080,1,10
264,288,34913,1,10
312,112,36078,5,10
128,120,36578,1,10
248,256,37410,1,10
360,168,38409,1,10
120,88,39908,1,8
248,200,40740,5,8
352,104,41573,1,8
176,128,42239,1,8
248,192,42905,1,8
280,48,43404,2,8,B|280:320,1,210
112,48,44403,2,0,B|392:272,1,350
256,192,45569,12,8,47567
88,112,48399,6,8,B|344:304,2,280
168,160,51063,1,8
336,104,51896,1,8
264,232,52395,1,8
248,80,52895,1,8
112,216,53727,1,8
264,112,55059,5,10
160,216,55892,1,10
336,232,56391,1,10
280,128,57057,1,10
168,240,57723,1,10
312,240,58389,1,10
128,184,58889,1,8
16,56,59388,2,8,B|368:272,3,350
280,128,62385,1,8
256,256,62885,1,8
168,112,63384,1,8
360,184,63884,1,8
240,144,65049,1,10
88,208,65882,1,10
304,200,66548,1,10
208,104,67047,1,10
376,136,67713,1,10
184,200,68546,1,10
256,96,69212,1,10
320,232,69711,1,10
120,88,70877,5,10
208,200,71543,1,10
320,120,71876,1,10
88,152,73041,2,10,B|368:224,3,280
96,152,76038,1,10
312,104,76538,1,10
240,224,77204,1,10
240,88,77703,1,10
368,200,78536,1,10
136,160,79202,1,10
344,128,79868,1,10
256,104,81533,1,8
352,272,82032,1,8
208,200,82532,1,8
288,120,83864,1,2
192,136,84363,1,2
168,216,84696,1,2
264,256,85029,1,2
352,192,85362,1,2
288,144,85695,1,2
256,160,85862,1,2
256,144,88360,5,6
