osu file format v6

[General]
AudioFilename: Chu-Bura.mp3
AudioLeadIn: 0
PreviewTime: -1
Countdown: 2
SampleSet: Normal
StackLeniency: 0.7
Mode: 0
LetterboxInBreaks: 1

[Editor]
DistanceSpacing: 0.600000023841858
BeatDivisor: 6
GridSize: 8

[Metadata]
Title:CHU-BURA (Tv size)
Artist:KELUN
Creator:Ichigo1129
Version:Hard
Source:
Tags:

[Difficulty]
HPDrainRate:6
CircleSize:6
OverallDifficulty:7
SliderMultiplier:1.4
SliderTickRate:1

[Events]
//Background and Video events
Video,0,"Chu-Bura.avi"
0,0,"Ichigo and rukia.jpg"
//Break Periods
2,6141,10203
//Storyboard Layer 0 (Background)
//Storyboard Layer 1 (Fail)
//Storyboard Layer 2 (Pass)
//Storyboard Layer 3 (Foreground)
//Storyboard Sound Samples
//Background Colour Transformations
3,100,163,162,255

[TimingPoints]
6095.05439295052,300,4,1,0,100,1,0

[HitObjects]
256,192,4942,1,8
184,192,5109,1,8
256,112,5608,1,8
312,168,5941,1,8
152,192,11103,5,2
256,120,12269,1,2
184,216,13767,1,2
184,144,13934,1,2
280,208,14766,1,2
320,144,14933,1,2
192,80,15432,1,2
192,192,15765,1,2
304,296,16098,1,2
160,264,17597,1,4
168,136,19262,1,12
176,216,19761,1,12
184,272,20094,1,12
128,248,20427,1,12
64,176,20760,1,12
88,120,21093,1,12
120,56,21426,1,12
328,168,21759,1,8
312,296,22259,1,8
368,72,22925,5,8
272,160,23258,1,8
296,240,23591,1,8
400,232,23924,1,8
64,152,24590,1,8
88,248,24923,1,8
304,104,25589,5,8
312,184,25922,1,8
312,240,26255,1,8
320,320,26588,1,8
64,48,27254,5,8
48,128,27587,1,8
40,184,27920,1,8
24,248,28253,1,8
304,24,29418,6,8,B|160:312|560:272,3,420
80,16,33248,2,8,B|288:192|272:272|8:288|272:56,2,490
296,56,36245,2,8,B|96:192|144:208,1,210
120,112,37445,2,8,B|472:232,2,350
232,48,39395,2,8,B|248:352,1,280
416,96,40545,2,8,B|8:256,1,420
280,56,41845,2,8,B|344:328,3,210
144,96,43904,1,8
392,192,44403,1,8
192,144,45402,5,8
328,72,45735,1,8
272,240,46401,1,8
144,112,47234,1,0
272,240,47900,1,4
416,160,48399,1,6
144,152,49565,1,6
224,256,50064,1,6
264,112,50397,1,6
184,144,51563,5,14
232,240,52062,1,10
320,160,52395,1,8
128,120,52895,1,8
48,216,53228,1,8
240,288,53727,1,8
240,288,53894,1,8
432,184,54560,1,8
192,176,55226,1,8
304,80,55892,1,8
304,208,56391,1,8
168,104,57224,1,8
192,192,57890,5,8
312,120,58556,1,8
192,88,59055,1,8
248,168,59388,1,8
248,168,59555,1,8
96,168,60221,1,8
144,64,60720,1,8
144,64,60887,1,8
192,232,61220,1,8
312,120,61719,1,8
216,80,62219,1,8
96,160,62552,1,8
96,160,62718,1,8
312,208,63218,5,8
328,88,63717,1,8
176,152,64383,1,8
176,152,64883,1,8
296,264,65216,1,8
408,160,65882,1,8
256,64,66548,1,8
184,184,67047,1,8
304,240,67380,1,8
304,240,67547,1,8
384,128,67880,1,8
136,24,68546,1,8
24,264,69212,1,8
384,312,69711,1,8
392,128,70044,1,8
160,184,70377,1,8
256,280,70877,1,8
272,128,71376,1,8
24,72,71709,1,8
120,256,72375,1,8
376,240,72875,1,8
256,192,73707,12,8,75206
152,160,76038,6,8,B|496:184,1,280
0,152,77204,2,8,B|376:96,1,350
0,152,78395,2,8,B|168:128,1,163.333333333333
432,120,79245,2,8,B|136:320,1,350
112,64,80445,2,8,B|464:312,1,420
272,136,81845,2,8,B|416:352,1,210
176,208,83045,2,8,B|504:72,1,350
160,152,84696,1,8
336,248,85029,1,8
368,96,85362,1,8
160,216,85695,1,8
160,216,85862,1,8
264,152,87527,1,4
264,152,88027,1,4
264,152,88360,1,8
264,152,88693,5,8
264,152,88859,1,8
