osu file format v9

[General]
AudioFilename: chewinggum.mp3
AudioLeadIn: 1500
PreviewTime: 43477
Countdown: 0
SampleSet: Normal
StackLeniency: 0.7
Mode: 0
LetterboxInBreaks: 1

[Editor]
DistanceSpacing: 1.33
BeatDivisor: 4
GridSize: 8

[Metadata]
Title:CHU-BURA (TV Size)
Artist:KELUN
Creator:arien666
Version:Oni
Source:BLEACH
Tags:taiko taikosu op8 arken1015

[Difficulty]
HPDrainRate:7
CircleSize:4
OverallDifficulty:7
ApproachRate:8
SliderMultiplier:1.44
SliderTickRate:0.5

[Events]
//Background and Video events
Video,0,"chuchuchan.avi"
0,0,"CHEWINGJACKET.jpg"
//Break Periods
//Storyboard Layer 0 (Background)
//Storyboard Layer 1 (Fail)
//Storyboard Layer 2 (Pass)
//Storyboard Layer 3 (Foreground)
//Storyboard Sound Samples
//Background Colour Transformations
3,100,163,162,255

[TimingPoints]
640,333.333333333333,4,1,1,90,1,0
43306,-100,4,1,1,90,0,1
89973,-100,4,1,1,90,0,0

[Colours]
Combo1 : 112,196,193
Combo2 : 243,89,34

[HitObjects]
88,192,640,5,0
256,104,973,1,0
424,192,1306,1,0
340,240,1473,1,0
340,144,1639,1,8
256,192,1806,1,0
91,96,2139,1,0
91,288,2473,1,0
256,192,2806,1,8
256,192,2973,1,0
424,192,3306,5,0
256,280,3639,1,0
88,192,3973,1,0
172,240,4139,1,0
172,144,4306,1,8
256,192,4473,1,0
421,288,4806,1,0
421,96,5139,5,4
256,288,5473,1,4
90,96,5806,2,0,B|57:62,2,36
256,192,6306,5,8
312,8,6639,1,0
256,88,6806,1,0
175,141,6973,1,8
256,192,7139,2,0,B|328:232|328:312,1,144
327,308,7639,5,8
256,368,7806,1,0
184,308,7973,1,0
256,240,8139,1,0
339,192,8306,1,8
434,192,8473,2,0,B|474:192,2,36
256,128,8973,5,8
75,64,9306,1,0
19,144,9473,1,0
19,240,9639,1,8
75,320,9806,1,0
256,256,10139,2,0,B|290:182,1,72,0|8
365,134,10473,2,0,B|381:102,2,36
277,95,10806,2,0,B|293:63,2,36
286,191,11139,1,0
256,280,11306,5,0
160,264,11473,1,0
96,192,11640,1,8
160,120,11806,1,0
256,104,11973,1,0
448,96,12306,2,0,B|352:96,1,72,8|0
376,288,12806,2,0,B|464:288,1,72,0|8
280,192,13306,1,0
184,192,13473,1,0
88,192,13640,1,0
256,104,13973,5,0
352,120,14140,1,0
416,192,14306,1,8
352,264,14473,1,0
256,280,14640,1,0
64,288,14973,2,0,B|160:288,1,72,8|0
136,96,15473,2,0,B|48:96,1,72,0|8
232,192,15973,1,0
328,192,16140,1,0
424,192,16306,1,8
256,104,16640,5,0
160,104,16806,1,0
120,192,16973,1,8
160,280,17140,1,0
256,280,17306,1,0
448,280,17640,2,0,B|352:280,1,72,8|0
448,104,18140,2,0,B|360:104,1,72,0|8
208,192,18640,1,0
112,192,18806,1,0
16,192,18973,1,0
256,280,19306,5,0
352,280,19473,1,0
392,192,19639,1,8
352,104,19806,1,0
256,104,19973,1,0
64,104,20306,2,0,B|160:104,1,72,8|0
64,280,20806,2,0,B|152:280,1,72,0|8
304,192,21306,1,0
400,192,21473,2,8,B|448:192,2,36
208,192,21973,5,0
128,240,22139,1,0
128,240,22306,1,8
128,144,22473,1,0
128,144,22639,1,8
292,46,22973,2,0,B|204:46,1,72,8|0
220,338,23473,2,0,B|292:338,1,72,0|8
468,263,23973,1,0
489,170,24139,1,0
400,192,24306,1,8
400,192,24473,1,0
304,192,24639,5,0
221,144,24806,1,0
221,144,24973,1,8
221,240,25139,1,0
221,240,25306,1,8
220,46,25639,2,0,B|308:46,1,72,8|0
292,338,26139,2,0,B|220:338,1,72,0|8
56,240,26639,1,0
56,144,26806,1,0
136,192,26973,1,8
328,192,27306,6,0,B|400:192,1,72
483,144,27639,1,8
400,192,27806,1,0
483,240,27973,1,8
400,72,28306,1,8
400,72,28473,2,0,B|256:72,1,144
256,72,28973,1,8
64,72,29306,1,0
8,152,29473,1,0
104,160,29639,1,8
48,240,29806,1,0
144,248,29973,6,0,B|216:264,1,72
304,296,30306,1,8
231,358,30473,1,0
214,264,30639,1,8
184,72,30973,1,8
184,72,31139,2,0,B|336:72,1,144
328,72,31639,1,8
304,264,31973,1,0
304,264,32056,1,0
304,264,32139,1,0
208,264,32306,1,8
208,264,32389,1,8
208,264,32472,1,8
256,184,32639,5,0
256,184,32973,1,8
64,192,33306,1,0
64,96,33473,1,0
144,144,33639,1,8
224,96,33806,1,0
304,144,33973,1,0
384,192,34139,1,0
464,144,34306,1,8
384,96,34473,2,0,B|384:56,2,36
384,192,34806,1,0
432,274,34973,1,8
384,356,35139,1,0
336,274,35306,6,0,B|256:274|203:327,1,144,0|8
16,280,35973,1,0
56,192,36139,1,0
136,144,36306,1,8
136,240,36473,1,0
216,192,36639,1,0
216,96,36806,1,0
300,144,36973,1,8
300,48,37139,2,0,B|300:8,2,36
384,96,37473,2,0,B|432:96|472:136,2,72,0|8|0
300,144,37973,5,0
256,232,38139,1,0
256,328,38306,1,8
176,280,38473,2,0,B|128:280,2,36
256,232,38806,1,0
256,232,38973,1,8
336,280,39139,6,0,B|376:280,2,36
256,328,39473,1,0
256,328,39640,1,8
176,280,39806,2,0,B|136:280,2,36
256,232,40140,1,0
256,136,40306,1,8
256,40,40473,1,0
256,192,40640,12,0,42973
174,240,43306,5,0
174,144,43473,1,0
174,48,43640,1,8
338,144,43973,1,0
338,240,44140,1,0
338,336,44306,1,8
208,192,44640,1,0
112,192,44806,1,0
16,192,44973,1,8
64,112,45140,2,0,B|64:72,2,36
112,192,45473,1,0
160,272,45640,1,8
208,192,45806,6,0,B|223:129|289:129|305:196,1,144
303,191,46306,1,8
496,192,46640,1,0
496,96,46806,1,0
408,144,46973,1,8
216,144,47306,1,0
256,56,47473,1,0
296,144,47640,1,8
104,144,47973,2,0,B|144:144,2,36
16,96,48306,1,8
16,192,48473,1,0
256,192,48806,5,0
256,192,48973,1,8
256,115,49306,5,4
332,192,49473,1,4
256,268,49640,1,4
179,192,49806,1,4
256,192,50140,5,0
256,192,50306,1,8
190,256,50640,5,4
190,126,50806,1,4
320,126,50973,1,4
320,256,51140,1,4
256,192,51473,5,0
256,192,51640,1,8
254,302,51973,5,4
143,192,52140,1,4
254,80,52306,1,4
365,192,52473,1,4
400,376,52806,5,0
304,376,52973,1,8
208,376,53140,1,0
112,376,53306,1,8
160,296,53473,1,0
208,296,53556,1,0
256,296,53640,1,0
336,244,53806,1,0
300,212,53890,1,0
256,192,53973,1,0
328,128,54140,5,0
236,101,54306,1,8
64,192,54640,1,0
160,192,54806,1,0
256,192,54973,1,8
448,192,55306,1,0
352,192,55473,1,0
256,192,55640,1,8
256,96,55806,1,0
256,96,55890,1,0
256,96,55973,1,0
256,192,56140,1,0
256,288,56306,1,8
256,192,56473,6,0,B|160:192|104:128,1,144
122,146,56973,1,8
256,288,57306,1,0
256,288,57473,1,0
256,288,57640,1,8
389,146,57973,1,0
389,146,58140,1,0
389,146,58306,1,8
256,288,58640,2,0,B|256:336,2,36
256,192,58973,2,0,B|256:112,1,72,8|0
256,192,59473,5,0
256,192,59640,1,8
220,281,59973,5,4
166,156,60140,1,4
291,102,60306,1,4
345,227,60473,1,4
256,192,60806,5,0
256,192,60973,1,8
362,147,61306,5,4
301,299,61473,1,4
149,238,61640,1,4
211,86,61806,1,4
256,192,62140,5,0
256,192,62306,1,8
309,64,62640,5,4
386,244,62806,1,4
205,321,62973,1,4
129,140,63140,1,4
339,156,63473,5,0
339,156,63640,1,8
291,275,63806,1,0
291,275,63973,1,8
172,227,64140,1,0
172,227,64306,1,8
220,108,64473,1,0
392,192,64806,6,0,B|312:192,2,72,8|0|8
256,56,65473,2,0,B|256:136,2,72,0|8|0
120,192,66140,2,0,B|200:192,2,72,8|0|8
256,328,66806,2,0,B|256:248,2,72,0|8|0
304,144,67473,5,8
304,240,67640,1,0
208,240,67806,1,8
208,240,67973,1,8
208,144,68140,1,0
256,64,68306,1,8
304,144,68473,1,0
304,144,68640,5,0
384,192,68806,1,8
304,240,68973,1,0
256,320,69140,1,8
256,320,69306,1,8
208,240,69473,1,0
128,192,69640,1,8
32,192,69806,5,4
256,16,70306,1,4
336,192,70640,1,12
480,192,71140,5,4
256,368,71640,1,4
176,192,71973,1,12
32,192,72473,5,0
176,72,72806,1,0
256,120,72973,1,8
344,72,73140,1,0
344,72,73306,1,0
256,120,73473,1,8
208,200,73640,1,0
304,200,73806,1,0
208,296,73973,5,0
208,296,74056,1,0
208,296,74140,1,0
304,296,74306,1,0
304,296,74390,1,0
304,296,74473,1,0
256,216,74640,1,0
256,216,74723,1,0
256,216,74806,1,0
256,120,74973,1,4
432,192,75306,5,0
432,192,75473,1,0
432,192,75640,1,8
256,120,75973,1,0
256,120,76140,1,0
256,120,76306,1,8
192,192,76473,1,0
256,264,76640,5,0
320,192,76806,1,0
256,120,76973,1,8
256,24,77140,1,0
256,24,77223,1,0
256,24,77306,1,0
176,72,77473,1,0
256,120,77640,1,8
336,72,77806,6,0,B|416:72|480:136,1,144
466,123,78306,1,8
400,192,78473,1,0
400,192,78556,1,0
400,192,78639,1,0
466,260,78806,1,0
466,260,78973,1,8
400,192,79139,1,0
400,192,79223,1,0
400,192,79306,5,0
304,192,79473,1,0
208,192,79639,1,8
112,192,79806,1,0
112,192,79889,1,0
112,192,79973,1,0
46,260,80139,1,0
112,192,80306,1,8
46,124,80473,1,0
256,192,80806,5,0
256,192,80973,1,8
256,120,81306,5,4
320,232,81473,1,4
192,232,81639,1,4
256,120,81806,1,4
256,192,82139,5,0
256,192,82306,1,8
346,192,82639,5,4
206,272,82806,1,4
205,112,82973,1,4
346,192,83139,1,4
442,192,83473,5,0
442,192,83639,1,8
256,136,83973,1,0
176,192,84139,1,0
256,248,84306,1,8
176,192,84473,1,0
8,96,84806,5,0
8,96,84973,1,8
8,96,85139,1,0
8,288,85473,1,0
8,288,85639,1,8
8,288,85806,1,0
8,192,85973,5,8
104,192,86139,1,0
160,112,86306,1,8
256,112,86473,1,0
312,192,86639,1,8
408,192,86806,1,0
504,192,86973,1,0
456,272,87139,1,0
456,272,87223,1,0
456,272,87306,1,0
360,272,87473,1,0
360,272,87556,1,0
360,272,87639,1,0
256,272,87806,5,12
32,192,88139,1,12
256,112,88473,1,12
256,112,88639,1,4
