osu file format v9

[General]
AudioFilename: chewinggum.mp3
AudioLeadIn: 1500
PreviewTime: 43477
Countdown: 0
SampleSet: Normal
StackLeniency: 0.7
Mode: 0
LetterboxInBreaks: 1

[Editor]
DistanceSpacing: 1
BeatDivisor: 2
GridSize: 8

[Metadata]
Title:CHU-BURA (TV Size)
Artist:KELUN
Creator:arien666
Version:Muzukashii
Source:BLEACH
Tags:taiko taikosu op8 arken1015

[Difficulty]
HPDrainRate:6
CircleSize:4
OverallDifficulty:4
ApproachRate:6
SliderMultiplier:1.44
SliderTickRate:0.5

[Events]
//Background and Video events
Video,0,"chuchuchan.avi"
0,0,"CHEWINGJACKET.jpg"
//Break Periods
//Storyboard Layer 0 (Background)
//Storyboard Layer 1 (Fail)
//Storyboard Layer 2 (Pass)
//Storyboard Layer 3 (Foreground)
//Storyboard Sound Samples
//Background Colour Transformations
3,100,163,162,255

[TimingPoints]
640,333.333333333333,4,1,1,90,1,0
640,333.333333333333,4,1,1,90,1,0
43306,-100,4,1,1,90,0,1
43306,-100,4,1,1,90,0,1
89973,-100,4,1,1,90,0,0
89973,-100,4,1,1,90,0,0

[Colours]
Combo1 : 112,196,193
Combo2 : 243,89,34

[HitObjects]
40,32,640,1,0
184,32,973,1,0
328,32,1306,2,0,B|496:32|496:184,1,216
256,304,2473,1,0
256,160,2806,2,0,B|296:160|336:128,1,72
472,32,3306,5,0
328,32,3639,1,0
184,32,3973,2,0,B|16:32|16:184,1,216
256,304,5139,1,4
352,192,5473,1,4
256,80,5806,1,0
256,80,5973,5,0
112,104,6306,1,8
0,192,6639,1,0
112,288,6973,2,0,B|200:288,1,72
320,232,7473,2,0,B|384:296,1,72,0|8
473,384,7973,2,0,B|417:328,2,72
256,304,8639,5,0
400,280,8973,1,8
512,192,9306,1,0
400,96,9639,2,0,B|312:96,1,72
192,152,10139,2,0,B|128:88,1,72,0|8
88,48,10473,2,0,B|0:48|16:152,1,144
184,324,11306,6,0,B|256:324,1,72
388,264,11806,2,8,B|388:192,1,72
328,60,12306,2,0,B|256:60,1,72
124,120,12806,2,8,B|124:192,1,72,0|8
184,324,13306,2,0,B|143:324|106:361,2,72
328,324,13973,6,0,B|256:324,1,72
124,264,14473,2,8,B|124:192,1,72
184,60,14973,2,0,B|256:60,1,72
388,120,15473,2,8,B|388:192,1,72,0|8
328,324,15973,2,0,B|256:324|256:216,1,144
184,60,16640,6,0,B|256:60,1,72
388,120,17140,2,8,B|388:192,1,72
328,324,17640,2,0,B|256:324,1,72
124,264,18140,2,8,B|124:192,1,72,0|8
184,60,18640,2,0,B|143:60|106:23,2,72
328,60,19306,6,0,B|256:60,1,72
124,120,19806,2,8,B|124:192,1,72
184,324,20306,2,0,B|256:324,1,72
388,264,20806,2,8,B|388:192,1,72,0|8
327,60,21306,1,0
72,192,21973,5,0
72,264,22139,1,0
72,336,22306,2,0,B|152:336|200:256,1,144,8|0
192,124,22973,2,0,B|184:52,1,72
328,52,23473,2,0,B|320:123,1,72,0|8
302,267,23973,2,0,B|294:315|238:315,2,72
424,192,24639,5,0
432,264,24806,1,0
440,336,24973,2,0,B|360:336|312:256,1,144,8|0
320,124,25639,2,0,B|328:52,1,72
184,54,26139,2,0,B|191:125,1,72,0|8
208,272,26639,2,0,B|216:320|272:320,2,72
192,128,27306,5,0
256,96,27473,1,0
320,64,27639,1,8
456,16,27973,1,0
456,160,28306,2,0,B|376:200,1,72
256,248,28806,2,0,B|336:288,1,72,0|8
456,336,29306,2,0,B|488:368|528:368,2,72
336,256,29973,5,0
304,192,30139,1,0
272,128,30306,1,8
144,64,30639,1,0
32,155,30973,2,0,B|32:235,1,72
176,227,31473,2,0,B|176:147,1,72,0|8
256,40,31973,2,0,B|312:96,1,72
306,163,32306,2,8,B|362:219,1,72
408,264,32639,5,0
408,264,32973,1,8
192,264,33473,2,0,B|257:301,1,72,0|8
128,232,33973,1,0
128,232,34306,1,8
128,16,34806,2,0,B|48:16,2,72,0|8|8
200,16,35306,5,0
200,16,35639,1,8
375,141,36139,2,0,B|319:197,1,72,0|8
256,320,36639,1,0
112,320,36973,1,8
184,192,37306,1,0
184,120,37473,1,0
184,48,37639,1,8
328,48,37973,5,0
328,48,38306,1,8
488,192,38806,1,0
488,192,38973,1,8
408,312,39306,1,0
408,312,39640,1,8
280,376,39973,1,0
256,304,40140,1,8
232,232,40306,1,8
208,160,40473,1,0
256,192,40640,12,4,42973
256,192,43306,5,0
24,16,43973,1,0
80,64,44140,1,0
136,112,44306,1,8
256,192,44640,1,0
376,112,44973,1,8
432,64,45140,1,0
488,16,45306,1,0
504,88,45473,1,0
464,228,45806,6,0,B|416:344|284:324|256:288|256:288|228:324|96:344|48:228,1,504,2|0
48,376,47306,1,0
192,368,47640,1,8
264,368,47806,1,0
336,368,47973,1,0
464,304,48306,1,8
464,304,48473,1,0
464,80,48806,5,0
464,80,48973,1,8
376,192,49306,1,0
376,192,49473,1,0
256,112,49806,1,0
136,192,50140,1,0
136,192,50306,1,8
48,80,50640,1,0
48,80,50806,1,0
48,230,51140,5,0
136,344,51473,1,0
136,344,51640,1,8
256,272,51973,1,0
256,272,52140,1,0
376,192,52473,1,0
356,49,52806,5,0
292,81,52973,1,8
220,81,53140,1,0
156,49,53306,1,0
256,152,53640,1,8
256,152,53973,1,0
488,368,54639,5,0
432,320,54806,1,0
376,272,54973,1,8
256,192,55306,1,0
136,272,55639,1,8
80,320,55806,1,0
24,368,55972,1,0
8,296,56139,1,0
48,156,56472,6,0,B|184:180|152:44|256:44|256:44|360:44|328:180|464:156,1,504,2|0
464,8,57972,1,0
320,16,58306,1,8
248,16,58472,1,0
176,16,58639,1,0
48,80,58972,1,8
48,80,59139,1,0
48,304,59472,5,0
48,304,59639,1,8
136,192,59973,1,0
136,192,60140,1,0
256,272,60473,1,0
376,192,60806,1,0
376,192,60973,1,8
464,304,61306,1,0
464,304,61473,1,0
464,156,61806,5,0
376,40,62140,1,0
376,40,62306,1,8
256,112,62640,1,0
256,112,62806,1,0
136,40,63140,2,0,B|96:40|64:72,2,72
136,184,63806,1,0
352,376,64473,1,0
456,192,64973,5,8
352,296,65306,1,8
208,328,65640,1,8
256,192,65973,1,8
256,192,66140,1,0
256,192,66306,1,8
304,328,66640,1,8
232,312,66806,1,0
160,296,66973,1,8
56,192,67306,5,8
160,88,67640,1,8
304,56,67973,1,8
256,192,68306,1,8
200,56,68640,5,8
200,56,68806,1,0
200,56,68973,1,8
256,192,69306,1,8
256,192,69473,1,0
256,264,69640,1,8
256,264,69806,2,0,B|256:368|424:368,1,216
417,368,70640,1,4
416,151,71140,2,0,B|416:47|248:47,1,216
255,47,71973,1,4
38,47,72473,6,0,B|38:159|126:247,1,216
224,344,73306,2,0,B|248:384|296:384,1,72
281,384,73806,1,0
320,248,74140,1,4
254,120,74473,1,4
115,84,74806,5,4
115,300,75140,1,4
116,192,75306,1,4
400,192,75973,5,0
328,192,76140,1,0
256,192,76306,2,0,B|112:192,1,144,8|0
80,48,76973,1,8
144,16,77140,1,0
176,80,77306,1,0
112,112,77473,1,0
112,272,77806,6,0,B|160:376|504:376|504:160,1,504,2|0
504,24,79306,1,0
360,24,79639,1,8
306,74,79806,1,0
256,128,79973,1,0
152,24,80306,1,8
152,24,80473,1,0
256,128,80806,5,0
256,200,80973,1,8
220,339,81306,2,0,B|300:339,1,72
436,339,81806,1,0
343,228,82139,1,0
343,156,82306,1,8
379,17,82639,2,0,B|299:17,1,72
162,17,83139,5,0
45,101,83473,1,0
117,101,83639,1,8
256,137,83973,2,0,B|256:57,1,72
256,208,84473,1,0
400,192,84806,1,0
416,120,84973,1,8
468,168,85139,1,0
464,312,85473,1,0
320,336,85806,1,0
256,296,85973,5,0
164,192,86306,1,8
220,144,86473,1,0
292,144,86639,1,0
348,192,86806,1,0
256,296,87139,1,0
120,248,87473,1,0
72,192,87639,1,8
120,136,87806,5,0
256,296,88139,1,0
392,136,88473,1,0
392,136,88639,1,4
