osu file format v9

[General]
AudioFilename: chewinggum.mp3
AudioLeadIn: 1500
PreviewTime: 43477
Countdown: 0
SampleSet: Normal
StackLeniency: 0.7
Mode: 0
LetterboxInBreaks: 1

[Editor]
DistanceSpacing: 0.84
BeatDivisor: 2
GridSize: 8

[Metadata]
Title:CHU-BURA (TV Size)
Artist:KELUN
Creator:arien666
Version:Kantan
Source:BLEACH
Tags:taiko taikosu op8 arken1015

[Difficulty]
HPDrainRate:1
CircleSize:3
OverallDifficulty:1
ApproachRate:2
SliderMultiplier:0.72
SliderTickRate:1

[Events]
//Background and Video events
Video,0,"chuchuchan.avi"
0,0,"CHEWINGJACKET.jpg"
//Break Periods
//Storyboard Layer 0 (Background)
//Storyboard Layer 1 (Fail)
//Storyboard Layer 2 (Pass)
//Storyboard Layer 3 (Foreground)
//Storyboard Sound Samples
//Background Colour Transformations
3,100,163,162,255

[TimingPoints]
640,333.333333333333,4,1,1,90,1,0
43306,-100,4,1,1,90,0,1
89973,-100,4,1,1,90,0,0

[Colours]
Combo1 : 112,196,193
Combo2 : 243,89,34

[HitObjects]
64,192,640,1,4
256,48,1973,1,0
448,192,3306,5,4
256,336,4639,1,0
56,192,5973,5,0
168,144,6639,1,0
256,64,7306,1,0
456,192,8639,5,0
344,144,9306,1,0
256,64,9973,1,0
56,192,11306,5,0
144,352,12306,1,0
400,192,13973,5,0
312,32,14973,1,0
56,192,16639,5,0
208,296,17639,1,0
488,192,19306,5,0
336,88,20306,1,0
56,192,21973,5,0
184,320,22973,2,0,B|288:320,1,72
456,192,24640,5,0
328,64,25640,2,0,B|224:64,1,72
256,320,27306,5,0
256,136,28306,2,0,B|328:136,1,72
496,320,29973,5,0
432,216,30640,1,0
312,192,31306,1,0
256,88,31973,1,0
136,64,32640,1,4
136,320,33973,5,0
344,192,35306,1,0
256,104,35973,1,0
376,80,36640,1,0
464,168,37306,1,0
464,288,37973,6,0,B|384:288,1,72
328,288,38639,1,0
256,192,39306,2,0,B|176:192,1,72
120,192,39973,1,0
256,192,40639,12,0,42973
256,192,43306,5,0
328,104,43973,2,0,B|248:104,1,72
192,104,44639,1,0
104,192,45306,1,2
104,192,45973,5,0
184,280,46639,2,0,B|264:280,1,72
320,280,47306,1,0
408,192,47973,1,8
256,296,48973,6,0,B|256:376,1,72
200,192,50306,2,0,B|112:192,1,72
256,88,51639,2,0,B|256:8,1,72
312,192,52973,2,0,B|400:192,1,72
504,192,53973,5,0
448,296,54639,2,0,B|360:296,1,72
315,296,55306,1,0
256,192,55973,1,8
256,192,56639,5,0
200,88,57306,2,0,B|112:88,1,72
67,88,57973,1,0
8,192,58639,1,8
176,264,59639,6,0,B|176:192,1,72
256,32,60973,2,0,B|328:32,1,72
416,192,62306,6,0,B|416:264,1,72
360,368,63306,2,0,B|256:186|151:369,1,288
96,264,65306,5,8
184,32,66639,1,8
416,120,67973,5,8
328,352,69306,1,8
408,192,70306,6,0,B|408:120,1,72
256,40,71639,2,0,B|184:40,1,72
104,192,72973,2,0,B|104:264,1,72
456,192,75306,5,0
368,272,75973,1,0
312,248,76306,1,0
256,272,76639,1,0
136,304,77306,1,8
96,192,77973,5,0
160,88,78639,1,0
208,120,78973,1,0
256,160,79306,1,0
328,256,79973,1,8
184,360,80973,5,0
184,299,81306,1,0
195,117,82306,1,0
256,117,82640,1,0
352,192,83306,5,0
305,230,83640,1,0
256,264,83973,1,0
160,192,84640,1,0
113,154,84973,1,0
64,120,85306,1,0
160,48,85973,6,0,B|296:80|308:219,1,216
304,352,88640,1,4
