osu file format v9

[General]
AudioFilename: chewinggum.mp3
AudioLeadIn: 1500
PreviewTime: 43477
Countdown: 0
SampleSet: Normal
StackLeniency: 0.7
Mode: 0
LetterboxInBreaks: 1

[Editor]
DistanceSpacing: 1
BeatDivisor: 2
GridSize: 4

[Metadata]
Title:CHU-BURA (TV Size)
Artist:KELUN
Creator:arien666
Version:Futsuu
Source:BLEACH
Tags:taiko taikosu op8 arken1015

[Difficulty]
HPDrainRate:3
CircleSize:3
OverallDifficulty:2
ApproachRate:3
SliderMultiplier:0.72
SliderTickRate:0.5

[Events]
//Background and Video events
Video,0,"chuchuchan.avi"
0,0,"CHEWINGJACKET.jpg"
//Break Periods
//Storyboard Layer 0 (Background)
//Storyboard Layer 1 (Fail)
//Storyboard Layer 2 (Pass)
//Storyboard Layer 3 (Foreground)
//Storyboard Sound Samples
//Background Colour Transformations
3,100,163,162,255

[TimingPoints]
640,333.333333333333,4,1,1,90,1,0
43306,-100,4,1,1,90,0,1
89973,-100,4,1,1,90,0,0

[Colours]
Combo1 : 112,196,193
Combo2 : 243,89,34

[HitObjects]
8,192,640,1,4
184,72,1639,1,8
328,72,2306,1,8
440,160,2973,1,8
504,192,3306,5,0
504,264,3639,1,8
360,264,4306,1,8
8,184,5973,5,0
72,152,6306,1,8
136,120,6639,2,8,B|192:80|256:80,1,108,8|0
496,272,8639,5,0
432,304,8973,1,8
368,336,9306,2,8,B|312:376|248:376,1,108,8|0
0,192,11306,5,0
112,104,11973,1,0
176,72,12306,2,0,B|232:72,1,36
512,192,13973,5,0
400,280,14640,1,0
336,312,14973,2,0,B|280:312,1,36
16,152,16640,5,0
152,192,17306,1,0
216,224,17640,2,0,B|272:224,1,36
496,16,19306,5,0
360,56,19973,1,0
296,88,20306,2,0,B|240:88,1,36
48,336,21973,5,0
112,312,22306,1,0
168,272,22639,1,8
200,208,22973,1,0
200,64,23639,1,0
256,16,23973,1,8
312,64,24306,1,0
352,120,24639,6,0,B|352:200,1,72
352,264,25306,1,8
312,320,25639,1,0
176,360,26306,1,0
104,344,26639,1,8
128,280,26973,1,0
200,296,27306,6,0,B|240:220,1,72
224,160,27973,1,8
208,88,28306,1,0
352,92,28973,1,0
424,92,29306,1,8
492,120,29639,1,0
500,192,29973,5,0
476,260,30306,1,0
411,290,30639,1,8
340,300,30973,1,0
256,180,31639,1,0
184,188,31973,2,0,B|184:232,2,36
112,180,32639,1,0
256,40,33639,5,0
320,72,33973,1,0
376,120,34306,1,8
424,176,34639,1,0
456,240,34973,1,0
464,312,35306,1,0
256,40,36306,5,0
192,72,36639,1,0
136,120,36973,1,8
88,176,37306,1,0
56,240,37639,1,0
48,312,37973,1,0
256,344,38973,5,0
320,312,39306,1,0
376,264,39640,1,8
416,204,39973,2,0,B|432:192|432:172,2,36
256,192,40640,12,4,42973
256,192,43306,5,0
400,192,43973,2,0,B|448:192,2,36
328,192,44640,1,0
184,192,45306,1,8
136,96,45806,6,0,B|-16:192|136:288,1,252,2|0
208,288,47306,1,0
312,192,47973,1,8
384,112,48473,6,0,B|328:40|208:40,1,180
120,40,49806,2,0,B|56:40|8:96,1,108
22,260,51140,2,0,B|55:300|119:300,1,108
298,300,52473,2,0,B|364:300|420:356,1,108
256,192,53973,5,0
112,192,54640,2,0,B|64:192,2,36
184,192,55306,1,0
328,192,55973,1,8
376,288,56473,6,0,B|528:192|376:96,1,252,2|0
304,96,57973,1,0
200,192,58640,1,8
128,272,59140,6,0,B|184:344|304:344,1,180
392,344,60473,2,0,B|456:344|504:288,1,108
490,124,61806,2,0,B|457:84|393:84,1,108
177,84,63306,2,0,B|4:192|177:301,1,288,2|4
256,304,64973,5,8
352,192,65640,1,8
479,125,66306,1,8
352,56,66973,1,8
160,56,67640,5,8
33,125,68306,1,8
160,192,68973,1,8
344,192,69806,6,0,B|416:192|464:240,1,108
344,368,71140,2,0,B|272:368|224:320,1,108,0|0
136,192,72473,6,0,B|104:152|104:80,1,108
104,16,73306,1,8
240,56,73973,1,0
256,344,75306,5,4
376,264,75973,2,0,B|376:308,2,36
376,192,76640,1,0
312,64,77306,1,8
204,64,77806,6,0,B|53:97|32:256,1,252,2|0
32,304,79306,1,0
168,360,79973,1,8
256,296,80473,6,0,B|352:296|393:181,1,180
424,88,81806,2,0,B|408:24|336:8,1,108
173,12,83139,6,0,B|118:23|102:87,1,108
102,157,83973,2,0,B|102:209,1,36
102,265,84473,1,0
220,347,85139,2,4,B|300:347,1,72
364,347,85806,2,0,B|360:308|328:268|328:268|364:240|376:168|336:116,1,252
160,156,87806,5,0
160,228,88139,1,0
256,192,88639,1,4
