osu file format v8

[General]
AudioFilename: KEIKO , God Knows.mp3
AudioLeadIn: 2018
PreviewTime: 53657
Countdown: 0
SampleSet: Normal
StackLeniency: 0.7
Mode: 0
LetterboxInBreaks: 1
EpilepsyWarning: 1

[Editor]
Bookmarks: 0,10971,21771,31457,41142,53657,79542,101142,112457,128228,134400,159085,168685,183771
DistanceSpacing: 0
BeatDivisor: 4
GridSize: 8

[Metadata]
Title:God knows...
Artist:KEIKO
Creator:aspara
Version:Insane
Source:EXIT TRANCE PRESENTS CODE SPEED ANIME TRANCE BEST
Tags:trance

[Difficulty]
HPDrainRate:6
CircleSize:4
OverallDifficulty:8
ApproachRate:8
SliderMultiplier:2
SliderTickRate:0.5

[Events]
//Background and Video events
0,0,"bg.jpg"
//Break Periods
2,79742,89764
2,96200,100735
2,123628,127992
2,158942,167935
//Storyboard Layer 0 (Background)
//Storyboard Layer 1 (Fail)
//Storyboard Layer 2 (Pass)
//Storyboard Layer 3 (Foreground)
//Storyboard Sound Samples
//Background Colour Transformations
3,100,163,162,255

[TimingPoints]
0,342.857142857143,4,1,1,80,1,0
45171,-100,4,2,1,71,0,0
46542,-100,4,1,1,80,0,0
47914,-100,4,2,1,70,0,0
49285,-100,4,1,1,80,0,0
54857,-100,4,1,1,80,0,1
79457,-100,4,1,1,60,0,0
79628,-100,4,1,1,80,0,0
132942,-100,4,1,1,0,0,0
133114,-100,4,1,1,81,0,0
134400,-100,4,1,1,80,0,1
154885,-100,4,1,1,71,0,1
155057,-100,4,1,1,80,0,1
158657,-100,4,1,1,71,0,1
158828,-100,4,1,1,80,0,0
168342,-100,4,1,1,0,0,0
169028,-100,4,1,1,81,0,0
171342,-200,4,1,1,81,0,0
174857,-100,4,1,1,81,0,0
176828,-100,4,1,1,51,0,0
177000,-100,4,1,1,80,0,0
178200,-100,4,1,1,61,0,0
178371,-100,4,1,1,64,0,0
178542,-100,4,1,1,70,0,0
178714,-100,4,1,1,74,0,0
178885,-100,4,1,1,81,0,0
179057,-100,4,1,1,85,0,0
179228,-100,4,1,1,91,0,0
179400,-100,4,1,1,94,0,0
179571,-100,4,1,1,100,0,0
179742,-100,4,1,1,81,0,0
181285,-200,4,1,1,81,0,0
182142,-100,4,1,1,61,0,0
182485,-100,4,1,1,100,0,0
183771,-100,4,1,1,80,0,1
208114,-100,4,1,1,100,0,0

[Colours]
Combo1 : 81,168,255
Combo2 : 255,81,81
Combo3 : 81,255,81
Combo4 : 255,168,81
Combo5 : 255,81,255

[HitObjects]
256,304,0,2,0,C|256:104,1,200,0|8
88,96,685,1,0
88,96,771,1,0
88,96,857,1,0
160,280,1028,1,8
160,280,1114,1,0
160,280,1200,1,0
352,336,1371,6,0,L|392:304|392:248,1,100
296,80,1714,2,0,L|296:136|336:168,1,100,8|0
144,88,2057,1,0
144,88,2142,1,0
144,88,2228,1,0
96,280,2400,1,8
96,280,2485,1,0
96,280,2571,1,0
288,336,2742,6,0,L|288:288|240:256,1,100,0|0
160,80,3085,2,0,L|104:80|88:128,1,100,8|0
285,77,3428,1,0
384,160,3600,1,0
352,288,3771,1,8
232,328,3942,2,0,C|112:328,1,100
132,328,4285,1,0
328,344,4457,2,0,L|368:304|368:248,1,100,8|0
208,128,4800,2,0,L|208:184|248:216,1,100,0|8
72,112,5142,2,0,L|112:72|112:24,1,100,8|0
304,56,5485,5,0
304,56,5657,2,0,L|304:128,1,50
192,136,5914,1,0
192,136,6000,1,0
88,232,6171,2,0,L|88:288|128:320,1,100,0|8
256,272,6514,2,0,L|256:216|216:184,1,100,8|0
408,304,6857,5,0
408,304,7028,2,0,L|408:240,1,50
352,176,7285,1,0
352,176,7371,1,0
248,88,7542,2,0,L|248:152|208:176,1,100,0|8
80,168,7885,2,0,L|80:112|128:80,1,100,8|0
256,64,8228,5,0
396,64,8400,1,0
396,203,8571,1,8
256,203,8742,1,0
256,64,8914,1,0
395,64,9085,1,0
395,204,9257,1,8
255,204,9428,1,0
256,128,9600,6,0,C|256:64,3,50
320,192,9942,6,0,C|376:192,3,50,8|0|0|0
256,248,10285,6,0,C|256:312,3,50
192,192,10628,6,0,C|120:192,3,50,8|0|0|0
96,104,10971,5,0
96,104,11142,1,0
96,104,11228,2,0,L|96:192,1,50,0|8
176,272,11485,1,0
312,296,11657,1,0
312,296,11742,2,0,L|312:240|264:200,1,100
278,211,12000,2,0,L|238:187|238:91,1,100,8|0
432,48,12342,5,0
432,48,12514,1,0
432,48,12600,2,0,L|432:80|400:104,1,50,0|8
280,112,12857,1,0
152,176,13028,1,0
152,176,13114,2,0,L|152:229|112:253,1,100
111,253,13371,2,0,L|77:281|77:337,1,100,8|0
256,352,13714,6,0,C|384:352,1,100
424,192,14057,2,0,C|288:192,1,100,8|0
64,192,14400,5,0
168,96,14571,1,0
272,192,14742,1,8
168,280,14914,1,0
64,192,15085,1,0
168,96,15257,1,0
272,192,15428,1,8
168,280,15600,1,0
64,192,15771,2,0,C|176:192,1,100,0|8
448,192,16114,2,0,C|344:192,1,100,8|0
256,344,16457,6,0,C|256:240,1,100,0|0
256,244,16714,1,0
256,244,16800,1,8
256,112,16971,1,0
128,104,17142,2,0,L|80:128|80:184,1,100
80,336,17485,2,0,L|136:336|176:264,1,100,8|0
296,224,17828,6,0,L|272:176|184:176,1,100
392,80,18171,2,0,L|416:32|480:32,1,100,8|0
416,168,18514,1,0
416,168,18600,1,0
416,168,18685,1,0
272,168,18857,2,0,L|264:224|200:224,1,100,8|0
40,192,19200,5,0
144,120,19371,1,0
256,56,19542,1,8
368,120,19714,1,0
472,192,19885,1,0
368,272,20057,1,0
256,336,20228,1,8
144,272,20400,1,0
128,144,20571,5,0
256,144,20742,1,0
384,144,20914,1,8
256,56,21085,2,0,L|256:360,1,300
144,272,21942,6,0,L|88:272|64:216,1,100
168,56,22285,2,0,L|224:56|248:96|248:96,1,100,8|0
312,280,22628,2,0,L|312:336|360:360,3,100,0|0|8|0
472,192,23314,2,0,L|472:248|416:272,1,100
280,136,23657,2,0,L|264:88|200:88,1,100,8|0
128,272,24000,2,0,L|80:272|48:200,1,100
256,192,24342,2,0,L|312:192|336:240|336:240,1,100,8|0
168,344,24685,6,0,L|216:344|240:296,1,100
240,96,25028,2,0,L|184:96|160:144,1,100,8|0
72,312,25371,2,0,L|24:312|-8:240,3,100,0|0|8|0
72,80,26057,6,0,L|120:104,2,50
200,136,26400,6,0,L|256:80,2,50,8|0|0
304,48,26742,6,0,L|360:80,2,50,0|0|8
432,112,27085,6,0,L|424:168,2,50,8|0|0
408,264,27428,6,0,L|384:304|320:304,1,100
144,232,27771,2,0,L|176:184|224:184,1,100,8|0
416,136,28114,2,0,L|384:88|312:88,1,100
144,56,28457,2,0,L|144:112|96:136,1,100,8|0
24,312,28800,6,0,L|48:360|112:360,1,100
94,360,29142,1,8
240,224,29314,2,0,L|184:224|168:272,1,100
170,265,29657,1,0
328,344,29828,2,0,L|384:344|416:280,1,100,8|0
403,304,30171,1,0
392,112,30514,5,8
392,112,30600,1,0
392,112,30685,1,0
288,208,30857,1,0
312,72,31028,1,0
376,200,31200,1,8
248,136,31371,1,0
152,144,31542,5,0
152,144,31628,1,0
152,144,31714,2,0,L|152:200|200:232,1,100,0|8
188,224,31971,5,0
188,224,32057,2,0,L|244:224|260:272,1,100
257,265,32314,5,0
257,265,32400,2,0,L|313:265|337:305,1,100,8|8
335,302,32657,5,0
335,302,32742,1,0
208,352,32914,6,0,L|152:352|120:296,1,100
72,120,33257,2,0,L|128:120|144:56,1,100,8|0
336,32,33600,2,0,L|384:56|384:120,3,100,0|0|8|0
360,272,34285,5,0
232,352,34457,1,0
112,272,34628,1,8
168,136,34800,1,0
320,136,34971,1,0
360,272,35142,1,0
232,352,35314,2,0,L|168:352|144:272,1,100,8|0
80,104,35657,6,0,L|104:160|168:160,1,100
344,160,36000,2,0,L|344:112|288:80,1,100,8|0
120,88,36342,2,0,L|64:120|64:184,1,100
40,352,36685,2,0,L|88:328|88:264,1,100,8|0
288,264,37028,5,0
304,128,37200,1,0
288,264,37371,5,8
392,168,37542,1,0
288,264,37714,5,0
424,248,37885,1,8
288,264,38057,5,8
408,336,38228,1,0
288,264,38400,6,0,L|240:264|208:200,1,100,0|0
80,72,38742,2,0,L|104:120|160:120,1,100,8|0
288,32,39085,1,0
416,96,39257,1,0
440,232,39428,1,8
344,336,39600,1,0
144,336,39771,6,0,L|192:320|192:248,1,100
192,270,40114,1,8
64,120,40285,2,0,L|16:104|16:32,4,100,0|0|0|8|0
160,64,41142,5,0
264,32,41314,1,0
368,72,41485,1,8
424,168,41657,1,0
400,272,41828,1,0
312,336,42000,1,0
200,328,42171,1,8
112,264,42342,1,0
256,192,42514,12,4,43542
192,160,43885,6,0,L|160:184|160:312|96:336,1,200,0|8
320,256,44571,2,0,L|351:231|352:103|416:79,1,200,0|8
112,232,45257,6,0,L|232:232,1,100,2|2
304,352,45600,2,0,L|184:352,1,100,10|2
336,280,45942,6,0,L|336:176,1,100,2|2
200,120,46285,2,0,L|200:232,1,100,10|2
72,288,46628,6,0,L|32:192|80:80,1,200,0|8
440,104,47314,2,0,L|480:199|431:312,1,200,0|8
176,136,48000,6,0,L|136:40,1,100,2|2
336,136,48342,2,0,L|376:40,1,100,10|2
160,288,48685,2,0,L|120:192,1,100,2|10
352,288,49028,2,0,L|392:192,1,100,10|2
392,56,49371,5,0
252,56,49542,1,0
252,196,49714,1,0
391,196,49885,1,0
391,196,49971,2,0,L|391:364,1,150
112,344,50571,6,0,L|112:208,2,100
112,344,51085,1,0
256,344,51257,1,0
256,344,51342,2,0,L|256:168,1,150,0|8
256,16,51771,1,8
256,192,51942,12,0,53485
56,192,53828,5,4
456,192,54171,1,4
256,192,54342,1,4
136,56,54857,6,0,L|80:56|64:104,1,100,0|0
72,296,55200,2,0,L|88:248|152:248,1,100,8|0
272,320,55542,1,0
272,320,55628,1,0
272,320,55714,1,8
240,120,55885,1,8
240,120,55971,1,0
240,120,56057,1,0
360,56,56228,6,0,L|408:80|408:136,1,100,0|0
296,232,56571,2,0,L|240:232|216:176,1,100,8|0
88,56,56914,1,0
88,56,57000,1,0
88,56,57085,1,8
128,256,57257,1,8
128,256,57342,1,0
128,256,57428,1,0
304,160,57600,6,0,L|328:112|384:112,1,100
416,304,57942,2,0,L|400:352|336:352,1,100,8|0
160,304,58285,2,0,L|176:352|240:352,1,100
176,160,58628,2,0,L|152:112|80:112,1,100,8|0
56,240,58971,5,0
152,344,59142,1,0
296,352,59314,1,8
432,312,59485,1,0
472,176,59657,1,0
424,48,59828,1,8
288,16,60000,1,8
152,24,60171,1,0
56,128,60342,2,0,L|72:168|208:168|232:216,1,200,0|8
217,186,60857,1,0
304,280,61028,5,0
304,280,61114,1,0
304,280,61200,1,0
304,280,61371,5,8
441,287,61542,5,0
441,287,61714,2,0,L|480:199|440:104,1,200,0|8
72,104,62400,2,0,L|32:199|70:287,1,200,0|8
192,272,63085,5,0
320,208,63257,1,0
192,144,63428,1,8
320,80,63600,1,0
192,24,63771,1,0
320,80,63942,1,0
192,144,64114,1,8
320,208,64285,1,0
176,200,64457,6,0,B|232:160,3,50
216,170,64800,6,0,B|256:210,3,50,8|0|0|0
251,205,65142,6,0,B|291:165,3,50,0|0|8|0
286,169,65485,6,0,B|334:217,2,50,8|0|0
392,264,65828,6,0,L|440:248|440:184,1,100
336,96,66171,2,0,L|320:48|264:48,1,100,8|0
144,80,66514,1,0
56,176,66685,1,8
96,304,66857,1,8
224,336,67028,1,0
344,280,67200,6,0,L|344:232|288:208,1,100,0|0
104,264,67542,2,0,L|56:240|56:192,1,100,8|0
120,80,67885,1,0
240,40,68057,1,8
368,72,68228,1,8
416,192,68400,1,0
344,304,68571,6,0,L|320:352|256:352,1,100
104,248,68914,2,0,L|160:248|184:192,1,100,8|0
216,80,69257,5,0
336,120,69428,1,0
360,248,69600,1,8
264,328,69771,2,0,L|160:328,1,100
164,328,70114,1,0
360,328,70285,6,0,L|416:304|416:248,1,100,8|0
224,216,70628,2,0,L|248:168|312:168,1,100,0|8
480,96,70971,2,0,L|456:144|400:144,1,100,8|0
256,192,71228,12,0,72000
256,112,72171,6,0,L|256:240,1,100,0|8
256,336,72514,1,0
144,320,72685,6,0,L|16:256,1,100
368,320,73028,2,0,L|496:256,1,100,8|0
152,136,73371,2,0,L|24:72,1,100
360,136,73714,2,0,L|488:72,1,100,8|0
128,80,74057,6,0,L|8:80,2,100,0|0|8
368,80,74571,1,0
368,304,74742,1,0
128,304,74914,1,0
128,80,75085,2,0,L|128:184,2,100,8|0|0
248,80,75600,2,0,L|296:112|296:192,1,100,0|8
232,336,75942,2,0,L|184:312|184:264,1,100
80,192,76285,5,8
256,192,76457,1,8
432,192,76628,1,0
256,192,76800,12,0,79542
96,104,90514,5,0
96,104,90685,1,0
96,104,90771,2,0,L|96:192,1,50,0|8
176,272,91028,1,0
312,296,91200,1,0
312,296,91285,2,0,L|312:240|264:200,1,100
278,211,91543,2,0,L|238:187|238:91,1,100,8|0
432,48,91885,5,0
432,48,92057,1,0
432,48,92143,2,0,L|432:80|400:104,1,50,0|8
280,112,92400,1,0
152,176,92571,1,0
152,176,92657,2,0,L|152:229|112:253,1,100
111,253,92914,2,0,L|77:281|77:337,1,100,8|0
216,312,93257,2,0,L|272:296|272:240,1,100,0|0
272,254,93514,2,0,L|272:136|312:96,1,150
392,40,93942,5,0
392,40,94028,2,0,L|392:95|426:123,1,100
426,123,94285,2,0,L|466:147|466:200,1,100,8|0
328,240,94628,5,0
328,240,94713,2,0,L|328:184|280:144,1,100
294,155,94971,2,0,L|254:131|254:35,1,100,8|0
256,192,95228,12,4,96000
64,312,101485,6,0,L|120:312|152:240,1,100
200,80,101828,2,0,L|224:32|288:32,1,100,8|0
400,80,102171,1,0
480,192,102342,1,0
424,320,102514,1,8
288,352,102685,2,0,L|168:352,1,100
188,352,103028,1,0
376,280,103200,2,0,L|424:256|424:184,1,100,8|0
288,64,103542,2,0,L|232:64|200:128,3,100,0|0|8|0
24,64,104228,6,0,L|80:64|104:120,1,100
216,272,104571,2,0,L|240:320|320:320,1,100,8|0
448,200,104914,2,0,L|496:184|496:120,1,100
320,40,105257,2,0,L|264:40|240:88,1,100,8|0
244,79,105600,1,0
152,256,105771,2,0,L|136:304|64:304,1,100,0|8
86,304,106114,1,0
48,104,106285,2,0,L|72:56|136:56,3,100,0|8|8|0
80,248,106971,6,0,L|136:248|168:184,1,100,0|0
256,32,107314,2,0,L|312:32|344:96,1,100,8|0
384,192,107657,5,0
312,256,107828,1,0
240,192,108000,1,8
312,120,108171,1,0
400,192,108342,5,0
312,272,108514,1,0
224,192,108685,1,8
312,104,108857,1,0
416,192,109028,5,0
312,288,109200,1,0
208,192,109371,1,8
312,88,109542,1,0
256,192,109714,12,4,112114
296,120,112457,6,0,L|352:136|352:208,1,100
192,304,112800,2,0,L|144:280|144:192,1,100,8|0
80,48,113142,2,0,L|64:96|-8:96,1,100
216,80,113485,2,0,L|240:32|320:32,1,100,8|0
416,184,113828,5,0
416,184,113914,1,0
416,184,114000,1,0
288,336,114171,1,8
288,336,114257,1,0
288,336,114342,1,0
104,248,114514,6,0,L|56:224|56:168,3,100,0|8|8|0
248,136,115200,6,0,L|272:88|344:88,1,100
384,280,115542,2,0,L|360:328|304:328,1,100,8|0
160,200,115885,2,0,L|216:200|264:200,3,100,0|0|8|0
264,56,116571,5,0
416,192,116742,1,0
264,344,116914,1,8
120,192,117085,1,0
416,192,117257,6,0,L|184:192,1,200,0|8
216,192,117771,1,0
128,304,117942,6,0,L|72:288|72:224,1,100
192,88,118285,2,0,L|248:88|272:144,1,100,8|0
344,312,118628,2,0,L|320:264|232:264,3,100,0|0|8|0
144,264,119314,5,0
144,360,119485,1,0
248,184,119657,5,8
248,88,119828,1,0
336,264,120000,5,0
336,360,120171,1,0
432,184,120342,5,8
432,80,120514,1,0
256,192,120685,12,0,123085
256,192,123428,5,4
40,40,128742,5,0
144,120,128914,1,0
248,192,129085,1,0
360,264,129257,1,0
472,336,129428,1,0
472,336,129514,1,0
456,40,130114,5,0
352,120,130285,1,0
248,192,130457,1,0
144,264,130628,1,0
32,336,130800,1,0
32,336,130885,1,0
152,192,131142,5,0
360,192,131314,1,0
256,192,131657,12,0,133028
96,264,133371,5,4
424,264,133714,1,4
256,64,133885,5,4
136,112,134400,6,0,L|80:128|80:192,1,100
232,296,134742,2,0,L|280:272|280:200,1,100,8|0
424,80,135085,1,0
424,80,135171,1,0
424,80,135257,1,0
496,264,135428,1,8
496,264,135514,1,0
496,264,135600,1,0
328,312,135771,5,0
192,280,135942,1,0
152,144,136114,1,8
256,56,136285,1,0
376,128,136457,2,0,L|248:128,1,100,0|0
136,128,136800,2,0,L|264:128,1,100,8|0
416,24,137142,6,0,L|464:48|464:104,1,100
440,296,137485,2,0,L|400:272|400:208,1,100,8|0
352,24,137828,2,0,L|400:48|400:104,1,100
376,296,138171,2,0,L|336:272|336:208,1,100,8|0
152,192,138514,6,0,L|280:192,1,100
256,24,138857,1,8
416,192,139028,1,0
256,352,139200,1,0
96,192,139371,1,8
336,192,139542,2,0,L|136:192,2,200,8|0|8
336,192,140400,5,0
256,288,140571,1,0
256,288,140657,1,0
256,288,140742,1,0
256,288,140914,1,8
70,287,141257,6,0,L|32:199|72:104,1,200,0|8
440,104,141942,2,0,L|480:199|441:287,1,200,0|8
160,328,142628,5,0
48,264,142800,1,0
48,136,142971,1,8
160,72,143142,1,0
48,136,143314,1,0
48,264,143485,1,0
160,328,143657,1,8
360,328,144000,5,0
472,264,144172,1,0
472,136,144343,1,8
360,72,144514,1,0
472,136,144686,1,0
472,264,144857,1,8
360,328,145029,1,8
256,280,145371,6,0,L|256:64,1,200,0|8
168,80,146057,2,0,L|40:80,1,100
344,80,146400,2,0,L|456:80,1,100,8|0
304,192,146742,6,0,L|168:192,2,100,0|0|8
304,192,147257,1,0
416,112,147428,5,0
416,112,147514,1,0
416,112,147600,1,0
472,240,147771,5,8
472,240,147857,1,0
472,240,147942,1,0
304,344,148114,6,0,L|352:344|376:280,1,100,0|0
304,104,148457,2,0,L|296:56|232:56,1,100,8|0
112,80,148800,1,0
24,168,148971,1,0
48,296,149142,1,8
168,344,149314,1,0
296,320,149485,6,0,L|296:264|240:232,1,100
128,248,149828,2,0,L|80:216|80:160,1,100,8|0
168,72,150171,1,0
288,120,150342,1,8
320,248,150514,1,8
216,328,150685,1,0
104,192,150857,2,0,L|416:192,1,300
320,80,151542,5,0
320,80,151628,1,0
320,80,151714,1,8
320,80,151885,5,8
184,96,152057,5,0
184,96,152228,2,0,L|136:112|136:168,1,100
280,280,152571,2,0,L|280:336|344:368,1,100,8|0
464,216,152914,2,0,L|416:192|416:136,3,100,0|0|8|0
256,192,153600,12,0,154971
224,128,155314,6,0,L|256:160|256:224|288:264,3,150
256,192,156257,12,0,158742
256,192,168685,5,0
336,93,170057,5,0
392,149,170400,1,0
392,228,170742,1,0
335,284,171085,1,0
278,227,171428,2,0,L|200:141,3,100
154,96,172800,5,0
97,152,173142,1,0
97,232,173485,1,0
97,232,173657,1,0
177,232,174000,5,0
256,232,174342,2,0,L|256:120,1,100
256,51,175028,5,0
114,192,175200,1,0
255,333,175371,1,0
396,191,175542,1,0
256,192,175714,12,0,176914
216,192,177257,5,0
256,192,177600,1,0
296,192,177942,1,0
357,217,178285,5,0
336,256,178457,1,0
293,282,178628,1,0
237,289,178800,1,0
173,257,178971,1,0
141,185,179142,1,0
181,105,179314,1,0
277,81,179485,1,0
357,161,179657,1,0
256,192,179828,12,0,181028
168,192,181371,6,0,L|280:192,1,100
338,192,181885,1,0
256,48,182228,5,0
256,336,182400,1,0
56,192,182742,5,0
456,192,183085,1,0
256,192,183257,5,0
432,72,183771,6,0,L|384:88|384:144,1,100
232,272,184114,2,0,L|232:328|184:344,1,100,8|0
40,216,184457,5,0
40,216,184542,1,0
40,216,184628,1,0
192,80,184800,5,8
192,80,184885,1,0
192,80,184971,1,0
392,48,185142,6,0,L|448:48|472:96,1,100
376,264,185485,2,0,L|352:216|288:216,1,100,8|0
136,328,185828,5,0
136,328,185914,1,0
136,328,186000,1,8
32,160,186171,5,8
32,160,186257,1,0
32,160,186342,1,0
232,136,186514,6,0,L|288:136|320:80,1,100
472,216,186857,2,0,L|429:216|397:264,1,100,8|0
280,344,187200,1,0
144,320,187371,1,0
72,200,187542,1,8
144,80,187714,2,0,L|264:80,1,100
244,80,188057,1,0
376,48,188228,2,0,L|424:72|424:144,1,100,8|0
264,240,188571,2,0,L|264:184|320:152,1,100,0|8
440,192,188914,1,8
376,312,189085,1,0
240,352,189257,6,0,L|184:352|152:296,1,100,0|0
80,128,189600,2,0,L|136:128|160:168,1,100,8|0
344,96,189942,5,0
344,96,190028,1,0
344,96,190114,1,8
344,96,190285,5,8
432,192,190457,6,0,L|432:248|384:264,1,100
192,264,190800,2,0,L|192:312|240:344,1,100,0|8
320,160,191142,2,0,L|320:104|272:72,1,100
136,216,191485,2,0,L|88:192|88:136,1,100,8|8
88,145,191828,5,0
176,40,192000,1,0
312,24,192171,1,0
440,80,192342,1,8
480,216,192514,1,0
400,336,192685,1,0
264,360,192857,1,0
128,328,193028,1,8
48,216,193200,1,0
96,88,193371,6,0,L|176:56,3,50
208,56,193714,6,0,L|248:120,3,50,8|0|0|0
264,160,194057,6,0,L|344:160,3,50
384,160,194400,6,0,L|432:224,3,50,8|0|0|0
440,264,194742,6,0,L|384:264|360:216,1,100,0|0
264,48,195085,2,0,L|208:64|208:120,1,100,8|0
280,296,195428,2,0,L|328:272|328:224,1,100,0|8
344,88,195771,1,8
472,136,195942,1,0
424,264,196114,6,0,L|408:312|344:312,1,100
264,136,196457,2,0,L|208:136|184:200,1,100,8|0
160,376,196800,5,0
160,376,196885,1,0
160,376,196971,1,8
296,344,197142,1,8
384,240,197314,6,0,L|384:184|336:144,1,100
350,155,197657,1,0
160,104,197828,2,0,L|112:72|112:16,2,100,8|0|0
288,168,198342,1,0
288,312,198514,1,8
168,384,198685,5,0
40,8,199028,1,0
432,80,199371,1,0
200,288,199714,5,0
328,136,199885,1,0
128,104,200057,1,0
256,192,200142,12,0,200914
256,232,201085,6,0,L|256:120,1,100,8|8
256,56,201428,1,0
184,136,201600,5,0
104,136,201771,1,0
328,208,201942,5,8
400,208,202114,1,0
184,288,202285,5,0
104,288,202457,1,0
328,352,202628,5,8
408,352,202800,1,0
256,320,202971,6,0,L|256:80,1,200,0|8
376,80,203485,2,0,L|496:80,2,100
144,80,204000,1,8
144,304,204171,1,0
376,304,204342,1,0
376,80,204514,2,0,L|376:184,2,100,0|8|0
256,80,205028,5,0
256,192,205200,1,0
152,192,205372,5,8
368,192,205543,1,8
256,192,205714,12,0,208457
