osu file format v8

[General]
AudioFilename: KEIKO , God Knows.mp3
AudioLeadIn: 3000
PreviewTime: 53657
Countdown: 0
SampleSet: Normal
StackLeniency: 0.7
Mode: 0
LetterboxInBreaks: 1
EpilepsyWarning: 1

[Editor]
Bookmarks: 0,10971,21771,31457,41142,53657,79542,101142,112457,128228,134400,159085,168685,183771
DistanceSpacing: 0.8
BeatDivisor: 4
GridSize: 8

[Metadata]
Title:God knows...
Artist:KEIKO
Creator:aspara
Version:Easy
Source:EXIT TRANCE PRESENTS CODE SPEED ANIME TRANCE BEST
Tags:trance

[Difficulty]
HPDrainRate:1
CircleSize:3
OverallDifficulty:2
ApproachRate:2
SliderMultiplier:0.699999999999999
SliderTickRate:1

[Events]
//Background and Video events
0,0,"bg.jpg"
//Break Periods
2,16656,20382
2,44085,47640
2,79742,83468
2,96199,99925
2,123628,127182
2,158942,167125
//Storyboard Layer 0 (Background)
//Storyboard Layer 1 (Fail)
//Storyboard Layer 2 (Pass)
//Storyboard Layer 3 (Foreground)
//Storyboard Sound Samples
//Background Colour Transformations
3,100,163,162,255

[TimingPoints]
0,342.857142857143,4,1,1,100,1,0
54857,-100,4,1,1,100,0,1
79457,-100,4,1,1,80,0,0
79628,-100,4,1,1,100,0,0
132942,-100,4,1,1,0,0,0
133114,-100,4,1,1,100,0,0
134400,-100,4,1,1,100,0,1
154885,-100,4,1,1,71,0,1
155057,-100,4,1,1,100,0,1
158657,-100,4,1,1,71,0,1
158828,-100,4,1,1,100,0,0
168342,-100,4,1,1,0,0,0
169028,-100,4,1,1,100,0,0
182142,-100,4,1,1,61,0,0
182485,-100,4,1,1,100,0,0
183771,-100,4,1,1,100,0,1
208114,-100,4,1,1,100,0,0

[Colours]
Combo1 : 81,168,255
Combo2 : 255,81,81
Combo3 : 81,255,81
Combo4 : 255,168,81
Combo5 : 255,81,255

[HitObjects]
80,128,0,2,0,L|101:156|101:220|125:252,1,140,0|0
237,252,1371,2,0,L|261:220|261:156|285:124,1,140
361,206,2742,2,0,L|385:238|385:302|345:334,1,140
244,324,4114,2,0,L|244:244,3,69.9999999999999,0|8|0|8
244,197,5485,6,0,L|196:197|164:157|108:157,1,140
43,236,6857,2,0,L|43:284|75:316|123:316,1,140
233,316,8228,5,0
233,203,8914,1,0
345,203,9600,2,0,L|345:123,3,69.9999999999999,0|8|0|8
288,133,10971,6,0,L|264:164|264:228|242:257,1,140
130,257,12342,2,0,L|108:228|108:164|84:132,1,140
163,52,13714,1,0
242,131,14400,1,0
321,51,15085,2,0,L|393:51,4,69.9999999999999,0|8|0|8|4
304,64,21942,6,0,L|352:64|392:104|392:152,1,140
312,218,23314,2,0,L|312:266|352:306|400:306,1,140
387,193,24685,6,0,L|387:157|347:117|299:117,1,140
187,117,26057,2,0,L|187:37,3,69.9999999999999,0|8|0|8
130,47,27428,6,0,L|129:95|89:135|41:135,1,140,0|0
53,247,28800,2,0,L|101:247|141:287|141:335,1,140
253,322,30171,2,0,L|253:286|293:246|341:246,1,140
340,133,31542,2,0,L|260:133,3,69.9999999999999,0|8|0|8
213,133,32914,6,0,L|212:181|172:221|124:221,1,140,0|0
87,120,34285,2,0,L|39:120|-1:160|-1:208,1,140
111,195,35657,2,0,L|159:195|199:235|199:283,1,140
311,270,37028,2,0,L|391:270,3,69.9999999999999,0|8|0|8
381,213,38400,6,0,L|381:177|341:137|293:137,1,140
181,137,39771,1,0
181,137,40457,1,0
181,248,41142,2,0,L|253:248,1,69.9999999999999
307,248,41828,2,0,L|307:168,1,69.9999999999999
250,178,42514,2,0,L|250:226,8,35,0|0|0|0|0|0|0|0|4
232,192,49200,6,0,L|184:192,5,35
280,192,50571,6,0,L|320:192,5,35
256,192,51771,12,4,53485
256,192,53828,5,0
256,192,54171,2,0,L|256:144,1,35
171,157,54857,6,0,L|149:185|149:249|125:281,1,140,0|0
203,360,56228,2,0,L|235:336|299:335|327:314,1,140,0|0
407,234,57600,1,0
407,122,58285,1,0
294,122,58971,2,0,L|294:42,3,69.9999999999999,0|8|0|8
237,52,60342,6,0,L|189:52|149:92|149:127,1,140
149,239,61714,2,0,L|148:287|108:327|60:327,1,140,0|0
0,247,63085,2,0,L|0:151|72:87|176:87,1,280
215,87,64800,1,0
215,87,65142,1,0
215,87,65485,1,0
215,143,65828,6,0,L|216:191|256:231|304:231,1,140,0|0
403,231,67200,2,0,L|402:279|362:319|314:319,1,140,0|0
214,319,68571,2,0,L|142:319,1,69.9999999999999,0|8
144,262,69257,2,0,L|224:262,1,69.9999999999999,0|8
214,205,69942,2,0,L|134:205,3,69.9999999999999,0|8|8|8
144,148,71314,6,0,L|184:120|280:120|336:80,1,210
372,121,72685,1,0
411,160,73028,1,8
411,216,73371,1,0
371,255,73714,1,8
256,192,74057,12,0,75085
200,192,75771,5,0
256,192,76114,1,0
312,192,76457,1,0
256,192,76800,12,0,79542
88,288,85028,6,0,L|168:288,1,69.9999999999999,0|8
214,288,85714,1,0
214,288,86057,1,8
214,231,86400,6,0,L|213:159,1,69.9999999999999,0|8
213,104,87085,1,0
213,104,87428,1,8
269,104,87771,6,0,L|344:104,1,69.9999999999999,0|8
339,160,88457,2,0,L|339:230,1,69.9999999999999,0|8
339,286,89142,2,0,L|384:288,6,35,0|0|8|0|0|8|8
282,286,90514,6,0,L|202:286,1,69.9999999999999,0|8
155,286,91200,1,0
155,286,91542,1,8
98,286,91885,6,0,L|98:206,1,69.9999999999999,0|8
98,159,92571,1,0
98,159,92914,1,8
98,102,93257,6,0,L|178:102,1,69.9999999999999,0|8
224,102,93942,2,0,L|224:182,1,69.9999999999999,0|8
224,228,94628,2,0,L|296:228,4,69.9999999999999,0|8|0|8|4
64,184,101485,6,0,L|120:136|200:136|240:96,1,210
295,96,102857,2,0,L|360:144|360:208|416:256,1,210
369,290,104228,2,0,L|312:240|240:240|200:304,1,210
167,252,105600,1,0
127,212,105942,1,8
127,155,106285,1,0
166,115,106628,1,8
222,115,106971,6,0,L|270:115|310:155|310:203,1,140
197,190,108342,2,0,L|198:238|238:278|286:278,1,140,0|0
384,280,109714,6,0,L|464:280,1,69.9999999999999,0|8
454,223,110400,2,0,L|368:224,1,69.9999999999999,0|8
384,167,111085,1,0
384,110,111428,1,8
344,70,111771,1,0
287,70,112114,1,8
287,126,112457,6,0,L|286:174|246:214|198:214,1,140,0|0
131,134,113828,2,0,L|83:134|43:174|43:222,1,140
122,288,115200,2,0,L|123:336|163:376|198:376,1,140,0|0
280,296,116571,2,0,L|280:216,3,69.9999999999999,0|8|0|8
280,169,117942,6,0,L|280:133|240:93|192:93,1,140
112,14,119314,2,0,L|111:62|71:102|35:102,1,140,0|0
114,181,120685,5,0
153,141,121028,1,0
192,180,121371,1,0
231,140,121714,1,0
272,184,122057,2,0,L|312:184,8,35
135,272,128742,5,0
135,272,128914,2,0,L|170:272|210:232|211:184,1,140,0|0
296,184,130114,5,0
296,184,130285,2,0,L|296:148|336:108|384:108,1,140
384,108,131314,1,0
256,192,131657,12,0,133028
256,192,133371,5,0
256,192,133714,2,0,L|256:144,1,35
256,72,134400,6,0,L|176:72,1,69.9999999999999,0|8
129,72,135085,1,0
129,72,135428,1,8
128,128,135771,6,0,L|128:208,1,69.9999999999999,0|8
128,254,136457,1,0
128,254,136800,1,8
183,254,137142,6,0,L|218:254|258:214|259:166,1,140,0|0
259,165,138171,1,8
259,165,138514,2,0,L|260:213|300:253|335:253,1,140,0|0
335,253,139542,1,8
392,256,139885,6,0,L|392:184|336:128|336:56,1,210
280,72,141257,2,0,L|240:136|168:136|128:192,1,210
92,226,142628,2,0,L|132:290|212:290|252:330,1,210
256,216,144342,5,0
256,216,144685,2,0,L|256:176,1,35
256,96,145371,6,0,L|291:96|331:136|332:183,1,140
332,295,146742,2,0,L|332:342|292:382|256:382,1,140
176,303,148114,2,0,L|140:303|100:263|100:215,1,140
100,215,149142,1,0
100,159,149485,2,0,L|100:79,3,69.9999999999999,0|8|0|8
156,89,150857,6,0,L|236:89|284:145|284:209,1,210
340,201,152228,2,0,L|340:129,3,69.9999999999999,0|8|0|8
396,131,153600,2,0,L|396:243|332:291|244:291,1,280
244,234,155314,5,0
244,177,155657,1,0
244,120,156000,1,0
256,192,156171,12,0,158742
256,192,168685,5,0
448,72,170057,6,0,L|384:72|320:120|320:192,1,210
376,186,171428,6,0,L|376:250|328:314|256:314,1,210
262,257,172800,6,0,L|262:191|198:143|134:143,1,210
94,182,174171,6,0,L|94:246|142:310|214:310,1,210
264,310,175542,6,0,L|264:22,1,280
320,30,177257,5,0
320,86,177600,1,0
320,141,177942,1,0
320,197,178285,2,0,L|240:197,3,69.9999999999999
256,144,179657,2,0,L|256:104,8,35
224,192,182228,5,0
224,192,182400,1,0
280,192,182742,5,0
280,192,183085,2,0,L|320:192,1,35
399,192,183771,6,0,L|399:112,1,69.9999999999999,0|8
399,65,184457,1,0
399,65,184800,1,8
343,65,185142,6,0,L|271:65,1,69.9999999999999,0|8
216,65,185828,1,0
216,65,186171,1,8
159,65,186514,6,0,L|159:137,1,69.9999999999999,0|8
102,135,187200,2,0,L|102:63,1,69.9999999999999,0|8
45,65,187885,2,0,L|21:105|21:241|45:265,1,210,0|8
80,300,189257,6,0,L|160:300|208:244|208:180,1,210,0|8
208,131,190628,2,0,L|288:131,1,69.9999999999999,0|8
278,74,191314,2,0,L|198:74,1,69.9999999999999,0|8
151,74,192000,5,0
111,113,192342,1,8
111,169,192685,1,0
150,208,193028,1,8
208,208,193371,2,0,L|360:208,1,140
348,208,194228,1,0
431,208,194742,6,0,L|431:288,1,69.9999999999999,0|8
431,334,195428,1,0
431,334,195771,1,8
374,334,196114,6,0,L|294:334,1,69.9999999999999,0|8
247,334,196800,1,0
247,334,197142,1,8
190,334,197485,6,0,L|190:262,1,69.9999999999999,0|8
133,264,198171,2,0,L|133:184,1,69.9999999999999,0|8
189,194,198857,2,0,L|189:122,1,69.9999999999999,0|8
132,124,199542,2,0,L|132:44,1,69.9999999999999,0|8
188,54,200228,6,0,L|212:94|276:94|300:118,1,140
296,112,201257,1,8
296,168,201600,6,0,L|216:168,1,69.9999999999999,0|8
226,224,202285,2,0,L|304:224,1,69.9999999999999,0|8
256,192,202971,12,0,204000
200,192,204685,5,0
256,192,205028,1,0
312,192,205371,1,0
256,192,205714,12,0,208457
