osu file format v6

[General]
AudioFilename: Hajimari no Sakamichi.mp3
AudioLeadIn: 0
PreviewTime: 69184
Countdown: 0
SampleSet: Soft
StackLeniency: 0.5
Mode: 0
LetterboxInBreaks: 0

[Editor]
DistanceSpacing: 1
BeatDivisor: 4
GridSize: 8

[Metadata]
Title:Hajimari no Sakamichi
Artist:KEDAMA
Creator:Zekira
Version:Karei ni CHEEEEN
Source:OHK
Tags:Touhou Chen MAD Oh!kun OH!K Epic Storyboard :D

[Difficulty]
HPDrainRate:7
CircleSize:5
OverallDifficulty:8
SliderMultiplier:1.6
SliderTickRate:2

[Events]
//Background and Video events
0,0,"bg.png"
//Break Periods
2,49474,68697
2,103995,127579
2,182505,216993
//Storyboard Layer 0 (Background)
//Storyboard Layer 1 (Fail)
//Storyboard Layer 2 (Pass)
//Storyboard Layer 3 (Foreground)
//Storyboard Sound Samples
//Background Colour Transformations
3,100,163,162,255

[TimingPoints]
23650,545.206724216265,4,2,0,70,1,0
69447,-100,4,2,0,70,0,1
104340,-100,4,2,0,70,0,0
147957,-100,4,2,0,70,0,1
182850,-100,4,2,0,70,0,0
217743,-100,4,2,0,70,0,1
241732,-100,4,2,0,70,0,0

[Colours]
Combo1 : 223,134,0
Combo2 : 4,179,4
Combo3 : 5,5,240
Combo4 : 240,5,5

[HitObjects]
32,192,32373,1,0
80,128,32645,1,0
120,192,32918,1,2
80,256,33191,1,0
120,328,33463,2,0,B|152:368|224:336,3,80,0|0|2|0
272,344,34554,5,0
352,336,34826,1,0
416,288,35099,1,2
416,208,35371,1,0
416,128,35644,2,0,B|408:32|288:32,1,160,0|2
224,32,36462,1,0
224,112,36734,5,0
144,112,37007,1,0
64,112,37280,1,2
64,232,37689,2,2,B|224:232,1,120
264,232,38370,1,0
344,232,38643,1,0
424,232,38915,5,0
424,152,39188,1,0
424,72,39460,1,0
344,72,39733,2,2,B|272:120|168:56,1,160,2|0
112,72,40551,1,2
112,152,40824,1,0
112,232,41096,6,0,B|112:288|56:320,2,80,0|0|2
24,152,42050,2,2,B|16:80|96:64,1,120
168,64,42732,2,0,B|280:64,1,80
328,64,43277,5,0
408,64,43550,2,2,B|440:192|304:296,1,240
280,336,44640,1,0
200,336,44913,1,2
120,336,45185,1,0
40,336,45458,6,0,B|8:296|56:232,1,80
40,184,46003,2,2,B|8:144|56:80,1,80
40,32,46548,1,0
40,32,46821,1,0
120,32,47093,1,2
120,32,47366,1,2
200,32,47639,5,0
280,32,47911,1,0
360,32,48184,1,2
440,32,48456,1,0
440,32,48593,2,2,B|440:176|376:240,1,200,0|6
448,192,69447,6,0,B|448:80,2,80,0|0|2
448,272,70265,1,0
448,272,70401,1,0
448,272,70537,1,0
368,272,70810,1,0
288,272,71082,2,2,B|252:313|192:250,1,80
136,272,71628,5,0
56,272,71900,1,0
56,192,72173,1,2
56,112,72446,1,0
56,112,72582,1,0
56,112,72718,1,0
136,112,72991,1,0
216,112,73263,1,2
296,112,73536,1,0
376,112,73809,6,4,B|464:112,2,80,0|0|2
376,192,74626,1,0
376,192,74763,1,0
376,192,74899,1,0
376,272,75172,1,0
296,272,75444,2,2,B|296:184,1,80
296,112,75989,5,0
296,112,76126,1,0
296,112,76262,1,2
240,176,76535,1,0
240,176,76671,1,0
240,176,76807,1,2
184,112,77080,2,0,B|120:192,2,80,0|2|0
240,48,77898,1,2
312,48,78170,6,0,B|352:24|400:56,2,80,0|0|2
312,128,78988,1,0
312,128,79124,1,0
312,128,79261,2,0,B|352:104|400:136,2,80,0|0|2
232,128,80078,1,0
152,128,80351,6,2,B|72:192|160:272,1,160
232,264,81169,1,0
232,264,81305,1,0
232,264,81441,1,0
312,264,81714,1,0
312,184,81987,1,2
232,184,82259,1,2
232,104,82532,6,0,B|144:48,1,80
112,120,83077,2,0,B|200:176,1,80
136,224,83622,2,0,B|48:168,1,80
16,240,84167,2,0,B|104:296,1,80
88,360,84713,2,2,B|264:336|352:160,1,320,2|6
56,40,86893,6,0,B|56:152,2,80,0|0|2
136,40,87711,1,0
136,40,87848,1,0
136,40,87984,1,0
216,40,88256,1,0
296,40,88529,2,2,B|296:136,1,80
296,200,89074,5,0
296,200,89211,1,0
296,200,89347,1,2
216,200,89620,1,0
216,200,89756,1,0
216,200,89892,1,2
136,200,90165,2,0,B|96:168|152:112,2,80,0|2|0
136,280,90983,1,0
216,280,91255,6,2,B|176:320|232:360,2,80,2|0|2
296,280,92073,1,0
296,280,92209,1,0
296,280,92346,1,0
376,280,92618,1,0
456,280,92891,2,2,B|488:240|443:193,1,80,2|0
456,136,93436,5,0
456,136,93572,1,0
456,136,93709,1,2
376,136,93981,1,0
376,136,94117,1,0
376,136,94254,1,2
296,136,94526,2,0,B|352:64,2,80,0|2|0
216,136,95344,1,0
136,136,95617,6,2,B|72:200|144:288,1,160,2|2
216,280,96435,1,0
216,280,96571,2,2,B|352:280,1,120,2|2
416,280,97252,1,2
496,280,97525,1,0
496,200,97798,6,0,B|496:112,2,80,0|0|2
416,200,98615,1,0
416,200,98752,1,0
416,200,98888,2,0,B|416:112,2,80,0|0|2
336,200,99706,1,0
336,280,99978,6,0,B|296:248|240:296,1,80
256,200,100524,2,2,B|216:168|160:216,1,80,2|0
176,120,101069,2,0,B|136:88|80:136,1,80,0|0
96,40,101614,2,2,B|56:8|0:56,1,80,2|0
256,208,102159,12,4,103795
40,240,128329,6,2,B|200:312|368:232,1,320
352,160,129692,1,0
304,96,129965,1,2
256,32,130237,1,0
176,32,130510,6,0,B|112:64|128:112,2,80,0|0|2
216,96,131328,2,0,B|160:216|256:320,1,240,0|2
336,320,132418,1,0
416,320,132691,6,0,B|416:224,2,80,0|0|2
496,320,133509,1,0
496,240,133781,2,0,B|496:144,2,80,0|0|2
432,192,134599,1,0
432,112,134872,5,0
352,112,135144,1,0
272,112,135417,1,2
192,112,135689,1,0
192,112,135826,2,2,B|88:176|144:288,1,200
224,280,136780,1,0
304,280,137052,6,2,B|448:80|176:56,1,320
136,64,138416,1,0
72,104,138688,1,2
8,152,138961,1,0
72,200,139233,6,0,B|40:256|128:280,2,80,0|2|2
152,200,140051,1,0
232,200,140324,1,0
232,200,140596,1,0
232,200,140869,1,2
312,200,141142,1,0
272,272,141414,5,0
272,112,141959,1,2
208,256,142505,1,0
208,96,143050,1,2
256,208,143595,12,4,146866
64,192,147957,6,0,B|64:304,2,80,0|0|2
64,112,148775,1,0
64,112,148911,1,0
64,112,149047,1,0
144,112,149320,1,0
224,112,149592,2,2,B|260:71|320:134,1,80
376,112,150138,5,0
456,112,150410,1,0
456,192,150683,1,2
456,272,150956,1,0
456,272,151092,1,0
456,272,151228,1,0
376,272,151501,1,0
296,272,151773,1,2
216,272,152046,1,0
136,272,152319,6,4,B|48:272,2,80,0|0|2
136,192,153136,1,0
136,192,153273,1,0
136,192,153409,1,0
136,112,153682,1,0
216,112,153954,2,2,B|216:200,1,80
216,272,154499,5,0
216,272,154636,1,0
216,272,154772,1,2
272,208,155045,1,0
272,208,155181,1,0
272,208,155317,1,2
328,272,155590,2,0,B|392:192,2,80,0|2|0
272,336,156408,1,2
200,336,156680,6,0,B|160:360|112:328,2,80,0|0|2
200,256,157498,1,0
200,256,157634,1,0
200,256,157771,2,0,B|160:280|112:248,2,80,0|0|2
280,256,158588,1,0
360,256,158861,6,2,B|440:192|352:112,1,160
280,120,159679,1,0
280,120,159815,1,0
280,120,159951,1,0
200,120,160224,1,0
200,200,160497,1,2
280,200,160769,1,2
280,280,161042,6,0,B|368:336,1,80
400,264,161587,2,0,B|312:208,1,80
376,160,162132,2,0,B|464:216,1,80
496,144,162677,2,0,B|408:88,1,80
424,24,163223,2,2,B|248:48|160:224,1,320,2|6
456,344,165403,6,0,B|456:232,2,80,0|0|2
376,344,166221,1,0
376,344,166358,1,0
376,344,166494,1,0
296,344,166766,1,0
216,344,167039,2,2,B|216:248,1,80
216,184,167584,5,0
216,184,167721,1,0
216,184,167857,1,2
296,184,168130,1,0
296,184,168266,1,0
296,184,168402,1,2
376,184,168675,2,0,B|416:216|360:272,2,80,0|2|0
376,104,169493,1,0
296,104,169765,6,2,B|336:64|280:24,2,80,2|0|2
216,104,170583,1,0
216,104,170719,1,0
216,104,170856,1,0
136,104,171128,1,0
56,104,171401,2,2,B|24:144|69:191,1,80,2|0
56,248,171946,5,0
56,248,172082,1,0
56,248,172219,1,2
136,248,172491,1,0
136,248,172627,1,0
136,248,172764,1,2
216,248,173036,2,0,B|160:320,2,80,0|2|0
296,248,173854,1,0
376,248,174127,6,2,B|440:184|368:96,1,160,2|2
296,104,174945,1,0
296,104,175081,2,2,B|160:104,1,120,2|2
96,104,175762,1,2
16,104,176035,1,0
16,184,176308,6,0,B|16:272,2,80,0|0|2
96,184,177125,1,0
96,184,177262,1,0
96,184,177398,2,0,B|96:272,2,80,0|0|2
176,184,178216,1,0
176,104,178488,6,0,B|216:136|272:88,1,80
256,184,179034,2,2,B|296:216|352:168,1,80,2|0
336,264,179579,2,0,B|376:296|432:248,1,80,0|0
416,344,180124,2,2,B|456:376|512:328,1,80,2|0
256,208,180669,12,4,182305
456,40,217743,6,0,B|456:152,2,80,4|0|2
376,40,218561,1,0
376,40,218698,1,0
376,40,218834,1,0
296,40,219106,1,0
216,40,219379,2,2,B|216:136,1,80
216,200,219924,5,0
216,200,220061,1,0
216,200,220197,1,2
296,200,220470,1,0
296,200,220606,1,0
296,200,220742,1,2
376,200,221015,2,0,B|416:168|360:112,2,80,0|2|0
376,280,221833,1,0
296,280,222105,6,2,B|336:320|280:360,2,80,2|0|2
216,280,222923,1,0
216,280,223059,1,0
216,280,223196,1,0
136,280,223468,1,0
56,280,223741,2,2,B|24:240|69:193,1,80,2|0
56,136,224286,5,0
56,136,224422,1,0
56,136,224559,1,2
136,136,224831,1,0
136,136,224967,1,0
136,136,225104,1,2
216,136,225376,2,0,B|160:64,2,80,0|2|0
296,136,226194,1,0
376,136,226467,6,2,B|440:200|368:288,1,160,2|2
296,280,227285,1,0
296,280,227421,2,2,B|160:280,1,120,2|2
96,280,228102,1,2
16,280,228375,1,0
16,200,228648,6,0,B|16:112,2,80,0|0|2
96,200,229465,1,0
96,200,229602,1,0
96,200,229738,2,0,B|96:112,2,80,0|0|2
176,200,230556,1,0
176,280,230828,6,0,B|216:248|272:296,1,80
256,200,231374,2,2,B|296:168|352:216,1,80,2|0
336,120,231919,2,0,B|376:88|432:136,1,80,0|0
416,40,232464,2,2,B|456:8|512:56,1,80,2|0
256,208,233009,12,4,234645
32,192,235190,5,0
112,192,235462,1,0
112,112,235735,1,2
192,112,236008,1,0
192,112,236144,1,0
192,112,236280,1,0
192,112,236416,1,0
192,112,236553,1,0
272,112,236825,2,2,B|312:80|368:128,1,80
424,112,237371,5,0
424,112,237507,1,0
424,112,237643,1,0
424,112,237779,1,0
424,112,237916,2,2,B|424:208,1,80
424,272,238461,1,0
424,272,238597,1,0
424,272,238734,1,0
424,272,238870,1,0
424,272,239006,1,2
256,208,239551,12,4,241732
