osu file format v14

[General]
AudioFilename: KAZE.O2SE-EarthQuake.mp3
AudioLeadIn: 0
PreviewTime: 60840
Countdown: 0
SampleSet: Normal
StackLeniency: 0.6
Mode: 2
LetterboxInBreaks: 1
WidescreenStoryboard: 0

[Editor]
Bookmarks: 14894
DistanceSpacing: 0.5
BeatDivisor: 8
GridSize: 4
TimelineZoom: 2.3

[Metadata]
Title:Earth Quake
TitleUnicode:Earth Quake
Artist:KAZE.o2SE
ArtistUnicode:KAZE.o2SE
Creator:ZHSteven
Version:CTB pro competition
Source:O2Jam
Tags:EQ
BeatmapID:102923
BeatmapSetID:31297

[Difficulty]
HPDrainRate:5
CircleSize:4
OverallDifficulty:9
ApproachRate:9
SliderMultiplier:2
SliderTickRate:2

[Events]
//Background and Video events
0,0,"495_Earth_Quake.jpg",0,0
//Break Periods
//Storyboard Layer 0 (Background)
//Storyboard Layer 1 (Fail)
//Storyboard Layer 2 (Pass)
//Storyboard Layer 3 (Foreground)
Sprite,Foreground,Centre,"exclamation_mark.png",320,240 F,0,49840,49940,0,1 F,0,49940,50040,1,0 M,0,50040,,165,317 F,0,50040,50140,0,1 S,0,50040,50140,0.3139199 F,0,50140,50240,1,0 S,0,50140,50240,0.3139199 F,0,50240,50340,0,1 S,0,50240,50340,0.3139199 F,0,50340,50440,1,0 S,0,50340,50440,0.3139199
Sprite,Foreground,Centre,"exclamation_mark.png",320,240 S,0,60040,,0.3548799 M,0,60040,60140,134,121 F,0,60040,60140,0,1 F,0,60140,60240,1,0 F,0,60240,60340,0,1 F,0,60340,60440,1,0 F,0,60440,60540,0,1 F,0,60540,60640,1,0 F,0,60640,60740,0,1 F,0,60740,60840,1,0
Sprite,Foreground,Centre,"exclamation_mark.png",320,240 M,0,68440,,510,189 S,0,68440,,0.3344 F,0,68440,68540,0,1 F,0,68540,68640,1,0 F,0,68640,68740,0,1 F,0,68740,68840,1,0
Sprite,Foreground,Centre,"exclamation_mark.png",320,240 M,0,85840,,402,235 S,0,85840,,0.3856001 F,0,85840,85940,0,1 F,0,85940,86040,1,0 F,0,86040,86140,0,1 F,0,86140,86240,1,0 F,0,86240,86340,0,1 F,0,86340,86440,1,0 F,0,86440,,0
Sprite,Foreground,Centre,"exclamation_mark.png",320,240 F,0,146440,146540,0,1 F,0,146540,146640,1,0 F,0,146640,146740,0,1 F,0,146740,146840,1,0 F,0,146840,146940,0,1 F,0,146940,147040,1,0 F,0,147040,147140,0,1 F,0,147140,147240,1,0
//Storyboard Sound Samples

[TimingPoints]
16040,400,4,2,0,0,1,0
20740,-100,4,2,0,60,0,0
22440,400,4,1,0,60,1,0
25540,-100,4,1,0,100,0,0
26790,-100,4,2,0,60,0,0
27390,-100,4,1,0,60,0,0
28740,-100,4,1,0,100,0,0
30140,-100,4,1,0,71,0,0
30340,-100,4,1,0,100,0,0
31540,-100,4,1,0,70,0,0
31740,-100,4,1,0,100,0,0
32040,-100,4,2,0,31,0,0
32140,-100,4,2,0,41,0,0
32190,-100,4,2,0,51,0,0
32240,-100,4,2,0,61,0,0
32290,-100,4,2,0,70,0,0
32340,-100,4,2,0,80,0,0
32390,-100,4,2,0,90,0,0
32440,-100,4,1,0,100,0,0
32490,-100,4,1,0,100,0,0
35240,-100,4,2,0,30,0,0
35340,-100,4,2,0,40,0,0
35390,-100,4,2,0,50,0,0
35440,-100,4,2,0,59,0,0
35490,-100,4,2,0,71,0,0
35540,-100,4,2,0,79,0,0
35590,-100,4,2,0,90,0,0
35640,-100,4,1,0,100,0,0
35690,-100,4,1,0,100,0,0
36440,-50,4,1,0,100,0,0
36840,-100,4,1,0,100,0,0
38440,-100,4,2,0,30,0,0
38540,-100,4,2,0,41,0,0
38590,-100,4,2,0,51,0,0
38640,-100,4,2,0,60,0,0
38690,-100,4,2,0,70,0,0
38740,-100,4,2,0,80,0,0
38790,-100,4,2,0,90,0,0
38840,-100,4,1,0,100,0,0
38890,-100,4,1,0,100,0,0
38940,-100,4,1,0,80,0,0
41390,-100,4,1,0,100,0,0
41790,-100,4,2,0,50,0,0
42240,-100,4,2,0,100,0,0
42840,-100,4,2,0,100,0,0
42940,-100,4,2,0,49,0,0
47590,-100,4,2,0,100,0,0
50390,-50,4,2,0,100,0,0
51190,-100,4,2,0,100,0,0
57240,-66.6666666666667,4,2,0,100,0,0
57640,-100,4,2,0,100,0,0
60840,-50,4,1,0,100,0,1
70440,-100,4,1,0,100,0,1
73440,-100,4,1,0,100,0,0
74715,-100,4,1,0,60,0,0
74815,-100,4,1,0,100,0,0
76315,-100,4,1,0,69,0,0
76415,-100,4,1,0,100,0,0
78140,-100,4,1,0,59,0,0
78340,-100,4,1,0,100,0,0
79740,-100,4,1,0,59,0,0
79940,-100,4,1,0,100,0,0
81340,-100,4,1,0,59,0,0
81540,-100,4,1,0,100,0,0
82940,-100,4,1,0,61,0,0
83140,-100,4,1,0,100,0,0
86240,-100,4,1,0,100,0,1
86390,-50,4,2,0,71,0,0
99235,-100,4,1,0,71,0,0
99335,-100,4,2,0,71,0,0
99435,-100,4,1,0,71,0,0
99535,-100,4,2,0,71,0,0
99935,-100,4,1,0,71,0,0
100035,-100,4,2,0,71,0,0
100135,-100,4,1,0,71,0,0
100335,-100,4,2,0,71,0,0
100835,-50,4,1,0,71,0,0
100935,-50,4,2,0,71,0,0
101535,-100,4,1,0,71,0,0
101635,-100,4,2,0,71,0,0
101735,-100,4,1,0,71,0,0
101935,-100,4,2,0,71,0,0
102435,-100,4,1,0,71,0,0
102535,-100,4,2,0,71,0,0
103135,-100,4,1,0,71,0,0
103235,-100,4,2,0,71,0,0
103335,-100,4,1,0,71,0,0
103535,-100,4,2,0,71,0,0
104035,-100,4,1,0,71,0,0
104135,-100,4,2,0,71,0,0
104735,-100,4,1,0,71,0,0
104835,-100,4,2,0,71,0,0
104935,-100,4,1,0,71,0,0
105135,-100,4,2,0,71,0,0
105635,-100,4,1,0,71,0,0
105735,-100,4,2,0,71,0,0
106335,-100,4,1,0,71,0,0
106435,-100,4,2,0,71,0,0
106535,-100,4,1,0,71,0,0
106735,-100,4,2,0,71,0,0
107235,-100,4,1,0,71,0,0
107335,-100,4,2,0,71,0,0
107435,-100,4,1,0,71,0,0
107535,-100,4,2,0,71,0,0
107935,-100,4,1,0,71,0,0
108035,-100,4,2,0,71,0,0
108135,-100,4,1,0,71,0,0
108335,-100,4,2,0,71,0,0
108840,-100,4,1,0,100,0,0
111990,-50,4,1,0,100,0,0
112290,-200,4,1,0,70,0,0
112590,-200,4,1,0,40,0,0
112790,-50,4,1,0,100,0,0
113090,-200,4,1,0,71,0,0
113390,-200,4,1,0,39,0,0
113590,-50,4,1,0,70,0,0
113990,-50,4,1,0,81,0,0
114390,-50,4,1,0,91,0,0
114790,-50,4,1,0,100,0,0
115240,-200,4,1,0,100,0,0
115440,-200,4,2,0,40,0,0
115740,-200,4,2,0,78,0,0
116040,-100,4,1,0,100,0,0
116240,-200,4,2,0,41,0,0
116640,-100,4,1,0,100,0,0
116840,-200,4,2,0,40,0,0
117240,-100,4,1,0,100,0,0
117440,-200,4,2,0,40,0,0
117640,-100,4,2,0,100,0,0
117840,-200,4,2,0,40,0,0
118440,-100,4,1,0,100,0,0
118640,-200,4,2,0,41,0,0
119240,-100,4,1,0,100,0,0
119440,-200,4,2,0,39,0,0
119840,-100,4,1,0,100,0,0
120040,-200,4,2,0,41,0,0
120440,-100,4,1,0,100,0,0
120640,-200,4,2,0,41,0,0
120840,-100,4,2,0,100,0,0
120840,-100,4,2,0,100,0,0
121040,-200,4,2,0,41,0,0
121640,-100,4,1,0,100,0,0
121840,-200,4,2,0,41,0,0
122440,-100,4,1,0,100,0,0
122640,-200,4,2,0,40,0,0
123040,-100,4,1,0,100,0,0
123140,-100,4,2,0,100,0,0
123240,-200,4,2,0,39,0,0
123640,-100,4,1,0,100,0,0
123840,-200,4,2,0,40,0,0
124040,-50,4,2,0,100,0,0
124240,-200,4,2,0,40,0,0
124840,-50,4,1,0,100,0,0
125040,-200,4,2,0,41,0,0
125640,-50,4,1,0,58,0,0
125740,-50,4,2,0,100,0,0
125840,-200,4,2,0,40,0,0
126240,-50,4,1,0,100,0,0
126440,-200,4,2,0,40,0,0
126840,-50,4,1,0,100,0,0
127040,-200,4,2,0,39,0,0
127240,-50,4,1,0,100,0,0
127290,-50,4,2,0,41,0,0
127440,-200,4,2,0,42,0,0
128040,-100,4,1,0,100,0,0
128240,-200,4,2,0,40,0,0
128840,-100,4,1,0,100,0,0
129040,-200,4,2,0,40,0,0
129440,-100,4,1,0,100,0,0
129540,-100,4,2,0,100,0,0
129640,-200,4,2,0,40,0,0
130040,-100,4,1,0,100,0,0
130240,-200,4,2,0,40,0,0
130440,-100,4,2,0,100,0,0
130640,-200,4,2,0,40,0,0
131240,-100,4,1,0,100,0,0
131440,-200,4,2,0,39,0,0
132040,-100,4,1,0,100,0,0
132240,-200,4,2,0,40,0,0
132640,-100,4,1,0,100,0,0
132840,-200,4,2,0,40,0,0
133240,-100,4,1,0,100,0,0
133440,-200,4,2,0,40,0,0
133640,-100,4,2,0,100,0,0
133840,-200,4,2,0,41,0,0
134440,-100,4,1,0,100,0,0
134640,-200,4,2,0,41,0,0
135240,-100,4,1,0,100,0,0
135290,-100,4,2,0,40,0,0
135440,-200,4,2,0,39,0,0
135840,-100,4,1,0,100,0,0
136040,-200,4,2,0,40,0,0
136440,-100,4,1,0,100,0,0
136640,-200,4,2,0,40,0,0
136840,-100,4,2,0,100,0,0
137040,-200,4,2,0,42,0,0
137640,-100,4,1,0,100,0,0
137840,-200,4,2,0,40,0,0
138440,-100,4,2,0,100,0,0
138640,-200,4,2,0,40,0,0
139040,-100,4,1,0,100,0,0
139240,-200,4,2,0,40,0,0
139640,-100,4,1,0,100,0,0
139840,-200,4,2,0,39,0,0
140040,-100,4,2,0,100,0,0
140840,-100,4,1,0,100,0,0
141340,-100,4,1,0,70,0,0
141590,-100,4,1,0,100,0,0
141940,-100,4,1,0,71,0,0
142190,-100,4,1,0,100,0,0
142540,-100,4,1,0,71,0,0
142790,-100,4,1,0,100,0,0
143140,-100,4,1,0,70,0,0
143390,-100,4,1,0,100,0,0
143590,-100,4,1,0,80,0,0
143790,-100,4,1,0,70,0,0
143990,-100,4,1,0,100,0,0
147240,-50,4,2,0,100,0,1
150440,-50,4,2,0,100,0,1
150540,-50,4,1,0,81,0,1
150640,-50,4,1,0,61,0,1
150740,-50,4,1,0,90,0,1
150840,-50,4,1,0,70,0,1
150940,-50,4,1,0,51,0,1
151040,-50,4,1,0,81,0,1
151140,-50,4,1,0,60,0,1
151240,-50,4,1,0,40,0,1
151340,-50,4,1,0,70,0,1
151440,-50,4,1,0,50,0,1
151540,-50,4,1,0,31,0,1
151640,-50,4,1,0,60,0,1
151740,-50,4,1,0,40,0,1
151840,-50,4,1,0,19,0,1
151940,-50,4,1,0,31,0,1
152040,-50,4,1,0,41,0,1
152140,-50,4,1,0,49,0,1
152240,-50,4,1,0,59,0,1
152340,-50,4,1,0,69,0,1
152440,-50,4,1,0,80,0,1
152540,-50,4,1,0,90,0,1
152640,-50,4,1,0,100,0,1
152840,-50,4,1,0,51,0,1
152940,-50,4,1,0,100,0,1
153040,-50,4,1,0,50,0,1
153140,-50,4,1,0,100,0,1
153190,-100,4,2,0,100,0,1
153640,-100,4,2,0,41,0,1
154440,-100,4,2,0,50,0,1
155140,-100,4,2,0,59,0,1
155640,-100,4,2,0,69,0,1
156040,-100,4,2,0,81,0,0
156240,-100,4,2,0,90,0,0
156440,-100,4,2,0,100,0,0
156640,-50,4,2,0,100,0,1
160440,-100,4,1,0,100,0,0
160640,-100,4,2,0,100,0,0
160740,-100,4,1,0,100,0,0
160840,-100,4,2,0,100,0,0
160940,-100,4,1,0,100,0,0
161140,-100,4,2,0,100,0,0
161240,-100,4,1,0,100,0,0
161440,-100,4,2,0,100,0,0
162040,-100,4,1,0,100,0,0
162240,-100,4,2,0,100,0,0
162340,-100,4,1,0,100,0,0
162440,-100,4,2,0,100,0,0
162540,-100,4,1,0,100,0,0
162740,-100,4,2,0,100,0,0
162840,-100,4,1,0,100,0,0
163040,-100,4,2,0,100,0,0
163640,-100,4,1,0,100,0,0
163840,-100,4,2,0,100,0,0
163940,-100,4,1,0,100,0,0
164040,-100,4,2,0,100,0,0
164140,-100,4,1,0,100,0,0
164340,-100,4,2,0,100,0,0
164440,-100,4,1,0,100,0,0
164640,-100,4,2,0,100,0,0
165240,-100,4,1,0,100,0,0
165440,-100,4,2,0,100,0,0
165540,-100,4,1,0,100,0,0
165640,-100,4,2,0,100,0,0
165740,-100,4,1,0,100,0,0
165940,-100,4,2,0,100,0,0
166040,-100,4,1,0,100,0,0
166240,-100,4,2,0,100,0,0
166840,-100,4,1,0,100,0,0
167040,-100,4,2,0,100,0,0
167140,-100,4,1,0,100,0,0
167240,-100,4,2,0,100,0,0
167340,-100,4,1,0,100,0,0
167540,-100,4,2,0,100,0,0
167640,-100,4,1,0,100,0,0
167840,-100,4,2,0,100,0,0
168440,-100,4,1,0,100,0,0
168640,-100,4,2,0,100,0,0
168740,-100,4,1,0,100,0,0
168840,-100,4,2,0,100,0,0
168940,-100,4,1,0,100,0,0
169140,-100,4,2,0,100,0,0
169240,-100,4,1,0,100,0,0
169440,-100,4,2,0,100,0,0
169640,-100,4,1,0,100,0,0
179440,-100,4,1,0,69,0,0
182340,-100,4,1,0,100,0,0
185640,-100,4,1,0,0,0,0
188840,-100,4,1,0,69,0,0
189240,-100,4,1,0,60,0,0
189640,-100,4,1,0,50,0,0
190040,-100,4,1,0,40,0,0
190440,-100,4,1,0,31,0,0
190840,-100,4,1,0,19,0,0
191240,-100,4,1,0,10,0,0
191640,-100,4,1,0,0,0,0

[Colours]
Combo1 : 79,0,0
Combo2 : 204,0,0
Combo3 : 79,0,0
Combo4 : 0,0,0

[HitObjects]
256,192,16040,12,0,17240,0:0:0:0:
198,162,17640,6,0,B|-20:187,1,200
315,170,18440,6,0,B|540:203,1,200
256,192,19240,12,0,20440,0:0:0:0:
24,216,20840,6,0,B|128:96,1,150
256,96,21440,1,0,0:0:0:0:
508,192,21640,6,0,B|480:32,1,150
288,160,22240,1,0,0:0:0:0:
0,136,22440,5,4,0:0:0:0:
75,181,22540,1,0,0:0:0:0:
0,224,22640,1,8,0:0:0:0:
300,192,23040,1,0,0:0:0:0:
112,192,23240,2,0,B|348:192,1,200,8|0,0:0|0:0,0:0:0:0:
80,288,23840,2,0,B|292:288,1,200
512,264,24440,2,0,B|276:260,1,200,8|0,0:0|0:0,0:0:0:0:
392,140,25040,1,8,0:0:0:0:
200,200,25240,1,0,0:0:0:0:
284,152,25440,1,4,0:0:0:0:
504,137,25640,6,0,B|512:16|368:40|272:40|176:168|240:264|368:232,1,500
264,72,26840,1,0,0:0:0:0:
316,164,26940,1,0,0:0:0:0:
228,136,27040,1,2,0:0:0:0:
160,96,27140,1,2,0:0:0:0:
80,76,27240,2,0,B|-32:200|85:226|85:226|320:228,1,400
352,228,28240,1,0,0:0:0:0:
136,276,28440,1,8,0:0:0:0:
28,176,28640,1,0,0:0:0:0:
192,272,28840,5,0,0:0:0:0:
296,192,29040,1,0,0:0:0:0:
48,132,29240,1,8,0:0:0:0:
248,128,29440,1,0,0:0:0:0:
248,128,29540,1,0,0:0:0:0:
120,176,29740,1,0,0:0:0:0:
120,176,29840,1,0,0:0:0:0:
376,176,30040,2,8,B|270:207,1,100,10|0,0:0|0:0,0:0:0:0:
484,144,30440,5,0,0:0:0:0:
296,296,30640,1,0,0:0:0:0:
484,240,30840,1,8,0:0:0:0:
301,171,31040,1,0,0:0:0:0:
301,171,31140,1,0,0:0:0:0:
96,88,31340,1,0,0:0:0:0:
96,88,31440,1,0,0:0:0:0:
328,56,31640,1,10,0:0:0:0:
104,52,31840,1,0,0:0:0:0:
192,140,32040,6,0,B|224:172|224:172,3,25
264,208,32240,6,0,B|296:240|296:240,3,25
240,176,32440,5,8,0:0:0:0:
84,112,32640,5,0,0:0:0:0:
196,112,32740,1,0,0:0:0:0:
32,216,32940,1,0,0:0:0:0:
120,216,33040,1,0,0:0:0:0:
200,216,33140,1,0,0:0:0:0:
292,216,33240,1,10,0:0:0:0:
164,224,33440,1,0,0:0:0:0:
316,96,33640,5,0,0:0:0:0:
156,152,33840,1,0,0:0:0:0:
220,128,34040,1,8,0:0:0:0:
432,96,34240,1,0,0:0:0:0:
316,96,34340,1,0,0:0:0:0:
480,216,34540,1,0,0:0:0:0:
392,216,34640,1,0,0:0:0:0:
312,216,34740,1,0,0:0:0:0:
220,216,34840,1,10,0:0:0:0:
384,216,35040,1,0,0:0:0:0:
112,88,35240,6,0,B|152:88,7,25
200,88,35640,1,8,0:0:0:0:
428,76,35840,2,0,B|428:140,1,50
256,192,36140,1,0,0:0:0:0:
256,232,36240,1,0,0:0:0:0:
256,272,36340,1,0,0:0:0:0:
252,320,36440,1,8,0:0:0:0:
156,320,36540,1,0,0:0:0:0:
252,320,36640,1,0,0:0:0:0:
356,320,36740,5,0,0:0:0:0:
256,88,36840,1,0,0:0:0:0:
156,84,37040,1,0,0:0:0:0:
328,88,37240,1,8,0:0:0:0:
84,76,37440,2,0,B|84:140,1,50
240,192,37740,1,0,0:0:0:0:
240,232,37840,1,0,0:0:0:0:
240,272,37940,1,0,0:0:0:0:
244,320,38040,1,10,0:0:0:0:
352,320,38140,1,0,0:0:0:0:
244,320,38240,2,0,B|244:264,2,50
240,112,38440,6,0,B|208:80,7,25
200,72,38840,1,8,0:0:0:0:
272,72,38940,1,0,0:0:0:0:
336,72,39040,1,0,0:0:0:0:
400,76,39140,1,0,0:0:0:0:
468,72,39240,1,0,0:0:0:0:
376,140,39340,1,0,0:0:0:0:
264,140,39440,1,0,0:0:0:0:
464,72,39640,2,0,B|464:176,1,100,10|0,0:0|0:0,0:0:0:0:
260,192,40040,5,0,0:0:0:0:
196,192,40140,1,0,0:0:0:0:
256,256,40240,1,0,0:0:0:0:
324,256,40340,1,0,0:0:0:0:
256,324,40440,2,0,B|360:324,1,100,8|0,0:0|0:0,0:0:0:0:
256,324,40740,1,0,0:0:0:0:
156,324,40840,1,0,0:0:0:0:
48,324,40940,1,0,0:0:0:0:
156,324,41040,1,0,0:0:0:0:
260,324,41140,1,0,0:0:0:0:
156,228,41240,2,2,B|156:332,1,100,10|0,0:0|0:0,0:0:0:0:
368,332,41640,5,6,0:0:0:0:
152,332,41840,1,2,0:0:0:0:
336,328,42040,2,0,B|336:264,1,50
336,216,42240,1,2,0:0:0:0:
142,141,42440,2,0,B|96:160,1,50
196,116,42640,1,0,0:0:0:0:
456,112,42840,6,0,B|392:112,1,50,2|0,0:0|0:0,0:0:0:0:
352,112,43040,1,0,0:0:0:0:
136,224,43240,1,0,0:0:0:0:
208,180,43340,1,0,0:0:0:0:
136,144,43440,1,2,0:0:0:0:
0,160,43640,2,0,B|56:160,1,50
104,164,43840,1,0,0:0:0:0:
284,160,44040,6,0,B|204:160,1,50,2|0,0:0|0:0,0:0:0:0:
136,160,44240,1,0,0:0:0:0:
224,244,44340,1,0,0:0:0:0:
384,284,44440,2,0,B|328:284,2,50,2|0|2,0:0|0:0|0:0,0:0:0:0:
232,160,44840,5,2,0:0:0:0:
92,104,45040,5,0,0:0:0:0:
132,108,45140,1,0,0:0:0:0:
184,144,45240,1,0,0:0:0:0:
224,196,45340,1,0,0:0:0:0:
384,192,45440,1,2,0:0:0:0:
456,92,45640,5,0,0:0:0:0:
396,120,45740,1,0,0:0:0:0:
320,160,45840,1,0,0:0:0:0:
240,208,45940,1,0,0:0:0:0:
44,216,46040,1,2,0:0:0:0:
148,212,46240,5,2,0:0:0:0:
200,160,46340,1,0,0:0:0:0:
152,120,46440,1,0,0:0:0:0:
372,120,46640,1,0,0:0:0:0:
236,56,46840,5,0,0:0:0:0:
308,88,46940,1,0,0:0:0:0:
372,120,47040,1,0,0:0:0:0:
428,152,47140,1,0,0:0:0:0:
232,160,47240,1,2,0:0:0:0:
312,216,47440,5,0,0:0:0:0:
100,160,47640,5,2,0:0:0:0:
64,240,47840,5,2,0:0:0:0:
256,112,48040,6,8,B|320:64|368:112,1,100,0|0,0:0|0:0,0:0:0:0:
508,144,48440,1,8,0:0:0:0:
280,196,48640,2,0,B|220:296,1,100
448,264,49040,1,0,0:0:0:0:
228,281,49240,6,2,B|288:193,1,100,8|0,0:0|0:0,0:0:0:0:
28,160,49640,1,0,0:0:0:0:
232,164,49840,2,0,B|352:164,2,100,0|8|0,0:0|0:0|0:0,0:0:0:0:
32,208,50440,2,0,B|224:352|392:56|208:-24|-32:0|24:176,1,600,2|0,0:0|0:0,0:0:0:0:
232,172,51240,5,2,0:0:0:0:
460,152,51440,2,0,B|363:179,1,100,0|8,0:0|0:0,0:0:0:0:
128,176,51840,1,0,0:0:0:0:
344,268,52040,2,0,B|386:311|434:279,1,100
208,232,52440,1,8,0:0:0:0:
8,84,52640,1,0,0:0:0:0:
256,192,52840,12,2,54040,0:0:0:0:
0,200,54440,5,2,0:0:0:0:
72,200,54540,1,0,0:0:0:0:
140,200,54640,1,2,0:0:0:0:
208,200,54740,1,0,0:0:0:0:
276,200,54840,1,8,0:0:0:0:
128,304,55040,1,0,0:0:0:0:
368,296,55240,5,2,0:0:0:0:
440,200,55340,1,0,0:0:0:0:
372,200,55440,1,2,0:0:0:0:
304,200,55540,1,0,0:0:0:0:
236,200,55640,1,8,0:0:0:0:
488,64,55840,1,0,0:0:0:0:
256,72,56040,5,2,0:0:0:0:
196,72,56140,1,0,0:0:0:0:
256,72,56240,1,0,0:0:0:0:
316,72,56340,1,0,0:0:0:0:
168,252,56440,5,10,0:0:0:0:
92,252,56540,1,0,0:0:0:0:
20,252,56640,1,0,0:0:0:0:
92,252,56740,1,0,0:0:0:0:
240,136,56840,6,0,B|190:136,1,50,2|0,0:0|0:0,0:0:0:0:
308,220,57040,2,0,B|258:220,1,50,2|0,0:0|0:0,0:0:0:0:
60,200,57240,6,2,B|119:136,1,75.0000028610231,10|2,0:0|0:0,0:0:0:0:
320,184,57440,2,2,B|352:100,1,75.0000028610231,10|2,0:0|0:0,0:0:0:0:
444,264,57640,5,0,0:0:0:0:
368,264,57740,1,0,0:0:0:0:
292,264,57840,1,0,0:0:0:0:
368,268,57940,1,0,0:0:0:0:
448,264,58040,1,8,0:0:0:0:
256,192,58240,1,0,0:0:0:0:
68,264,58440,5,0,0:0:0:0:
144,264,58540,1,0,0:0:0:0:
220,264,58640,1,0,0:0:0:0:
144,268,58740,1,0,0:0:0:0:
64,264,58840,1,8,0:0:0:0:
256,124,59040,1,0,0:0:0:0:
416,116,59240,6,0,B|356:172,3,50,2|0|0|0,0:0|0:0|0:0|0:0,0:0:0:0:
248,124,59640,6,0,B|216:184,3,50,10|0|0|0,0:0|0:0|0:0|0:0,0:0:0:0:
52,112,60040,2,0,B|102:115,1,50,2|0,0:0|0:0,0:0:0:0:
204,192,60240,2,0,B|154:192,1,50
252,256,60440,2,0,B|204:224|140:256,2,100,8|0|8,0:0|0:0|0:0,0:0:0:0:
304,200,60840,6,2,B|240:72|128:72|-32:184|-32:280|176:344|352:248,1,600,10|0,0:0|0:0,0:0:0:0:
440,140,61640,2,2,B|504:332|408:396|184:332,1,400,2|0,0:0|0:0,0:0:0:0:
352,224,62240,1,0,0:0:0:0:
96,152,62440,6,0,B|176:40|368:72|416:264,1,400,10|0,0:0|0:0,0:0:0:0:
156,240,63040,2,0,B|156:112|220:-16|428:144,1,400,2|0,0:0|0:0,0:0:0:0:
200,100,63640,2,0,B|84:160|84:160|340:272,1,400
380,272,64040,6,2,C|308:180|204:164,1,200,2|0,0:0|0:0,0:0:0:0:
376,208,64440,2,2,C|207:172|190:227,1,200
444,208,64840,2,2,B|457:59|577:91|585:259|481:371|434:375,1,400
254,199,65440,1,0,0:0:0:0:
0,68,65640,6,0,C|172:184,1,200,2|0,0:0|0:0,0:0:0:0:
40,192,66040,1,2,0:0:0:0:
196,248,66240,1,0,0:0:0:0:
343,170,66440,1,8,0:0:0:0:
384,172,66440,1,0,0:0:0:0:
184,76,66840,1,2,0:0:0:0:
512,17,67240,6,2,L|328:124,1,200,0|2,0:0|0:0,0:0:0:0:
485,169,67640,1,0,0:0:0:0:
292,272,67840,1,2,0:0:0:0:
77,114,68040,2,2,L|277:114,1,200,0|2,0:0|0:0,0:0:0:0:
272,200,68640,1,2,0:0:0:0:
72,208,68840,6,0,L|193:49,3,200
360,88,69640,1,0,0:0:0:0:
392,88,69640,1,0,0:0:0:0:
84,112,70040,1,2,0:0:0:0:
84,112,70240,1,0,0:0:0:0:
328,192,70440,5,4,0:0:0:0:
292,192,70440,1,0,0:0:0:0:
144,196,70740,1,4,0:0:0:0:
292,192,71040,1,4,0:0:0:0:
44,192,71240,1,12,0:0:0:0:
80,192,71240,1,0,0:0:0:0:
332,124,71540,1,4,0:0:0:0:
168,128,71840,1,0,0:0:0:0:
380,224,72240,5,0,0:0:0:0:
324,164,72340,1,0,0:0:0:0:
384,108,72440,1,12,0:0:0:0:
208,248,72640,1,0,0:0:0:0:
480,48,72840,1,12,0:0:0:0:
452,48,72840,1,0,0:0:0:0:
0,148,73140,1,4,0:0:0:0:
204,140,73440,1,12,0:0:0:0:
328,208,73640,5,0,0:0:0:0:
380,128,73840,1,0,0:0:0:0:
224,128,74040,2,0,L|144:220,1,100,8|0,0:0|0:0,0:0:0:0:
312,128,74340,2,0,B|400:236|408:212,1,100
312,244,74640,1,0,0:0:0:0:
240,256,74740,1,0,0:0:0:0:
184,224,74840,6,0,B|72:144|120:48|312:48|392:176,1,400,8|8,0:0|0:0,0:0:0:0:
160,200,75840,5,0,0:0:0:0:
224,212,75940,1,0,0:0:0:0:
16,336,76140,1,0,0:0:0:0:
56,336,76240,1,0,0:0:0:0:
96,336,76340,1,0,0:0:0:0:
136,336,76440,2,0,B|264:336|-64:200|-24:56|88:36,1,400,8|8,0:0|0:0,0:0:0:0:
256,120,77440,5,0,0:0:0:0:
188,120,77540,1,0,0:0:0:0:
396,200,77740,1,0,0:0:0:0:
328,200,77840,1,0,0:0:0:0:
484,272,78040,1,8,0:0:0:0:
320,280,78240,1,0,0:0:0:0:
144,244,78440,5,0,0:0:0:0:
260,116,78640,1,0,0:0:0:0:
476,104,78840,1,8,0:0:0:0:
218,115,79040,1,0,0:0:0:0:
220,156,79140,1,0,0:0:0:0:
428,104,79340,1,0,0:0:0:0:
320,112,79440,1,0,0:0:0:0:
144,164,79640,2,0,B|120:244|296:296,1,200,4|0,0:0|0:0,0:0:0:0:
244,260,80140,5,0,0:0:0:0:
280,208,80240,1,0,0:0:0:0:
228,176,80340,1,0,0:0:0:0:
172,152,80440,1,8,0:0:0:0:
380,80,80640,1,0,0:0:0:0:
340,80,80740,1,0,0:0:0:0:
104,88,80940,1,0,0:0:0:0:
152,88,81040,1,0,0:0:0:0:
104,88,81140,1,0,0:0:0:0:
216,88,81240,1,8,0:0:0:0:
376,112,81440,1,0,0:0:0:0:
512,152,81640,5,0,0:0:0:0:
472,200,81740,1,0,0:0:0:0:
376,136,81840,1,0,0:0:0:0:
276,176,81940,1,0,0:0:0:0:
244,224,82040,1,8,0:0:0:0:
480,328,82240,1,0,0:0:0:0:
440,328,82340,1,0,0:0:0:0:
312,328,82540,1,0,0:0:0:0:
239,328,82640,1,0,0:0:0:0:
4,336,82840,1,8,0:0:0:0:
164,332,83040,1,0,0:0:0:0:
368,316,83240,5,4,0:0:0:0:
144,208,83540,1,0,0:0:0:0:
216,204,83640,1,8,0:0:0:0:
388,124,83840,1,4,0:0:0:0:
4,32,84040,1,0,0:0:0:0:
264,80,84340,1,0,0:0:0:0:
200,80,84440,1,8,0:0:0:0:
512,16,84640,1,4,0:0:0:0:
124,316,85040,5,0,0:0:0:0:
164,316,85140,1,4,0:0:0:0:
204,316,85240,1,8,0:0:0:0:
76,216,85440,1,4,0:0:0:0:
212,232,85640,2,0,B|344:144,1,150
328,80,86040,2,0,B|240:84,1,50
344,128,86240,2,0,B|352:192,1,50
352,240,86440,6,0,L|392:280|448:224,1,100
356,244,86640,2,0,L|300:228|292:172,1,100
216,172,86840,6,0,L|284:156|256:200,1,100,8|0,0:0|0:0,0:0:0:0:
216,172,87040,2,0,L|168:180|152:116,1,100
216,176,87240,6,0,L|160:200|152:248,1,100
216,176,87440,2,0,L|264:192|284:240,1,100
348,160,87640,6,0,L|280:244,1,100,8|0,0:0|0:0,0:0:0:0:
420,96,87840,2,0,L|500:188,1,100
416,100,88040,6,0,L|316:100,1,100
208,124,88240,2,0,L|300:176,1,100
208,124,88440,6,0,L|256:148|280:100,1,100,8|0,0:0|0:0,0:0:0:0:
204,124,88640,2,0,L|148:116|156:44,1,100
88,120,88840,6,0,L|164:32,1,100
208,137,89040,2,0,L|163:47,1,100
44,120,89240,6,0,L|136:188,1,100
240,160,89440,2,0,L|132:160,1,100
0,176,89640,6,0,L|0:304,1,100
100,276,89840,2,0,L|8:344,1,100
104,276,90040,6,0,L|104:172,1,100,8|0,0:0|0:0,0:0:0:0:
200,272,90240,2,0,L|100:344,1,100
180,276,90440,6,0,L|296:320,1,100
204,272,90640,2,0,B|160:160,1,100
64,272,90840,6,0,L|136:180,2,100,8|0|0,0:0|0:0|0:0,0:0:0:0:
164,240,91140,1,0,0:0:0:0:
132,160,91240,6,0,L|68:152|84:104,1,100
196,112,91440,2,0,L|164:64|180:16,1,100
272,120,91640,2,0,L|304:68|288:20,1,100
336,164,91840,2,0,L|400:156|384:108,1,100
460,280,92040,6,0,B|524:288,1,50,8|0,0:0|0:0,0:0:0:0:
460,280,92140,6,0,B|492:232,1,50
460,280,92240,6,0,B|404:264,1,50
356,248,92340,6,0,B|324:296,1,50
288,288,92440,6,0,B|288:352,1,50,8|0,0:0|0:0,0:0:0:0:
256,264,92540,6,0,B|188:260,1,50
204,264,92640,6,0,B|140:248,1,50,8|0,0:0|0:0,0:0:0:0:
144,288,92840,6,0,B|96:188,1,100
16,144,93040,2,0,B|104:200,1,100
184,188,93240,6,0,B|116:96,1,100,8|0,0:0|0:0,0:0:0:0:
184,192,93440,2,0,B|272:248,1,100
384,244,93640,6,0,B|280:232,1,100
320,112,93840,2,0,B|416:48,1,100
320,112,94040,6,0,B|272:224,1,100,8|0,0:0|0:0,0:0:0:0:
280,124,94240,2,0,B|408:124,1,100
464,200,94440,6,0,B|408:112,1,100
320,80,94640,2,0,B|428:120,1,100
376,232,94840,6,0,B|272:200,1,100,8|0,0:0|0:0,0:0:0:0:
172,164,95040,2,0,B|212:280,1,100
276,160,95240,6,0,B|356:80,1,100
236,160,95440,2,0,B|156:80,1,100
276,224,95640,6,0,B|372:320,1,100
232,224,95840,2,0,B|152:304,1,100
8,304,96040,6,0,B|56:192,1,100
112,220,96240,2,0,B|224:204,1,100
352,192,96440,6,0,B|240:224,1,100,8|0,0:0|0:0,0:0:0:0:
192,208,96640,2,0,B|144:112,1,100
272,80,96840,6,0,B|192:160,1,100
272,208,97040,2,0,B|352:272,1,100
392,184,97240,6,0,B|512:152,2,100
304,128,97540,1,0,0:0:0:0:
192,240,97640,6,0,B|168:352,1,100
256,264,97840,2,0,B|160:216,1,100
224,184,98040,6,0,B|160:104,1,100,8|0,0:0|0:0,0:0:0:0:
68,112,98240,2,0,B|148:188,1,100
256,92,98440,6,0,B|316:92,3,50,0|0|0|0,0:0|0:0|0:0|0:0,0:0:0:0:
248,176,98640,6,0,B|188:176,3,50
160,144,98840,6,0,B|208:188,3,50,8|0|0|0,0:0|0:0|0:0|0:0,0:0:0:0:
216,184,99040,6,0,B|212:260,3,50
256,112,99240,5,0,0:0:0:0:
212,112,99240,1,0,0:0:0:0:
412,100,99440,1,0,0:0:0:0:
340,100,99540,1,2,0:0:0:0:
268,100,99640,1,8,0:0:0:0:
416,272,99840,5,2,0:0:0:0:
416,188,99940,1,0,0:0:0:0:
336,192,100040,1,2,0:0:0:0:
252,192,100140,1,0,0:0:0:0:
164,192,100240,1,0,0:0:0:0:
256,276,100340,1,2,0:0:0:0:
336,276,100440,1,8,0:0:0:0:
200,88,100640,5,2,0:0:0:0:
112,88,100740,1,0,0:0:0:0:
200,88,100840,2,0,L|300:156,1,100
96,136,101140,2,0,L|64:240,1,100,0|8,0:0|0:0,0:0:0:0:
124,232,101240,1,0,0:0:0:0:
296,312,101440,5,2,0:0:0:0:
340,312,101540,1,0,0:0:0:0:
272,248,101640,1,2,0:0:0:0:
184,248,101740,1,0,0:0:0:0:
260,192,101840,1,0,0:0:0:0:
344,144,101940,1,2,0:0:0:0:
176,136,102040,1,8,0:0:0:0:
360,96,102240,1,2,0:0:0:0:
192,52,102440,5,2,0:0:0:0:
152,52,102440,1,0,0:0:0:0:
380,116,102740,1,2,0:0:0:0:
304,120,102840,1,8,0:0:0:0:
112,220,103040,5,2,0:0:0:0:
104,144,103140,1,0,0:0:0:0:
188,144,103240,1,2,0:0:0:0:
104,144,103340,1,0,0:0:0:0:
188,144,103440,1,0,0:0:0:0:
280,128,103540,1,2,0:0:0:0:
380,128,103640,1,8,0:0:0:0:
196,176,103840,1,2,0:0:0:0:
512,104,104040,5,2,0:0:0:0:
456,104,104040,1,0,0:0:0:0:
192,100,104240,1,0,0:0:0:0:
284,164,104340,1,2,0:0:0:0:
340,96,104440,1,8,0:0:0:0:
160,312,104640,5,2,0:0:0:0:
68,320,104740,1,0,0:0:0:0:
196,224,104840,1,2,0:0:0:0:
108,224,104940,1,0,0:0:0:0:
356,272,105140,1,2,0:0:0:0:
356,176,105240,1,8,0:0:0:0:
200,152,105440,1,2,0:0:0:0:
72,92,105640,5,2,0:0:0:0:
16,92,105640,1,0,0:0:0:0:
40,172,105740,1,0,0:0:0:0:
144,172,105840,1,0,0:0:0:0:
236,196,105940,1,2,0:0:0:0:
128,264,106040,1,8,0:0:0:0:
328,296,106240,5,2,0:0:0:0:
328,240,106340,1,0,0:0:0:0:
428,188,106440,1,2,0:0:0:0:
328,144,106540,1,0,0:0:0:0:
216,192,106640,1,0,0:0:0:0:
208,120,106740,1,2,0:0:0:0:
332,60,106840,1,8,0:0:0:0:
388,172,107040,1,2,0:0:0:0:
512,120,107240,5,2,0:0:0:0:
512,40,107340,1,0,0:0:0:0:
388,48,107440,1,0,0:0:0:0:
256,48,107540,1,2,0:0:0:0:
320,48,107640,1,8,0:0:0:0:
256,48,107840,5,2,0:0:0:0:
256,48,107940,1,0,0:0:0:0:
136,56,108040,1,2,0:0:0:0:
8,56,108140,1,0,0:0:0:0:
76,56,108240,1,0,0:0:0:0:
8,56,108440,1,8,0:0:0:0:
120,208,108640,1,2,0:0:0:0:
8,208,108840,5,4,0:0:0:0:
268,208,109140,1,0,0:0:0:0:
120,208,109440,1,4,0:0:0:0:
404,204,109640,5,4,0:0:0:0:
192,208,109940,1,4,0:0:0:0:
324,208,110240,1,4,0:0:0:0:
64,288,110640,5,6,0:0:0:0:
0,272,110740,1,2,0:0:0:0:
64,248,110840,1,4,0:0:0:0:
324,240,111040,1,2,0:0:0:0:
136,236,111240,5,2,0:0:0:0:
308,64,111540,1,2,0:0:0:0:
144,164,111840,1,6,0:0:0:0:
336,192,112040,5,4,0:0:0:0:
368,152,112340,1,0,0:0:0:0:
408,112,112640,1,0,0:0:0:0:
168,192,112840,5,4,0:0:0:0:
128,160,113140,1,0,0:0:0:0:
84,128,113440,1,0,0:0:0:0:
340,292,113640,5,4,0:0:0:0:
56,72,114040,1,0,0:0:0:0:
512,16,114440,5,6,0:0:0:0:
0,364,114840,1,6,0:0:0:0:
244,268,115240,5,0,0:0:0:0:
404,256,115440,1,0,0:0:0:0:
340,224,115540,1,0,0:0:0:0:
404,176,115640,1,0,0:0:0:0:
236,108,115840,1,0,0:0:0:0:
68,160,116040,1,8,0:0:0:0:
288,164,116240,1,0,0:0:0:0:
216,168,116340,1,0,0:0:0:0:
144,164,116440,1,0,0:0:0:0:
280,272,116640,5,0,0:0:0:0:
36,280,116840,1,0,0:0:0:0:
220,272,117040,1,0,0:0:0:0:
132,164,117240,1,0,0:0:0:0:
492,44,117640,1,8,0:0:0:0:
288,92,117840,1,0,0:0:0:0:
336,144,117940,1,0,0:0:0:0:
184,188,118040,2,0,B|292:192,1,100
156,208,118640,1,0,0:0:0:0:
96,176,118740,5,0,0:0:0:0:
104,252,118840,1,0,0:0:0:0:
320,232,119040,1,0,0:0:0:0:
136,104,119240,1,8,0:0:0:0:
340,88,119440,1,0,0:0:0:0:
404,128,119540,1,0,0:0:0:0:
312,148,119640,1,0,0:0:0:0:
512,240,119840,5,0,0:0:0:0:
96,264,120040,1,0,0:0:0:0:
128,172,120240,1,0,0:0:0:0:
384,192,120440,1,0,0:0:0:0:
96,128,120840,1,8,0:0:0:0:
420,72,121040,1,0,0:0:0:0:
248,200,121240,2,0,B|140:236,1,100
412,192,121840,5,0,0:0:0:0:
340,232,121940,1,0,0:0:0:0:
280,200,122040,1,0,0:0:0:0:
484,108,122240,1,0,0:0:0:0:
260,112,122440,1,8,0:0:0:0:
136,188,122640,1,8,0:0:0:0:
364,236,122840,1,0,0:0:0:0:
168,188,123040,5,0,0:0:0:0:
120,176,123140,1,0,0:0:0:0:
72,160,123240,1,0,0:0:0:0:
392,252,123440,1,0,0:0:0:0:
248,188,123640,1,0,0:0:0:0:
120,100,123840,1,0,0:0:0:0:
352,116,124040,1,8,0:0:0:0:
128,100,124240,1,0,0:0:0:0:
168,160,124340,1,0,0:0:0:0:
24,164,124440,1,0,0:0:0:0:
32,240,124840,5,0,0:0:0:0:
216,284,125040,1,0,0:0:0:0:
404,280,125240,1,0,0:0:0:0:
248,192,125440,1,0,0:0:0:0:
196,196,125540,1,0,0:0:0:0:
148,188,125640,1,2,0:0:0:0:
348,104,125840,1,0,0:0:0:0:
176,260,126040,1,0,0:0:0:0:
32,104,126240,5,0,0:0:0:0:
188,164,126440,1,0,0:0:0:0:
124,152,126540,1,0,0:0:0:0:
64,140,126640,1,0,0:0:0:0:
280,120,126840,1,0,0:0:0:0:
180,168,127040,1,0,0:0:0:0:
496,60,127240,5,8,0:0:0:0:
408,64,127340,1,0,0:0:0:0:
328,64,127440,1,0,0:0:0:0:
252,64,127540,1,0,0:0:0:0:
172,64,127640,1,0,0:0:0:0:
504,176,127840,5,0,0:0:0:0:
272,196,128040,5,0,0:0:0:0:
136,196,128240,2,0,B|208:196,1,50
372,240,128640,1,0,0:0:0:0:
272,240,128740,1,0,0:0:0:0:
184,244,128840,1,8,0:0:0:0:
360,184,129040,1,0,0:0:0:0:
188,240,129240,1,0,0:0:0:0:
8,280,129440,5,0,0:0:0:0:
80,264,129540,1,0,0:0:0:0:
40,212,129640,1,0,0:0:0:0:
256,208,129840,1,0,0:0:0:0:
208,176,129940,1,0,0:0:0:0:
140,164,130040,1,0,0:0:0:0:
352,112,130240,1,0,0:0:0:0:
88,64,130440,5,8,0:0:0:0:
256,68,130640,1,0,0:0:0:0:
472,112,130840,1,0,0:0:0:0:
400,124,130940,1,0,0:0:0:0:
464,176,131040,1,0,0:0:0:0:
260,184,131240,5,0,0:0:0:0:
140,264,131440,1,0,0:0:0:0:
356,196,131640,1,0,0:0:0:0:
204,128,131840,1,0,0:0:0:0:
136,132,131940,1,0,0:0:0:0:
180,184,132040,1,8,0:0:0:0:
300,248,132240,1,0,0:0:0:0:
160,132,132440,1,0,0:0:0:0:
388,100,132640,5,0,0:0:0:0:
20,76,132840,5,0,0:0:0:0:
212,128,133040,1,0,0:0:0:0:
212,188,133140,1,0,0:0:0:0:
96,184,133240,1,0,0:0:0:0:
260,188,133440,1,0,0:0:0:0:
396,76,133640,5,8,0:0:0:0:
232,88,133840,1,0,0:0:0:0:
168,136,133940,1,0,0:0:0:0:
232,184,134040,1,0,0:0:0:0:
372,176,134240,2,0,B|440:172,1,50
128,240,134640,5,0,0:0:0:0:
224,280,134740,1,0,0:0:0:0:
304,220,134840,1,0,0:0:0:0:
96,248,135040,1,0,0:0:0:0:
248,188,135240,5,8,0:0:0:0:
304,140,135340,1,0,0:0:0:0:
368,96,135440,1,0,0:0:0:0:
452,96,135540,1,0,0:0:0:0:
372,176,135640,1,0,0:0:0:0:
160,184,135840,1,0,0:0:0:0:
380,176,136040,5,0,0:0:0:0:
304,176,136140,1,0,0:0:0:0:
240,176,136240,1,0,0:0:0:0:
496,204,136440,1,0,0:0:0:0:
328,252,136640,1,0,0:0:0:0:
324,248,136740,1,0,0:0:0:0:
208,244,136840,2,0,B|24:168,1,200,8|0,0:0|0:0,0:0:0:0:
232,292,137440,1,0,0:0:0:0:
376,180,137640,5,0,0:0:0:0:
180,228,138040,1,0,0:0:0:0:
64,112,138240,1,0,0:0:0:0:
296,92,138440,2,0,B|196:48|88:80,1,200,8|0,0:0|0:0,0:0:0:0:
216,200,139040,5,0,0:0:0:0:
236,160,139440,1,0,0:0:0:0:
340,220,139640,1,0,0:0:0:0:
472,284,139840,1,0,0:0:0:0:
320,324,140040,2,0,B|444:268|444:268|348:192|504:-8,1,400,2|0,0:0|0:0,0:0:0:0:
428,148,140940,1,0,0:0:0:0:
428,148,141040,1,8,0:0:0:0:
208,164,141440,5,0,0:0:0:0:
300,160,141640,1,8,0:0:0:0:
60,88,142040,1,0,0:0:0:0:
56,200,142240,1,8,0:0:0:0:
300,160,142640,1,0,0:0:0:0:
204,164,142840,1,8,0:0:0:0:
468,52,143240,1,0,0:0:0:0:
468,144,143440,1,8,0:0:0:0:
348,96,143640,1,0,0:0:0:0:
464,144,143840,1,4,0:0:0:0:
288,224,144040,6,0,C|360:352|448:312|368:256|144:344,1,600,4|0,0:0|0:0,0:0:0:0:
128,304,145340,1,0,0:0:0:0:
80,280,145440,1,0,0:0:0:0:
36,232,145540,1,0,0:0:0:0:
20,180,145640,2,0,L|148:60|148:180|268:180,1,400,0|2,0:0|0:0,0:0:0:0:
328,176,146640,1,0,0:0:0:0:
288,184,146840,5,2,0:0:0:0:
364,184,147040,5,2,0:0:0:0:
208,184,147240,6,2,L|208:360|392:360|392:112,1,600
308,96,147940,1,2,0:0:0:0:
240,80,148040,2,0,L|96:80|44:152,1,200
108,172,148340,1,2,0:0:0:0:
184,168,148440,2,0,L|336:168|336:64|480:64|480:232|440:232,1,600,0|0,0:0|0:0,0:0:0:0:
368,232,149140,1,2,0:0:0:0:
288,232,149240,2,0,L|288:336|184:336,1,200
112,336,149540,1,2,0:0:0:0:
8,320,149640,6,0,L|8:60|112:60|112:156|56:156|144:320,1,700
80,336,150440,6,0,L|176:336|176:224|128:224|128:160|184:160|184:16|416:16|416:112|360:112|360:64|232:64|232:184|464:184|464:16|520:16|520:224|424:224|424:352|224:352|224:224|384:224|384:264|336:264|336:312|288:312|288:272,1,2800
376,172,153440,5,0,0:0:0:0:
224,184,153640,5,0,0:0:0:0:
160,184,153740,1,0,0:0:0:0:
224,124,153840,1,0,0:0:0:0:
164,124,153940,1,0,0:0:0:0:
68,40,154040,1,2,0:0:0:0:
148,56,154140,1,0,0:0:0:0:
228,80,154240,1,0,0:0:0:0:
160,128,154340,1,0,0:0:0:0:
264,176,154440,5,0,0:0:0:0:
336,180,154540,1,0,0:0:0:0:
264,252,154640,1,0,0:0:0:0:
340,252,154740,1,0,0:0:0:0:
428,280,154840,1,2,0:0:0:0:
360,240,154940,1,0,0:0:0:0:
292,176,155040,1,0,0:0:0:0:
368,132,155140,1,0,0:0:0:0:
212,76,155240,5,2,0:0:0:0:
280,112,155340,1,0,0:0:0:0:
216,152,155440,1,0,0:0:0:0:
160,192,155540,1,0,0:0:0:0:
328,168,155640,1,2,0:0:0:0:
388,216,155740,1,0,0:0:0:0:
300,252,155840,1,0,0:0:0:0:
216,276,155940,1,0,0:0:0:0:
408,156,156040,5,2,0:0:0:0:
480,196,156140,1,0,0:0:0:0:
368,244,156240,1,2,0:0:0:0:
248,232,156340,1,0,0:0:0:0:
504,128,156440,1,2,0:0:0:0:
408,72,156540,1,0,0:0:0:0:
300,60,156640,1,0,0:0:0:0:
184,72,156740,1,0,0:0:0:0:
44,100,156840,6,0,B|124:172,1,100,8|0,0:0|0:0,0:0:0:0:
244,104,157040,2,0,B|164:204,1,100
224,276,157240,2,0,B|328:340,1,100
376,288,157440,2,0,B|440:200,1,100
320,276,157640,2,0,B|216:220,1,100,8|0,0:0|0:0,0:0:0:0:
312,128,157840,2,0,B|280:224,1,100
200,180,158040,2,0,B|297:200,1,100
388,60,158240,2,0,B|292:86,1,100
92,160,158440,2,0,L|220:160,3,100
291,86,158840,2,0,L|191:86,3,100
56,64,159240,2,0,L|184:64,3,100
352,56,159640,2,0,L|224:56,3,100
400,168,160040,5,10,0:0:0:0:
248,116,160140,2,0,B|172:56|156:156|156:156|248:160,1,200
100,216,160440,1,0,0:0:0:0:
212,280,160640,1,2,0:0:0:0:
296,232,160740,1,0,0:0:0:0:
336,192,160840,1,2,0:0:0:0:
440,140,160940,2,0,B|384:72|332:64,1,100
272,84,161240,1,0,0:0:0:0:
400,192,161440,1,2,0:0:0:0:
168,180,161640,6,0,B|336:180,1,150,8|0,0:0|0:0,0:0:0:0:
256,180,162040,1,0,0:0:0:0:
492,244,162240,1,2,0:0:0:0:
424,240,162340,1,0,0:0:0:0:
512,172,162440,1,2,0:0:0:0:
404,176,162540,1,0,0:0:0:0:
256,176,162740,1,2,0:0:0:0:
360,176,162840,2,0,B|256:176,1,100
40,184,163240,5,10,0:0:0:0:
448,136,163540,1,2,0:0:0:0:
472,264,163640,1,0,0:0:0:0:
272,132,163840,1,2,0:0:0:0:
192,136,163940,1,0,0:0:0:0:
288,200,164040,2,0,B|196:200,1,50
240,272,164140,2,0,B|368:272,1,100
240,248,164440,1,0,0:0:0:0:
340,296,164640,1,2,0:0:0:0:
16,176,164840,5,10,0:0:0:0:
368,188,165140,1,2,0:0:0:0:
264,188,165240,1,0,0:0:0:0:
492,72,165440,1,2,0:0:0:0:
420,72,165540,1,0,0:0:0:0:
352,72,165640,1,2,0:0:0:0:
276,72,165740,1,0,0:0:0:0:
72,68,165940,1,2,0:0:0:0:
68,144,166040,1,0,0:0:0:0:
168,152,166240,1,2,0:0:0:0:
0,224,166440,5,10,0:0:0:0:
104,272,166540,1,0,0:0:0:0:
284,196,166740,1,2,0:0:0:0:
204,224,166840,1,0,0:0:0:0:
512,288,167040,1,2,0:0:0:0:
440,284,167140,1,0,0:0:0:0:
512,224,167240,1,2,0:0:0:0:
408,228,167340,1,0,0:0:0:0:
224,184,167540,1,2,0:0:0:0:
360,176,167640,2,0,B|256:176,1,100
72,92,168040,5,10,0:0:0:0:
72,172,168140,1,0,0:0:0:0:
396,96,168340,1,2,0:0:0:0:
284,96,168440,1,0,0:0:0:0:
68,324,168640,1,2,0:0:0:0:
136,324,168740,1,0,0:0:0:0:
24,264,168840,1,2,0:0:0:0:
164,256,168940,2,0,B|56:256,1,100
136,256,169240,1,0,0:0:0:0:
256,252,169440,1,2,0:0:0:0:
136,192,169640,5,4,0:0:0:0:
360,72,169840,5,0,0:0:0:0:
256,72,169940,1,0,0:0:0:0:
504,72,170240,5,4,0:0:0:0:
24,60,170440,5,0,0:0:0:0:
312,204,170640,1,0,0:0:0:0:
196,200,170740,5,4,0:0:0:0:
484,96,171040,2,0,B|276:96,1,200
184,56,171540,5,4,0:0:0:0:
268,40,171640,1,0,0:0:0:0:
0,172,171840,1,0,0:0:0:0:
448,180,172040,1,4,0:0:0:0:
112,160,172340,1,4,0:0:0:0:
444,256,172640,1,4,0:0:0:0:
144,184,172840,5,0,0:0:0:0:
76,116,173040,1,0,0:0:0:0:
244,104,173240,2,0,C|94:111,1,150,8|0,0:0|0:0,0:0:0:0:
352,144,173740,1,0,0:0:0:0:
224,144,173840,1,0,0:0:0:0:
496,172,174040,1,8,0:0:0:0:
368,176,174140,1,0,0:0:0:0:
428,176,174240,1,2,0:0:0:0:
500,172,174340,1,0,0:0:0:0:
320,176,174440,1,2,0:0:0:0:
496,168,174640,5,0,0:0:0:0:
320,176,174840,2,0,C|304:112|208:168,1,150,8|0,0:0|0:0,0:0:0:0:
48,128,175340,1,0,0:0:0:0:
48,216,175440,1,0,0:0:0:0:
320,176,175640,1,8,0:0:0:0:
224,176,175740,1,0,0:0:0:0:
132,176,175840,1,2,0:0:0:0:
224,176,175940,1,2,0:0:0:0:
320,176,176040,1,2,0:0:0:0:
492,156,176240,5,0,0:0:0:0:
264,232,176440,2,2,C|104:232,1,150,10|2,0:0|0:0,0:0:0:0:
372,196,176940,1,0,0:0:0:0:
332,284,177040,1,0,0:0:0:0:
176,288,177240,1,8,0:0:0:0:
124,244,177340,1,0,0:0:0:0:
204,244,177440,1,0,0:0:0:0:
88,192,177540,1,0,0:0:0:0:
244,192,177640,1,2,0:0:0:0:
4,168,177840,5,0,0:0:0:0:
248,192,178040,2,0,C|412:192,1,150,8|0,0:0|0:0,0:0:0:0:
324,232,178440,1,0,0:0:0:0:
224,104,178540,1,0,0:0:0:0:
148,128,178640,1,0,0:0:0:0:
372,108,178840,1,8,0:0:0:0:
200,104,178940,1,0,0:0:0:0:
200,104,179040,1,2,0:0:0:0:
200,104,179140,1,0,0:0:0:0:
304,108,179240,1,2,0:0:0:0:
452,136,179440,5,0,0:0:0:0:
488,220,179540,1,0,0:0:0:0:
344,188,179640,1,0,0:0:0:0:
236,204,179840,1,0,0:0:0:0:
348,212,179940,1,0,0:0:0:0:
108,252,180140,1,0,0:0:0:0:
168,176,180240,1,0,0:0:0:0:
64,176,180340,1,0,0:0:0:0:
224,176,180440,2,0,C|272:140|272:140|156:140|156:140,1,200
408,88,181040,5,0,0:0:0:0:
408,88,181140,1,0,0:0:0:0:
408,88,181240,1,0,0:0:0:0:
56,80,181440,1,0,0:0:0:0:
168,80,181540,1,0,0:0:0:0:
408,88,181740,1,0,0:0:0:0:
284,88,181840,1,0,0:0:0:0:
344,88,181940,1,0,0:0:0:0:
408,84,182040,2,0,C|432:20|480:52|456:164,1,200,0|4,0:0|0:0,0:0:0:0:
156,144,182740,5,4,0:0:0:0:
336,184,183040,1,0,0:0:0:0:
20,200,183240,1,4,0:0:0:0:
252,300,183540,1,4,0:0:0:0:
512,208,183840,2,0,B|308:208,1,200
244,192,184340,5,0,0:0:0:0:
312,208,184440,1,0,0:0:0:0:
116,136,184640,1,0,0:0:0:0:
448,112,184840,1,4,0:0:0:0:
20,100,185140,1,4,0:0:0:0:
448,108,185440,1,4,0:0:0:0:
256,192,185640,5,4,0:0:0:0:
256,192,185840,12,4,192240,0:0:0:0:
