osu file format v9

[General]
AudioFilename: KAZE.O2SE-EarthQuake.mp3
AudioLeadIn: 0
PreviewTime: 60840
Countdown: 0
SampleSet: Soft
StackLeniency: 0.6
Mode: 2
LetterboxInBreaks: 1

[Editor]
Bookmarks: 14894
DistanceSpacing: 0.2
BeatDivisor: 4
GridSize: 4

[Metadata]
Title:Earth Quake
Artist:KAZE.o2SE
Creator:ZHSteven
Version:CTB normal competition
Source:O2Jam
Tags:EQ

[Difficulty]
HPDrainRate:5
CircleSize:4
OverallDifficulty:8
ApproachRate:8
SliderMultiplier:2
SliderTickRate:2

[Events]
//Background and Video events
0,0,"495_Earth_Quake.jpg"
//Break Periods
//Storyboard Layer 0 (Background)
//Storyboard Layer 1 (Fail)
//Storyboard Layer 2 (Pass)
//Storyboard Layer 3 (Foreground)
Sprite,Foreground,Centre,"exclamation_mark.png",320,240 F,0,49840,49940,0,1 F,0,49940,50040,1,0 M,0,50040,,165,317 F,0,50040,50140,0,1 S,0,50040,50140,0.3139199 F,0,50140,50240,1,0 S,0,50140,50240,0.3139199 F,0,50240,50340,0,1 S,0,50240,50340,0.3139199 F,0,50340,50440,1,0 S,0,50340,50440,0.3139199
Sprite,Foreground,Centre,"exclamation_mark.png",320,240 S,0,60040,,0.3548799 M,0,60040,60140,134,121 F,0,60040,60140,0,1 F,0,60140,60240,1,0 F,0,60240,60340,0,1 F,0,60340,60440,1,0 F,0,60440,60540,0,1 F,0,60540,60640,1,0 F,0,60640,60740,0,1 F,0,60740,60840,1,0
Sprite,Foreground,Centre,"exclamation_mark.png",320,240 M,0,68440,,510,189 S,0,68440,,0.3344 F,0,68440,68540,0,1 F,0,68540,68640,1,0 F,0,68640,68740,0,1 F,0,68740,68840,1,0
Sprite,Foreground,Centre,"exclamation_mark.png",320,240 M,0,85840,,402,235 S,0,85840,,0.3856001 F,0,85840,85940,0,1 F,0,85940,86040,1,0 F,0,86040,86140,0,1 F,0,86140,86240,1,0 F,0,86240,86340,0,1 F,0,86340,86440,1,0 F,0,86440,,0
Sprite,Foreground,Centre,"exclamation_mark.png",320,240 F,0,146440,146540,0,1 F,0,146540,146640,1,0 F,0,146640,146740,0,1 F,0,146740,146840,1,0 F,0,146840,146940,0,1 F,0,146940,147040,1,0 F,0,147040,147140,0,1 F,0,147140,147240,1,0
//Storyboard Sound Samples
//Background Colour Transformations
3,100,163,162,255

[TimingPoints]
16040,400,4,2,0,0,1,0
20740,-100,4,2,0,60,0,0
22440,400,4,1,0,60,1,0
25540,-100,4,1,0,100,0,0
26790,-100,4,2,0,60,0,0
27390,-100,4,1,0,60,0,0
28740,-100,4,1,0,100,0,0
30140,-100,4,1,0,71,0,0
30340,-100,4,1,0,100,0,0
31540,-100,4,1,0,70,0,0
31740,-100,4,1,0,100,0,0
32040,-100,4,2,0,31,0,0
32140,-100,4,2,0,41,0,0
32190,-100,4,2,0,51,0,0
32240,-100,4,2,0,61,0,0
32290,-100,4,2,0,70,0,0
32340,-100,4,2,0,80,0,0
32390,-100,4,2,0,90,0,0
32440,-100,4,2,0,100,0,0
32490,-100,4,1,0,100,0,0
35240,-100,4,2,0,30,0,0
35340,-100,4,2,0,40,0,0
35390,-100,4,2,0,50,0,0
35440,-100,4,2,0,59,0,0
35490,-100,4,2,0,71,0,0
35540,-100,4,2,0,79,0,0
35590,-100,4,2,0,90,0,0
35640,-100,4,2,0,100,0,0
35690,-100,4,1,0,100,0,0
36440,-50,4,1,0,100,0,0
36840,-100,4,1,0,100,0,0
38440,-100,4,2,0,30,0,0
38540,-100,4,2,0,41,0,0
38590,-100,4,2,0,51,0,0
38640,-100,4,2,0,60,0,0
38690,-100,4,2,0,70,0,0
38740,-100,4,2,0,80,0,0
38790,-100,4,2,0,90,0,0
38840,-100,4,2,0,100,0,0
38890,-100,4,1,0,100,0,0
38940,-100,4,1,0,80,0,0
41390,-100,4,1,0,100,0,0
41790,-100,4,2,0,50,0,0
42240,-100,4,2,0,100,0,0
42440,-100,4,2,0,50,0,0
42840,-100,4,2,0,100,0,0
42940,-100,4,2,0,49,0,0
47590,-100,4,2,0,100,0,0
50390,-50,4,2,0,100,0,0
51190,-100,4,2,0,100,0,0
57240,-66.6666666666667,4,2,0,100,0,0
57640,-100,4,2,0,100,0,0
60840,-50,4,1,0,100,0,1
70440,-100,4,1,0,100,0,1
73440,-100,4,1,0,100,0,0
74715,-100,4,1,0,60,0,0
74815,-100,4,1,0,100,0,0
76315,-100,4,1,0,69,0,0
76415,-100,4,1,0,100,0,0
78140,-100,4,1,0,59,0,0
78340,-100,4,1,0,100,0,0
79740,-100,4,1,0,59,0,0
79940,-100,4,1,0,100,0,0
81340,-100,4,1,0,59,0,0
81540,-100,4,1,0,100,0,0
82940,-100,4,1,0,61,0,0
83140,-100,4,1,0,100,0,0
86240,-100,4,1,0,100,0,1
86390,-50,4,2,0,71,0,0
99235,-100,4,1,0,71,0,0
99335,-100,4,2,0,71,0,0
99435,-100,4,1,0,71,0,0
99535,-100,4,2,0,71,0,0
99935,-100,4,1,0,71,0,0
100035,-100,4,2,0,71,0,0
100135,-100,4,1,0,71,0,0
100335,-100,4,2,0,71,0,0
100835,-100,4,1,0,71,0,0
100935,-100,4,2,0,71,0,0
101535,-100,4,1,0,71,0,0
101635,-100,4,2,0,71,0,0
101735,-100,4,1,0,71,0,0
101935,-100,4,2,0,71,0,0
102435,-100,4,1,0,71,0,0
102535,-100,4,2,0,71,0,0
103135,-100,4,1,0,71,0,0
103235,-100,4,2,0,71,0,0
103335,-100,4,1,0,71,0,0
103535,-100,4,2,0,71,0,0
104035,-100,4,1,0,71,0,0
104135,-100,4,2,0,71,0,0
104735,-100,4,1,0,71,0,0
104835,-100,4,2,0,71,0,0
104935,-100,4,1,0,71,0,0
105135,-100,4,2,0,71,0,0
105635,-100,4,1,0,71,0,0
105735,-100,4,2,0,71,0,0
106335,-100,4,1,0,71,0,0
106435,-100,4,2,0,71,0,0
106535,-100,4,1,0,71,0,0
106735,-100,4,2,0,71,0,0
107235,-100,4,1,0,71,0,0
107335,-100,4,2,0,71,0,0
107435,-100,4,1,0,71,0,0
107535,-100,4,2,0,71,0,0
107935,-100,4,1,0,71,0,0
108035,-100,4,2,0,71,0,0
108135,-100,4,1,0,71,0,0
108335,-100,4,2,0,71,0,0
108840,-100,4,1,0,100,0,0
111990,-50,4,1,0,100,0,0
112290,-200,4,1,0,70,0,0
112590,-200,4,1,0,40,0,0
112790,-50,4,1,0,100,0,0
113090,-200,4,1,0,71,0,0
113390,-200,4,1,0,39,0,0
113590,-50,4,1,0,70,0,0
113990,-50,4,1,0,81,0,0
114390,-50,4,1,0,91,0,0
114790,-50,4,1,0,100,0,0
115240,-200,4,1,0,100,0,0
115440,-200,4,2,0,40,0,0
116040,-100,4,2,0,100,0,0
116240,-200,4,2,0,41,0,0
116640,-100,4,1,0,100,0,0
116840,-200,4,2,0,40,0,0
117240,-100,4,1,0,100,0,0
117440,-200,4,2,0,40,0,0
117640,-100,4,2,0,100,0,0
117840,-200,4,2,0,40,0,0
118440,-100,4,1,0,100,0,0
118640,-200,4,2,0,41,0,0
119240,-100,4,2,0,100,0,0
119440,-200,4,2,0,39,0,0
119840,-100,4,1,0,100,0,0
120040,-200,4,2,0,41,0,0
120440,-100,4,1,0,100,0,0
120640,-200,4,2,0,41,0,0
120840,-100,4,2,0,100,0,0
121040,-200,4,2,0,41,0,0
121640,-100,4,1,0,100,0,0
121840,-200,4,2,0,41,0,0
122440,-100,4,2,0,100,0,0
122640,-200,4,2,0,40,0,0
123040,-100,4,1,0,100,0,0
123240,-200,4,2,0,39,0,0
123640,-100,4,1,0,100,0,0
123840,-200,4,2,0,40,0,0
124040,-50,4,2,0,100,0,0
124240,-200,4,2,0,40,0,0
124840,-50,4,1,0,100,0,0
125040,-200,4,2,0,41,0,0
125640,-50,4,2,0,100,0,0
125840,-200,4,2,0,40,0,0
126240,-50,4,1,0,100,0,0
126440,-200,4,2,0,40,0,0
126840,-50,4,1,0,100,0,0
127040,-200,4,2,0,39,0,0
127240,-50,4,2,0,100,0,0
127440,-200,4,2,0,42,0,0
128040,-100,4,1,0,100,0,0
128240,-200,4,2,0,40,0,0
128840,-100,4,2,0,100,0,0
129040,-200,4,2,0,40,0,0
129440,-100,4,1,0,100,0,0
129640,-200,4,2,0,40,0,0
130040,-100,4,1,0,100,0,0
130240,-200,4,2,0,40,0,0
130440,-100,4,2,0,100,0,0
130640,-200,4,2,0,40,0,0
131240,-100,4,1,0,100,0,0
131440,-200,4,2,0,39,0,0
132040,-100,4,2,0,100,0,0
132240,-200,4,2,0,40,0,0
132640,-100,4,1,0,100,0,0
132840,-200,4,2,0,40,0,0
133240,-100,4,1,0,100,0,0
133440,-200,4,2,0,40,0,0
133640,-100,4,2,0,100,0,0
133840,-200,4,2,0,41,0,0
134440,-100,4,1,0,100,0,0
134640,-200,4,2,0,41,0,0
135240,-100,4,2,0,100,0,0
135440,-200,4,2,0,39,0,0
135840,-100,4,1,0,100,0,0
136040,-200,4,2,0,40,0,0
136440,-100,4,1,0,100,0,0
136640,-200,4,2,0,40,0,0
136840,-100,4,2,0,100,0,0
137040,-200,4,2,0,42,0,0
137640,-100,4,1,0,100,0,0
137840,-200,4,2,0,40,0,0
138440,-100,4,2,0,100,0,0
138640,-200,4,2,0,40,0,0
139040,-100,4,1,0,100,0,0
139240,-200,4,2,0,40,0,0
139640,-100,4,1,0,100,0,0
139840,-200,4,2,0,39,0,0
140040,-100,4,2,0,100,0,0
140840,-100,4,1,0,100,0,0
141340,-100,4,1,0,70,0,0
141590,-100,4,1,0,100,0,0
141940,-100,4,1,0,71,0,0
142190,-100,4,1,0,100,0,0
142540,-100,4,1,0,71,0,0
142790,-100,4,1,0,100,0,0
143140,-100,4,1,0,70,0,0
143390,-100,4,1,0,100,0,0
143590,-100,4,1,0,80,0,0
143790,-100,4,1,0,70,0,0
143990,-100,4,1,0,100,0,0
147240,-50,4,2,0,100,0,1
150440,-50,4,2,0,5,0,1
150540,-50,4,1,0,81,0,1
150640,-50,4,1,0,61,0,1
150740,-50,4,1,0,90,0,1
150840,-50,4,1,0,70,0,1
150940,-50,4,1,0,51,0,1
151040,-50,4,1,0,81,0,1
151140,-50,4,1,0,60,0,1
151240,-50,4,1,0,40,0,1
151340,-50,4,1,0,70,0,1
151440,-50,4,1,0,50,0,1
151540,-50,4,1,0,31,0,1
151640,-50,4,1,0,60,0,1
151740,-50,4,1,0,40,0,1
151840,-50,4,1,0,19,0,1
151940,-50,4,1,0,31,0,1
152040,-50,4,1,0,41,0,1
152140,-50,4,1,0,49,0,1
152240,-50,4,1,0,59,0,1
152340,-50,4,1,0,69,0,1
152440,-50,4,1,0,80,0,1
152540,-50,4,1,0,90,0,1
152640,-50,4,1,0,100,0,1
152840,-50,4,1,0,51,0,1
152940,-50,4,1,0,100,0,1
153040,-50,4,1,0,50,0,1
153140,-50,4,1,0,100,0,1
153190,-100,4,2,0,100,0,1
153640,-100,4,2,0,41,0,1
154040,-100,4,2,0,61,0,1
154490,-100,4,2,0,100,0,1
155140,-100,4,2,0,59,0,1
155540,-100,4,2,0,81,0,1
155740,-100,4,2,0,100,0,1
155940,-100,4,2,0,100,0,0
156040,-100,4,2,0,51,0,0
156240,-100,4,2,0,69,0,0
156740,-50,4,1,0,100,0,1
156740,-50,4,2,0,88,0,0
157240,-50,4,1,0,80,0,1
157640,-50,4,1,0,70,0,1
158040,-50,4,1,0,60,0,1
158840,-50,4,1,0,70,0,1
159240,-50,4,1,0,80,0,1
159640,-50,4,1,0,90,0,1
160040,-100,4,1,0,100,0,1
160440,-100,4,1,0,100,0,0
160640,-100,4,1,0,100,0,0
160740,-100,4,1,0,100,0,0
160840,-100,4,1,0,100,0,0
160940,-100,4,1,0,100,0,0
161140,-100,4,1,0,100,0,0
161240,-100,4,1,0,100,0,0
161440,-100,4,1,0,100,0,0
162040,-100,4,1,0,100,0,0
162240,-100,4,1,0,100,0,0
162340,-100,4,1,0,100,0,0
162440,-100,4,1,0,100,0,0
162540,-100,4,1,0,100,0,0
162740,-100,4,1,0,100,0,0
162840,-100,4,1,0,100,0,0
163040,-100,4,1,0,100,0,0
163640,-100,4,1,0,100,0,0
163840,-100,4,1,0,100,0,0
163940,-100,4,1,0,100,0,0
164040,-100,4,1,0,100,0,0
164140,-66.6666666666667,4,1,0,100,0,0
164340,-100,4,1,0,100,0,0
164440,-100,4,1,0,100,0,0
164640,-100,4,1,0,100,0,0
165240,-100,4,1,0,100,0,0
165440,-50,4,1,0,100,0,0
165540,-50,4,1,0,100,0,0
165640,-50,4,1,0,100,0,0
165740,-100,4,1,0,100,0,0
165940,-100,4,1,0,100,0,0
166040,-100,4,1,0,100,0,0
166240,-100,4,1,0,100,0,0
166840,-100,4,1,0,100,0,0
167040,-100,4,1,0,100,0,0
167140,-100,4,1,0,100,0,0
167240,-100,4,1,0,100,0,0
167340,-100,4,1,0,100,0,0
167540,-100,4,1,0,100,0,0
167640,-66.6666666666667,4,1,0,100,0,0
167840,-66.6666666666667,4,1,0,100,0,0
168440,-66.6666666666667,4,1,0,100,0,0
168640,-66.6666666666667,4,1,0,100,0,0
168740,-100,4,1,0,100,0,0
168840,-100,4,1,0,100,0,0
168940,-100,4,1,0,100,0,0
169140,-100,4,1,0,100,0,0
169240,-66.6666666666667,4,1,0,100,0,0
169440,-100,4,1,0,100,0,0
169640,-50,4,1,0,100,0,0
172840,-50,4,1,0,100,0,0
178540,-100,4,1,0,100,0,0
179440,-100,4,1,0,69,0,0
182340,-100,4,1,0,100,0,0
185640,-66.6666666666667,4,1,0,100,0,0
185740,-100,4,1,0,0,0,0
189011,-100,4,1,0,0,0,0
189240,-100,4,1,0,60,0,0
189640,-100,4,1,0,50,0,0
190040,-100,4,1,0,40,0,0
190440,-100,4,1,0,31,0,0
190840,-100,4,1,0,19,0,0
191240,-100,4,1,0,10,0,0
191640,-100,4,1,0,0,0,0

[Colours]
Combo1 : 79,0,0
Combo2 : 204,0,0
Combo3 : 79,0,0
Combo4 : 0,0,0

[HitObjects]
256,192,16040,12,0,20440
24,216,20840,6,0,B|168:112,1,150
272,40,21440,1,2
132,216,21640,6,0,B|324:216,1,150
404,216,22240,1,2
116,128,22440,5,4
108,168,22540,1,0
116,216,22640,1,8
296,200,23040,5,0
216,200,23240,1,8
512,192,23640,1,0
432,192,23840,1,8
136,200,24240,1,0
208,200,24440,1,8
356,268,24840,5,0
468,264,25040,1,8
352,264,25240,1,0
248,256,25440,1,4
144,232,25640,6,0,B|272:264|336:168|240:40|144:40|0:16|4:180,1,500
116,132,26840,1,2
192,136,26940,1,2
272,132,27040,1,2
348,112,27140,1,2
432,76,27240,2,0,B|544:200|427:226|427:226|192:228,1,400,2|0
432,208,28240,1,8
288,288,28440,1,0
428,292,28640,1,0
352,288,28840,1,0
296,192,29040,5,0
128,128,29240,1,8
248,128,29440,1,0
248,128,29540,1,0
120,176,29740,1,0
120,176,29840,1,0
392,180,30040,2,10,B|402:207|330:255,1,100,8|0
440,152,30440,5,0
296,296,30640,1,0
176,248,30840,1,8
301,171,31040,1,0
301,171,31140,1,0
148,116,31340,1,0
148,116,31440,1,0
328,60,31640,1,10
200,56,31840,1,0
288,140,32040,6,0,B|320:172|320:172,3,25
344,140,32240,6,0,B|376:172|376:172,3,25
408,160,32440,1,8
256,108,32640,1,0
156,108,32740,1,0
32,224,32940,1,0
120,224,33040,1,0
200,224,33140,1,0
292,224,33240,1,8
164,224,33440,1,0
260,104,33640,5,0
112,112,33840,1,0
112,112,34040,1,8
216,136,34240,1,0
328,132,34340,1,0
500,224,34540,1,0
400,224,34640,1,0
300,224,34740,1,0
200,224,34840,1,8
348,224,35040,1,0
200,88,35240,6,0,B|232:120,7,25
200,88,35640,1,8
428,76,35840,2,0,B|368:80,1,50
256,192,36140,1,0
256,232,36240,1,0
256,272,36340,1,0
252,320,36440,1,8
176,320,36540,1,0
252,320,36640,1,0
324,320,36740,1,0
256,88,36840,5,0
128,88,37040,1,0
328,88,37240,1,0
136,80,37440,2,0,B|196:116,1,50
240,192,37740,1,0
240,232,37840,1,0
240,272,37940,1,0
244,320,38040,1,8
332,320,38140,1,0
244,320,38240,2,0,B|244:264,2,50
240,112,38440,6,0,B|208:80,7,25
200,72,38840,1,8
272,72,38940,1,0
336,72,39040,1,0
400,76,39140,1,0
468,72,39240,1,0
376,140,39340,1,0
292,136,39440,1,0
464,72,39640,2,0,B|464:176,1,100,10|0
260,192,40040,5,0
196,192,40140,1,0
256,256,40240,1,0
324,256,40340,1,0
256,324,40440,2,2,B|360:324,1,100,8|0
256,324,40740,5,0
156,324,40840,1,0
84,324,40940,1,0
156,324,41040,1,0
224,324,41140,1,0
156,228,41240,2,2,B|156:332,1,100,8|0
368,332,41640,5,6
224,324,41840,2,0,B|276:324,1,50
336,328,42040,1,0
200,116,42240,2,0,B|153:134,1,50
105,154,42440,1,0
252,224,42640,1,0
420,112,42840,6,0,B|356:112,1,50,8|0
316,112,43040,1,0
328,240,43240,1,0
328,200,43340,1,0
328,160,43440,1,0
80,152,43640,2,2,B|136:152,1,50,0|2
184,156,43840,1,0
284,160,44040,2,0,B|204:160,1,50,0|0
168,156,44240,1,0
240,240,44340,1,0
300,272,44440,2,0,B|350:272,2,50,8|0|8
168,160,44840,5,2
20,108,45040,5,0
52,124,45140,1,0
84,156,45240,1,0
100,188,45340,1,0
100,228,45440,1,10
228,148,45640,5,0
212,180,45740,1,0
180,212,45840,1,0
148,228,45940,1,0
100,228,46040,1,10
344,260,46240,5,0
312,244,46340,1,0
280,212,46440,1,0
248,192,46540,1,0
228,148,46640,1,10
344,260,46840,5,0
376,224,46940,1,0
416,188,47040,1,0
464,156,47140,1,0
512,120,47240,1,2
344,128,47440,5,0
160,120,47640,5,8
336,236,47840,5,0
256,112,48040,6,8,B|320:64|368:112,1,100,0|0
456,152,48440,1,8
240,180,48640,2,0,B|208:228|272:276,1,100
388,280,49040,1,0
260,268,49240,2,0,B|228:204|180:188,1,100,8|0
28,160,49640,1,0
168,160,49840,2,0,B|213:129|261:161,1,100,0|8
40,160,50240,1,0
180,216,50440,2,0,B|372:360|540:64|356:-16|116:8|172:184,1,600
232,172,51240,5,0
328,176,51440,2,0,B|376:112|452:140,1,100,0|8
232,172,51840,1,0
424,264,52040,2,0,B|376:296|328:248,1,100
232,248,52440,1,8
132,252,52640,1,0
256,192,52840,12,4,54040
40,208,54440,5,0
88,208,54540,1,0
144,208,54640,1,0
192,208,54740,1,0
240,208,54840,1,8
144,208,55040,1,0
240,212,55240,5,0
240,172,55340,1,0
240,132,55440,1,0
240,92,55540,1,0
240,52,55640,1,8
356,56,55840,1,0
224,72,56040,5,0
224,72,56140,1,0
224,72,56240,1,0
224,72,56340,1,0
304,72,56440,1,8
356,72,56540,1,0
312,72,56640,1,0
252,72,56740,1,0
212,144,56840,2,0,B|124:144,1,50
284,144,57040,6,0,B|372:144,1,50,0|0
240,208,57240,2,0,B|109:208,1,74.9999977648259,8|0
240,208,57440,2,0,B|315:208,1,74.9999977648259,8|0
440,208,57640,5,0
388,208,57740,1,0
336,208,57840,1,0
288,208,57940,1,0
240,208,58040,1,8
416,212,58240,1,0
272,212,58440,5,0
272,172,58540,1,0
272,136,58640,1,0
272,92,58740,1,0
272,52,58840,1,8
88,56,59040,1,0
200,140,59240,6,0,B|152:100,2,50
256,180,59540,1,0
292,212,59640,1,8
320,252,59740,1,0
304,288,59840,1,0
260,272,59940,1,0
248,264,60040,2,0,B|176:260,1,50
248,264,60240,2,0,B|312:264,1,50
400,184,60440,2,0,B|352:152|288:184,2,100,8|8|8
400,176,60840,6,2,B|336:48|224:48|64:160|64:256|272:320|448:224,1,600,2|0
256,120,61640,2,2,B|320:312|224:376|0:312,1,400,2|0
256,232,62240,1,0
456,128,62440,6,2,B|376:16|184:48|136:240,1,400,2|0
344,240,63040,2,2,B|344:112|280:-16|72:144,1,400,2|0
184,192,63640,1,0
432,184,64040,6,2,C|384:40|328:48,1,200,2|0
432,184,64440,2,2,C|263:148|246:203,1,200
432,184,64840,2,2,B|445:35|565:67|573:235|469:347|341:243,1,400
144,232,65440,1,0
272,128,65640,6,0,C|320:32|384:128,1,200,2|0
504,208,66040,1,8
328,288,66240,1,0
144,248,66440,1,2
24,40,66740,1,8
216,184,67040,1,0
304,48,67240,6,2,L|448:240,1,200,0|2
252,228,67640,1,0
144,360,67840,1,2
369,96,68040,2,2,L|169:96,1,200,0|2
169,96,68240,2,0,B|64:288|416:372,1,400
256,96,68840,6,0,L|80:240,3,200
332,96,69640,1,8
84,112,70040,1,0
84,112,70240,1,0
336,192,70440,5,6
136,204,70740,1,12
336,192,71040,1,4
12,196,71240,1,6
212,96,71540,1,4
496,212,71840,1,8
380,224,72240,5,0
324,172,72340,1,0
384,108,72440,1,12
208,256,72640,1,0
504,48,72840,1,6
232,76,73140,1,4
16,204,73440,1,12
184,208,73640,5,0
132,128,73840,1,0
288,128,74040,2,0,L|368:220,1,100,8|0
200,128,74340,2,0,B|112:236|104:212,1,100
200,244,74640,1,0
272,256,74740,1,0
328,224,74840,2,0,B|440:144|392:48|200:48|120:176,1,400,8|8
288,188,75840,5,0
228,192,75940,1,0
20,344,76140,1,0
60,344,76240,1,0
100,344,76340,1,0
140,344,76440,2,0,B|268:344|-60:208|-20:64|92:44,1,400,8|8
272,204,77440,5,0
204,204,77540,1,0
396,200,77740,1,0
328,200,77840,1,0
484,272,78040,1,8
320,280,78240,1,0
144,244,78440,5,0
260,116,78640,1,0
72,104,78840,1,8
252,112,79040,1,0
164,164,79140,1,0
360,116,79340,1,0
256,116,79440,1,0
124,188,79640,2,0,B|100:268|276:320,1,200
328,264,80140,5,0
372,184,80240,1,0
280,176,80340,1,0
196,156,80440,1,8
332,92,80640,5,0
400,96,80740,1,0
152,88,80940,1,0
104,88,81040,1,0
152,88,81140,1,0
220,88,81240,1,8
376,112,81440,1,0
512,152,81640,5,0
452,192,81740,1,0
376,136,81840,1,0
288,176,81940,1,0
244,224,82040,1,8
480,328,82240,1,0
408,328,82340,1,0
312,328,82540,1,0
239,328,82640,1,0
48,324,82840,1,8
192,328,83040,1,0
368,316,83240,5,4
168,212,83540,1,0
248,208,83640,1,8
432,120,83840,1,4
4,32,84040,1,0
264,80,84340,1,0
200,80,84440,1,8
360,192,84640,1,4
124,316,85040,5,0
164,316,85140,1,4
204,316,85240,1,8
40,232,85440,1,4
172,228,85640,2,0,B|252:80,1,150
244,100,86040,6,0,B|208:164,1,50
264,172,86240,6,0,B|336:200,1,50
260,260,86440,6,0,L|300:300|324:368,1,100,2|0
376,308,86640,2,0,L|456:216|464:160,1,100
404,152,86840,6,0,L|336:136|316:192,1,100,8|0
244,168,87040,2,0,L|196:176|136:128,1,100
84,104,87240,6,0,L|28:128|20:176,1,100,2|0
108,208,87440,2,0,L|220:248,1,100
300,224,87640,6,0,L|232:308,1,100,8|0
180,216,87840,2,0,L|264:344,1,100,8|0
296,144,88040,6,0,L|196:144,1,100,2|0
156,152,88240,2,0,L|196:252,1,100
184,144,88440,6,0,L|232:168|256:120,1,100,8|0
176,144,88640,2,0,L|120:136|128:64,1,100
168,84,88840,6,0,L|244:-4,1,100,2|0
324,160,89040,2,0,L|224:100,1,100
156,132,89240,6,0,L|224:236,1,100,8|0
288,216,89440,2,0,L|248:168|192:176,1,100,8|0
104,196,89640,6,0,L|-24:272,1,100,2|0
19,335,89840,2,0,L|100:276,1,100
200,272,90040,6,0,L|96:184,1,100,8|0
40,120,90240,2,0,L|32:260,1,100
108,292,90440,6,0,L|224:336,1,100,2|0
264,280,90640,2,0,B|220:168,1,100
320,184,90840,6,0,L|392:92,2,100,8|0|8
224,196,91140,1,0
132,160,91240,6,0,L|68:152|84:104,1,100,2|0
196,112,91440,2,0,L|164:64|180:16,1,100
272,112,91640,2,0,L|304:64|288:16,1,100,8|0
336,164,91840,2,0,L|400:156|384:108,1,100
460,280,92040,6,0,B|524:288,1,50,8|0
460,280,92140,6,0,B|492:232,1,50
460,280,92240,6,0,B|404:264,1,50,2|2
356,248,92340,6,2,B|324:296,1,50
288,288,92440,6,0,B|288:352,1,50,8|0
256,264,92540,6,0,B|188:260,1,50
204,264,92640,6,0,B|140:248,1,50,8|0
144,288,92840,6,0,B|96:188,1,100,2|0
16,144,93040,2,0,B|104:200,1,100
184,188,93240,6,0,B|116:96,1,100,8|0
184,192,93440,2,0,B|272:248,1,100
360,256,93640,6,2,B|428:144,1,100,2|0
403,56,93840,2,0,B|320:112,1,100
228,96,94040,6,0,B|136:204,1,100,8|0
224,248,94240,2,0,B|328:176,1,100,8|0
412,236,94440,6,0,B|356:148,1,100,2|0
260,116,94640,2,0,B|368:156,1,100
436,276,94840,6,0,B|332:244,1,100,8|0
248,208,95040,2,0,B|332:296,1,100
346,89,95240,6,0,B|276:160,1,100,2|0
192,92,95440,2,0,B|263:163,1,100
368,292,95640,6,0,B|298:222,1,100,8|0
228,216,95840,2,8,B|156:286,1,100,8|0
56,296,96040,6,0,B|148:248,1,100,2|0
240,204,96240,2,0,B|141:218,1,100
56,236,96440,6,0,B|152:340,1,100,8|0
216,280,96640,2,0,B|108:160,1,100
180,96,96840,6,0,B|100:176,1,100,2|0
216,204,97040,2,0,B|296:268,1,100
376,196,97240,6,0,B|468:92,2,100,8|0|8
288,200,97540,1,0
192,240,97640,6,0,B|168:352,1,100,2|0
108,284,97840,2,0,B|12:236,1,100,8|0
96,140,98040,6,0,B|200:188,1,100,2|0
296,216,98240,2,0,B|223:147,1,100,8|0
248,88,98440,6,2,B|288:44,3,50
260,100,98640,6,2,B|200:100,3,50,10|2|2|2
204,96,98840,6,2,B|252:140,3,50
216,184,99040,6,0,B|212:260,3,50,8|0|0|0
256,112,99240,5,2
392,104,99440,1,0
352,104,99540,1,2
312,104,99640,1,8
408,192,99840,5,2
408,136,99940,1,0
348,140,100040,1,2
292,144,100140,1,0
256,96,100240,1,0
296,96,100340,1,2
336,96,100440,1,8
456,104,100640,1,2
416,104,100740,1,0
452,104,100840,5,2
392,104,100940,1,0
356,144,101040,1,0
396,144,101140,1,2
436,144,101240,1,8
312,288,101440,5,2
380,288,101540,1,0
380,248,101640,1,2
312,248,101740,1,0
272,208,101840,1,0
232,172,101940,1,2
192,136,102040,1,8
352,104,102240,1,2
192,136,102440,5,2
232,136,102540,1,0
272,136,102640,1,0
272,96,102740,1,2
312,96,102840,1,8
108,24,103040,5,2
108,64,103140,1,0
148,64,103240,1,2
148,104,103340,1,0
108,104,103440,1,0
108,144,103540,1,2
68,144,103640,1,8
228,176,103840,1,2
408,64,104040,5,2
408,104,104140,1,0
368,104,104240,1,0
368,144,104340,1,2
368,184,104440,1,8
152,336,104640,5,2
192,336,104740,1,0
192,296,104840,1,2
232,296,104940,1,0
232,256,105040,1,0
272,256,105140,1,2
272,216,105240,1,8
352,216,105440,1,2
432,216,105640,5,2
432,256,105740,1,0
472,256,105840,1,0
472,296,105940,1,2
472,336,106040,1,8
344,316,106240,5,2
344,276,106340,1,0
304,276,106440,1,2
272,236,106540,1,0
240,200,106640,1,0
216,160,106740,1,2
188,124,106840,1,8
344,160,107040,1,2
472,96,107240,5,2
472,56,107340,1,0
408,56,107440,1,0
348,56,107540,1,2
344,112,107640,1,8
248,120,107840,5,2
248,56,107940,1,0
184,56,108040,1,2
120,56,108140,1,0
120,120,108240,1,0
8,56,108440,1,8
120,208,108640,1,2
8,208,108840,5,4
268,208,109140,1,0
120,208,109440,1,4
404,204,109640,5,4
192,208,109940,1,4
324,208,110240,1,4
64,288,110640,5,6
112,264,110740,1,2
64,248,110840,1,4
264,236,111040,1,2
136,236,111240,5,2
308,64,111540,1,2
144,164,111840,1,6
396,184,112040,5,4
348,152,112340,1,0
300,120,112640,1,0
100,200,112840,5,4
124,256,113140,1,0
148,312,113440,1,0
308,280,113640,5,4
56,72,114040,1,0
420,24,114440,5,4
0,364,114840,1,4
212,276,115240,5,0
368,244,115440,1,0
256,168,115640,1,0
380,160,115840,1,0
176,164,116040,1,8
88,164,116240,1,0
232,164,116440,1,0
52,164,116640,1,0
272,168,116840,5,0
268,164,117040,1,0
184,164,117240,1,0
292,260,117440,1,0
512,64,117640,1,8
508,168,117840,1,0
360,76,118040,1,0
440,72,118240,1,0
220,76,118440,5,0
304,172,118640,1,0
140,164,118840,1,0
300,256,119040,1,0
508,184,119240,1,8
320,168,119440,1,0
416,264,119640,1,0
276,252,119840,1,0
136,184,120040,5,0
248,200,120240,1,0
128,276,120440,1,0
4,92,120640,1,0
252,76,120840,1,8
32,116,121240,1,0
324,192,121640,5,0
228,192,121840,1,0
128,156,122040,1,0
36,88,122240,1,0
248,60,122440,1,8
100,196,122640,1,0
220,192,122840,1,0
160,288,123040,1,0
304,284,123240,5,0
404,240,123440,1,0
248,188,123640,1,0
104,144,123840,1,0
284,64,124040,1,8
448,72,124440,1,0
352,160,124640,1,0
468,212,124840,5,0
328,224,125040,1,0
404,280,125240,1,0
248,192,125440,1,0
456,72,125640,1,8
164,260,126040,1,0
32,104,126240,1,0
188,164,126440,5,0
88,112,126640,1,0
192,72,126840,1,0
292,140,127040,1,0
496,60,127240,1,8
304,60,127440,1,0
392,200,127640,1,0
244,200,127840,1,0
128,208,128040,5,0
276,208,128240,1,0
224,252,128440,1,0
352,268,128640,1,0
476,124,128840,1,8
324,200,129040,1,0
220,256,129240,1,0
68,272,129440,1,0
168,176,129640,5,0
240,116,129840,1,0
328,72,130040,1,0
444,136,130240,1,0
204,120,130440,1,8
200,136,130840,1,0
200,224,131040,1,0
64,276,131240,5,0
224,288,131440,1,0
352,248,131640,1,0
436,156,131840,1,0
248,156,132040,1,8
396,224,132240,1,0
248,160,132440,1,0
104,232,132640,5,0
0,304,132840,1,0
188,280,133040,1,0
312,184,133240,1,0
420,96,133440,1,0
248,156,133640,2,0,B|48:112,1,200
480,40,134440,5,0
364,120,134640,1,0
232,156,134840,1,0
112,152,135040,1,0
300,64,135240,1,8
112,152,135440,1,0
248,132,135640,1,0
152,256,135840,1,0
276,176,136040,5,0
376,184,136240,1,0
480,276,136440,1,0
296,288,136640,1,0
364,180,136840,1,8
76,184,137240,1,0
232,292,137440,1,0
376,180,137640,5,0
276,192,137840,1,0
180,228,138040,1,0
64,112,138240,1,0
264,88,138440,2,0,B|364:44|472:76,1,200,8|0
428,128,139040,5,0
260,88,139240,1,0
364,148,139440,1,0
256,180,139640,1,0
140,260,139840,1,0
320,324,140040,2,0,B|444:268|444:268|348:192|504:-8,1,400
512,152,140940,5,0
424,152,141040,1,8
208,164,141440,1,0
300,160,141640,1,8
60,88,142040,1,0
56,200,142240,1,8
300,160,142640,1,0
204,164,142840,1,8
468,52,143240,1,0
468,144,143440,1,8
348,96,143640,1,0
464,144,143840,1,4
304,228,144040,6,0,C|376:356|464:316|384:260|256:232|160:348,1,600,4|0
120,316,145340,1,0
56,288,145440,1,0
12,240,145540,1,0
0,180,145640,2,0,L|128:60|128:180|248:180,1,400,0|2
328,176,146640,1,0
280,184,146840,5,2
380,184,147040,5,2
208,184,147240,6,2,L|208:360|392:360|392:112,1,600
308,96,147940,1,2
240,80,148040,2,0,L|96:80|44:152,1,200
108,172,148340,1,2
184,168,148440,2,0,L|336:168|336:64|480:64|480:232|440:232,1,600,0|0
368,232,149140,1,2
288,232,149240,2,0,L|288:336|184:336,1,200
112,336,149540,1,2
8,320,149640,6,0,L|8:60|112:60|112:156|56:156|144:320,1,700
80,336,150440,6,0,L|176:336|176:224|128:224|128:160|184:160|184:16|416:16|416:112|360:112|360:64|232:64|232:184|464:184|464:16|520:16|520:224|424:224|424:352|224:352|224:224|384:224|384:264|336:264|336:312|288:312|288:272,1,2800
376,172,153440,5,0
224,184,153640,1,0
176,152,153740,1,0
140,112,153840,1,0
96,84,153940,1,0
16,88,154040,1,2
48,112,154140,1,0
80,136,154240,1,0
112,160,154340,1,0
156,220,154440,5,0
104,240,154540,1,0
80,292,154640,1,0
152,304,154740,1,0
248,300,154840,1,2
320,288,154940,1,0
388,264,155040,1,0
456,240,155140,1,0
408,188,155240,5,2
352,216,155340,1,0
292,236,155440,1,0
228,196,155540,1,0
116,144,155640,1,2
168,176,155740,1,0
220,216,155840,1,0
272,264,155940,1,0
308,144,156040,5,2
264,212,156140,1,0
216,264,156240,1,2
144,300,156340,1,0
44,76,156440,2,2,B|164:80,1,100,2|0
248,80,156840,6,0,B|328:152,1,100
208,160,157040,2,0,B|128:260,1,100
80,312,157240,2,0,B|184:376,1,100
264,352,157440,2,0,B|328:264,1,100
368,204,157640,2,0,B|264:148,1,100
196,120,157840,2,0,B|164:216,1,100
140,304,158040,2,0,B|237:324,1,100
348,72,158240,2,0,B|252:98,1,100
132,60,158440,5,0
184,60,158540,1,0
228,60,158640,1,0
276,60,158740,1,0
372,128,158840,1,0
308,128,158940,1,0
248,124,159040,1,0
192,124,159140,1,0
80,192,159240,5,2
152,196,159340,1,0
224,200,159440,1,0
292,204,159540,1,0
412,276,159640,1,2
308,280,159740,1,0
208,276,159840,1,10
108,276,159940,1,0
36,136,160040,6,0,B|164:108,1,100
216,88,160340,1,0
316,56,160440,1,2
184,168,160640,2,0,B|352:232,1,150,2|0
400,240,161040,1,2
344,184,161140,1,0
448,156,161240,1,2
284,124,161440,1,0
512,76,161640,6,0,B|268:96,1,200,2|0
440,204,162240,2,2,B|364:208,4,50,8|0|8|0|8
212,192,162840,1,0
260,268,163040,1,0
8,200,163240,6,0,B|84:204,4,50,2|0|8|0|0
212,192,163840,2,0,B|60:308,1,150,2|0
96,280,164140,2,0,B|296:272,1,200
164,216,164640,1,2
416,220,164840,6,0,B|484:164,4,50
416,216,165240,2,0,B|240:92,1,200,2|8
160,84,165740,1,0
96,116,165840,1,0
192,132,166040,1,0
260,176,166140,1,8
212,220,166240,1,0
356,312,166440,6,0,B|436:312,4,50,2|0|0|0|2
156,304,167040,2,0,B|156:232,1,50,0|2
372,228,167340,2,0,B|292:224,1,50,0|2
428,176,167540,1,0
484,137,167640,2,0,B|276:136,1,149.999995529652,0|2
248,136,167940,1,0
144,148,168040,6,0,B|284:304,1,149.999995529652
20,288,168440,1,2
244,264,168640,1,0
184,224,168740,2,0,B|68:156,1,100,2|0
44,136,169040,1,0
104,132,169140,1,2
56,60,169240,2,0,B|176:64|228:56,1,150
336,136,169640,5,0
124,216,169940,1,2
224,280,170240,1,0
16,116,170440,1,10
256,48,170740,1,4
400,216,171040,1,4
132,152,171440,6,0,B|88:252,2,100,0|0|2
8,244,171840,1,0
440,116,172040,1,12
168,180,172340,1,4
292,88,172640,1,4
16,68,172840,6,0,B|92:8|176:180,1,200
256,160,173140,1,0
328,232,173240,2,0,B|220:323|144:263,1,200,8|0
216,196,173540,1,0
272,140,173640,1,2
324,104,173740,1,0
372,68,173840,1,0
204,136,174040,1,8
152,104,174140,1,0
104,64,174240,1,0
16,68,174440,6,0,B|92:8|176:180,1,200
232,204,174740,1,0
312,292,174840,2,0,B|236:352|92:232,1,200,8|0
56,208,175140,1,0
136,180,175240,1,0
204,132,175340,1,0
272,84,175440,1,0
488,28,175640,1,8
488,116,175840,1,8
268,88,176040,5,10
368,136,176140,1,0
200,140,176340,1,2
124,200,176440,1,0
20,272,176640,1,2
120,256,176740,1,0
204,200,176840,2,0,B|289:148,1,100
392,204,177040,1,2
292,144,177140,1,0
188,100,177240,1,2
360,64,177440,1,0
56,68,177640,5,10
56,184,177740,1,0
252,192,177940,1,2
148,192,178040,1,0
312,76,178240,1,2
380,64,178340,1,0
428,124,178440,1,2
352,160,178540,2,0,B|224:160,1,100
184,164,178840,1,0
332,244,179040,1,2
72,312,179240,5,10
160,312,179340,2,0,B|300:312,1,100
200,304,179640,1,0
368,224,179840,1,2
364,224,179940,1,0
268,220,180040,1,2
184,164,180140,2,0,B|300:196,1,100
184,196,180440,1,0
96,96,180640,1,10
472,72,180840,5,10
368,88,180940,2,0,B|248:128,1,100
164,168,181240,1,0
316,256,181440,1,2
400,192,181540,1,0
280,156,181640,1,2
172,176,181740,1,0
92,236,181840,1,0
216,292,181940,1,2
292,212,182040,1,0
168,236,182240,1,2
452,72,182440,5,4
256,96,182740,5,0
432,208,183040,5,4
96,264,183240,5,6
364,284,183540,5,4
120,192,183840,2,0,B|280:196|288:64,1,200,8|0
288,40,184340,1,0
152,40,184440,1,8
36,164,184640,1,0
388,136,184840,1,6
232,200,185140,1,12
60,248,185440,1,4
328,236,185640,6,0,B|116:184|116:184|500:96,1,600
488,98,186440,2,0,B|56:104,1,400
88,108,187240,2,0,B|372:232|372:232|248:252,1,400
283,246,188040,2,0,B|188:216|188:216|372:144|372:144|224:124,1,400
256,192,189040,12,0,192040
