osu file format v14

[General]
AudioFilename: KAZE.O2SE-EarthQuake.mp3
AudioLeadIn: 0
PreviewTime: 60840
Countdown: 0
SampleSet: Soft
StackLeniency: 0.6
Mode: 2
LetterboxInBreaks: 1
WidescreenStoryboard: 0

[Editor]
Bookmarks: 14894
DistanceSpacing: 1.7
BeatDivisor: 4
GridSize: 4
TimelineZoom: 1

[Metadata]
Title:Earth Quake
TitleUnicode:
Artist:KAZE.o2SE
ArtistUnicode:
Creator:ZHSteven
Version:CTB newer competition
Source:O2Jam
Tags:EQ
BeatmapID:102921
BeatmapSetID:31297

[Difficulty]
HPDrainRate:5
CircleSize:4
OverallDifficulty:8
ApproachRate:8
SliderMultiplier:2
SliderTickRate:2

[Events]
//Background and Video events
0,0,"495_Earth_Quake.jpg",0,0
//Break Periods
//Storyboard Layer 0 (Background)
//Storyboard Layer 1 (Fail)
//Storyboard Layer 2 (Pass)
//Storyboard Layer 3 (Foreground)
Sprite,Foreground,Centre,"exclamation_mark.png",320,240 F,0,49840,49940,0,1 F,0,49940,50040,1,0 M,0,50040,,165,317 F,0,50040,50140,0,1 S,0,50040,50140,0.3139199 F,0,50140,50240,1,0 S,0,50140,50240,0.3139199 F,0,50240,50340,0,1 S,0,50240,50340,0.3139199 F,0,50340,50440,1,0 S,0,50340,50440,0.3139199
Sprite,Foreground,Centre,"exclamation_mark.png",320,240 S,0,60040,,0.3548799 M,0,60040,60140,134,121 F,0,60040,60140,0,1 F,0,60140,60240,1,0 F,0,60240,60340,0,1 F,0,60340,60440,1,0 F,0,60440,60540,0,1 F,0,60540,60640,1,0 F,0,60640,60740,0,1 F,0,60740,60840,1,0
Sprite,Foreground,Centre,"exclamation_mark.png",320,240 M,0,68440,,510,189 S,0,68440,,0.3344 F,0,68440,68540,0,1 F,0,68540,68640,1,0 F,0,68640,68740,0,1 F,0,68740,68840,1,0
Sprite,Foreground,Centre,"exclamation_mark.png",320,240 M,0,85840,,402,235 S,0,85840,,0.3856001 F,0,85840,85940,0,1 F,0,85940,86040,1,0 F,0,86040,86140,0,1 F,0,86140,86240,1,0 F,0,86240,86340,0,1 F,0,86340,86440,1,0 F,0,86440,,0
Sprite,Foreground,Centre,"exclamation_mark.png",320,240 F,0,146440,146540,0,1 F,0,146540,146640,1,0 F,0,146640,146740,0,1 F,0,146740,146840,1,0 F,0,146840,146940,0,1 F,0,146940,147040,1,0 F,0,147040,147140,0,1 F,0,147140,147240,1,0
//Storyboard Sound Samples

[TimingPoints]
16040,400,4,2,0,0,1,0
20740,-100,4,2,0,60,0,0
22440,400,4,1,0,60,1,0
25540,-100,4,1,0,100,0,0
26790,-100,4,2,0,60,0,0
27390,-100,4,1,0,60,0,0
28740,-100,4,1,0,100,0,0
30140,-100,4,1,0,71,0,0
30340,-100,4,1,0,100,0,0
31540,-100,4,1,0,70,0,0
31740,-100,4,1,0,100,0,0
32040,-100,4,2,0,31,0,0
32140,-100,4,2,0,41,0,0
32190,-100,4,2,0,51,0,0
32240,-100,4,2,0,61,0,0
32290,-100,4,2,0,70,0,0
32340,-100,4,2,0,80,0,0
32390,-100,4,2,0,90,0,0
32440,-100,4,2,0,100,0,0
32490,-100,4,1,0,100,0,0
35240,-100,4,2,0,30,0,0
35340,-100,4,2,0,40,0,0
35390,-100,4,2,0,50,0,0
35440,-100,4,2,0,59,0,0
35490,-100,4,2,0,71,0,0
35540,-100,4,2,0,79,0,0
35590,-100,4,2,0,90,0,0
35640,-100,4,2,0,100,0,0
35690,-100,4,1,0,100,0,0
36440,-50,4,1,0,100,0,0
36840,-100,4,1,0,100,0,0
38440,-100,4,2,0,30,0,0
38540,-100,4,2,0,41,0,0
38590,-100,4,2,0,51,0,0
38640,-100,4,2,0,60,0,0
38690,-100,4,2,0,70,0,0
38740,-100,4,2,0,80,0,0
38790,-100,4,2,0,90,0,0
38840,-100,4,2,0,100,0,0
38890,-100,4,1,0,100,0,0
38940,-100,4,1,0,80,0,0
41390,-100,4,1,0,100,0,0
41790,-100,4,2,0,50,0,0
42240,-100,4,2,0,100,0,0
42440,-100,4,2,0,50,0,0
42840,-100,4,2,0,100,0,0
42940,-100,4,2,0,49,0,0
47590,-100,4,2,0,100,0,0
50390,-50,4,2,0,100,0,0
51190,-100,4,2,0,100,0,0
57240,-66.6666666666667,4,2,0,100,0,0
57640,-100,4,2,0,100,0,0
60840,-50,4,1,0,100,0,1
70440,-100,4,1,0,100,0,1
73440,-100,4,1,0,100,0,0
74715,-100,4,1,0,60,0,0
74815,-100,4,1,0,100,0,0
76315,-100,4,1,0,69,0,0
76415,-100,4,1,0,100,0,0
78140,-100,4,1,0,59,0,0
78340,-100,4,1,0,100,0,0
79740,-100,4,1,0,59,0,0
79940,-100,4,1,0,100,0,0
81340,-100,4,1,0,59,0,0
81540,-100,4,1,0,100,0,0
82940,-100,4,1,0,61,0,0
83140,-100,4,1,0,100,0,0
86240,-100,4,1,0,100,0,1
86390,-100,4,2,0,71,0,0
86840,-100,4,2,0,100,0,0
99235,-100,4,1,0,71,0,0
99335,-100,4,2,0,71,0,0
99435,-100,4,1,0,71,0,0
99535,-100,4,2,0,71,0,0
99935,-100,4,1,0,71,0,0
100035,-100,4,2,0,71,0,0
100135,-100,4,1,0,71,0,0
100335,-100,4,2,0,71,0,0
100835,-100,4,1,0,71,0,0
100935,-100,4,2,0,71,0,0
101535,-100,4,1,0,71,0,0
101635,-100,4,2,0,71,0,0
101735,-100,4,1,0,71,0,0
101935,-100,4,2,0,71,0,0
102435,-100,4,1,0,71,0,0
102535,-100,4,2,0,71,0,0
103135,-100,4,1,0,71,0,0
103235,-100,4,2,0,71,0,0
103335,-100,4,1,0,71,0,0
103535,-100,4,2,0,71,0,0
104035,-100,4,1,0,71,0,0
104135,-100,4,2,0,71,0,0
104735,-100,4,1,0,71,0,0
104835,-100,4,2,0,71,0,0
104935,-100,4,1,0,71,0,0
105135,-100,4,2,0,71,0,0
105635,-100,4,1,0,71,0,0
105735,-100,4,2,0,71,0,0
106335,-100,4,1,0,71,0,0
106435,-100,4,2,0,71,0,0
106535,-100,4,1,0,71,0,0
106735,-100,4,2,0,71,0,0
107235,-100,4,1,0,71,0,0
107335,-100,4,2,0,71,0,0
107435,-100,4,1,0,71,0,0
107535,-100,4,2,0,71,0,0
107935,-100,4,1,0,71,0,0
108035,-100,4,2,0,71,0,0
108135,-100,4,1,0,71,0,0
108335,-100,4,2,0,71,0,0
108840,-100,4,1,0,100,0,0
111990,-50,4,1,0,100,0,0
112290,-200,4,1,0,70,0,0
112590,-200,4,1,0,40,0,0
112790,-50,4,1,0,100,0,0
113090,-200,4,1,0,71,0,0
113390,-200,4,1,0,39,0,0
113590,-50,4,1,0,70,0,0
113990,-50,4,1,0,81,0,0
114390,-50,4,1,0,91,0,0
114790,-50,4,1,0,100,0,0
115240,-200,4,1,0,100,0,0
115440,-200,4,2,0,40,0,0
116040,-100,4,2,0,100,0,0
116240,-200,4,2,0,41,0,0
116640,-100,4,1,0,100,0,0
116840,-200,4,2,0,40,0,0
117240,-100,4,1,0,100,0,0
117440,-200,4,2,0,40,0,0
117640,-100,4,2,0,100,0,0
117840,-200,4,2,0,40,0,0
118440,-100,4,1,0,100,0,0
118640,-200,4,2,0,41,0,0
119240,-100,4,2,0,100,0,0
119440,-200,4,2,0,39,0,0
119840,-100,4,1,0,100,0,0
120040,-200,4,2,0,41,0,0
120440,-100,4,1,0,100,0,0
120640,-200,4,2,0,41,0,0
120840,-100,4,2,0,100,0,0
121040,-200,4,2,0,41,0,0
121640,-100,4,1,0,100,0,0
121840,-200,4,2,0,41,0,0
122440,-100,4,2,0,100,0,0
122640,-200,4,2,0,40,0,0
123040,-100,4,1,0,100,0,0
123240,-200,4,2,0,39,0,0
123640,-100,4,1,0,100,0,0
123840,-100,4,2,0,40,0,0
124040,-100,4,2,0,100,0,0
124240,-200,4,2,0,40,0,0
124840,-66.6666666666667,4,1,0,100,0,0
125040,-66.6666666666667,4,2,0,41,0,0
125640,-100,4,2,0,100,0,0
125840,-200,4,2,0,40,0,0
126240,-200,4,1,0,100,0,0
126440,-200,4,2,0,40,0,0
126840,-200,4,1,0,100,0,0
127040,-200,4,2,0,39,0,0
127240,-50,4,2,0,100,0,0
127440,-200,4,2,0,42,0,0
128040,-100,4,1,0,100,0,0
128240,-200,4,2,0,40,0,0
128840,-100,4,2,0,100,0,0
129040,-200,4,2,0,40,0,0
129440,-100,4,1,0,100,0,0
129640,-200,4,2,0,40,0,0
130040,-100,4,1,0,100,0,0
130240,-200,4,2,0,40,0,0
130440,-100,4,2,0,100,0,0
130640,-200,4,2,0,40,0,0
131240,-100,4,1,0,100,0,0
131440,-200,4,2,0,39,0,0
132040,-100,4,2,0,100,0,0
132240,-200,4,2,0,40,0,0
132640,-100,4,1,0,100,0,0
132840,-200,4,2,0,40,0,0
133240,-100,4,1,0,100,0,0
133440,-200,4,2,0,40,0,0
133640,-100,4,2,0,100,0,0
133840,-200,4,2,0,41,0,0
134440,-100,4,1,0,100,0,0
134640,-200,4,2,0,41,0,0
135240,-100,4,2,0,100,0,0
135440,-200,4,2,0,39,0,0
135840,-100,4,1,0,100,0,0
136040,-200,4,2,0,40,0,0
136440,-100,4,1,0,100,0,0
136640,-200,4,2,0,40,0,0
136840,-100,4,2,0,100,0,0
137040,-200,4,2,0,42,0,0
137640,-100,4,1,0,100,0,0
137840,-200,4,2,0,40,0,0
138440,-100,4,2,0,100,0,0
138640,-200,4,2,0,40,0,0
139040,-100,4,1,0,100,0,0
139240,-200,4,2,0,40,0,0
139640,-100,4,1,0,100,0,0
139840,-200,4,2,0,39,0,0
140040,-100,4,2,0,100,0,0
140840,-100,4,1,0,100,0,0
141340,-100,4,1,0,70,0,0
141590,-100,4,1,0,100,0,0
141940,-100,4,1,0,71,0,0
142190,-100,4,1,0,100,0,0
142540,-100,4,1,0,71,0,0
142790,-100,4,1,0,100,0,0
143140,-100,4,1,0,70,0,0
143390,-100,4,1,0,100,0,0
143590,-100,4,1,0,80,0,0
143790,-100,4,1,0,70,0,0
143990,-100,4,1,0,100,0,0
147240,-50,4,2,0,100,0,1
150440,-50,4,2,0,100,0,1
150540,-50,4,1,0,81,0,1
150640,-50,4,1,0,61,0,1
150740,-50,4,1,0,90,0,1
150840,-50,4,1,0,70,0,1
150940,-50,4,1,0,51,0,1
151040,-50,4,1,0,81,0,1
151140,-50,4,1,0,60,0,1
151240,-50,4,1,0,40,0,1
151340,-50,4,1,0,70,0,1
151440,-50,4,1,0,50,0,1
151540,-50,4,1,0,31,0,1
151640,-50,4,1,0,60,0,1
151740,-50,4,1,0,40,0,1
151840,-50,4,1,0,19,0,1
151940,-50,4,1,0,31,0,1
152040,-50,4,1,0,41,0,1
152140,-50,4,1,0,49,0,1
152240,-50,4,1,0,59,0,1
152340,-50,4,1,0,69,0,1
152440,-50,4,1,0,80,0,1
152540,-50,4,1,0,90,0,1
152640,-50,4,1,0,100,0,1
152840,-50,4,1,0,51,0,1
152940,-50,4,1,0,100,0,1
153040,-50,4,1,0,50,0,1
153140,-50,4,1,0,100,0,1
153190,-100,4,2,0,100,0,1
153640,-100,4,2,0,41,0,1
154040,-100,4,2,0,61,0,1
154490,-100,4,2,0,100,0,1
155140,-100,4,2,0,59,0,1
155540,-100,4,2,0,81,0,1
155740,-100,4,2,0,100,0,1
155940,-100,4,2,0,100,0,0
156040,-100,4,2,0,51,0,0
156240,-100,4,2,0,69,0,0
156440,-100,4,2,0,88,0,0
156640,-50,4,2,0,100,0,1
160040,-100,4,2,0,100,0,0
160440,-100,4,1,0,100,0,0
160640,-100,4,2,0,100,0,0
160740,-100,4,1,0,100,0,0
160840,-100,4,2,0,100,0,0
160940,-100,4,1,0,100,0,0
161140,-100,4,2,0,100,0,0
161240,-100,4,1,0,100,0,0
161440,-100,4,2,0,100,0,0
162040,-100,4,1,0,100,0,0
162240,-100,4,2,0,100,0,0
162340,-100,4,1,0,100,0,0
162440,-100,4,2,0,100,0,0
162540,-100,4,1,0,100,0,0
162740,-100,4,2,0,100,0,0
162840,-100,4,1,0,100,0,0
163040,-100,4,2,0,100,0,0
163640,-100,4,1,0,100,0,0
163840,-100,4,2,0,100,0,0
163940,-100,4,1,0,100,0,0
164040,-100,4,2,0,100,0,0
164140,-100,4,1,0,100,0,0
164340,-100,4,2,0,100,0,0
164440,-100,4,1,0,100,0,0
164640,-100,4,2,0,100,0,0
165240,-100,4,1,0,100,0,0
165440,-100,4,2,0,100,0,0
165540,-100,4,1,0,100,0,0
165640,-100,4,2,0,100,0,0
165740,-100,4,1,0,100,0,0
165940,-100,4,2,0,100,0,0
166040,-100,4,1,0,100,0,0
166240,-100,4,2,0,100,0,0
166840,-100,4,1,0,100,0,0
167040,-100,4,2,0,100,0,0
167140,-100,4,1,0,100,0,0
167240,-100,4,2,0,100,0,0
167340,-100,4,1,0,100,0,0
167540,-100,4,2,0,100,0,0
167640,-100,4,1,0,100,0,0
167840,-100,4,2,0,100,0,0
168440,-100,4,1,0,100,0,0
168640,-100,4,2,0,100,0,0
168740,-100,4,1,0,100,0,0
168840,-100,4,2,0,100,0,0
168940,-100,4,1,0,100,0,0
169140,-100,4,2,0,100,0,0
169240,-100,4,1,0,100,0,0
169440,-100,4,2,0,100,0,0
169640,-100,4,1,0,100,0,0
179440,-100,4,1,0,69,0,0
182340,-100,4,1,0,100,0,0
185640,-100,4,1,0,0,0,0
188840,-100,4,1,0,69,0,0
189240,-100,4,1,0,60,0,0
189640,-100,4,1,0,50,0,0
190040,-100,4,1,0,40,0,0
190440,-100,4,1,0,31,0,0
190840,-100,4,1,0,19,0,0
191240,-100,4,1,0,10,0,0
191640,-100,4,1,0,0,0,0

[Colours]
Combo1 : 79,0,0
Combo2 : 204,0,0
Combo3 : 79,0,0
Combo4 : 0,0,0

[HitObjects]
256,192,16040,12,0,17240,0:0:0:0:
100,160,17640,6,0,B|436:160,2,300
256,192,19240,12,0,20440,0:0:0:0:
168,88,20840,6,0,B|47:176,2,150
356,88,21640,6,0,B|478:176,2,150
140,88,22440,5,4,0:0:0:0:
256,88,22540,1,0,0:0:0:0:
372,92,22640,1,8,0:0:0:0:
116,200,23040,1,0,0:0:0:0:
224,188,23240,1,8,0:0:0:0:
428,184,23640,1,0,0:0:0:0:
300,192,23840,1,8,0:0:0:0:
32,144,24240,1,0,0:0:0:0:
32,256,24440,1,8,0:0:0:0:
308,192,24840,1,0,0:0:0:0:
184,192,25040,1,8,0:0:0:0:
416,192,25240,1,0,0:0:0:0:
304,196,25440,1,4,0:0:0:0:
188,188,25640,6,0,B|316:220|380:124|284:-4|188:-4|44:-28|-16:20,1,500
184,156,26840,1,0,0:0:0:0:
252,156,26940,1,0,0:0:0:0:
320,156,27040,1,2,0:0:0:0:
388,156,27140,1,2,0:0:0:0:
452,152,27240,2,0,B|564:276|456:340|228:324,1,400
136,228,28240,1,0,0:0:0:0:
40,292,28440,1,0,0:0:0:0:
168,268,28640,1,0,0:0:0:0:
48,224,28840,1,0,0:0:0:0:
148,164,29040,5,0,0:0:0:0:
260,96,29240,1,8,0:0:0:0:
56,88,29440,1,0,0:0:0:0:
128,96,29540,1,0,0:0:0:0:
248,104,29740,1,0,0:0:0:0:
248,104,29840,1,0,0:0:0:0:
52,200,30040,2,10,B|180:196,1,100,10|0,0:0|0:0,0:0:0:0:
340,192,30440,5,0,0:0:0:0:
248,280,30640,1,0,0:0:0:0:
116,260,30840,1,8,0:0:0:0:
340,192,31040,1,0,0:0:0:0:
268,192,31140,1,0,0:0:0:0:
132,104,31340,1,0,0:0:0:0:
132,104,31440,1,0,0:0:0:0:
356,68,31640,1,10,0:0:0:0:
292,116,31840,1,0,0:0:0:0:
288,140,32040,6,0,B|320:172|320:172,3,25
236,184,32240,6,0,B|250:198|218:166,3,25
180,200,32440,1,8,0:0:0:0:
48,112,32640,5,0,0:0:0:0:
128,112,32740,1,0,0:0:0:0:
0,168,32940,1,0,0:0:0:0:
72,168,33040,1,0,0:0:0:0:
144,168,33140,1,0,0:0:0:0:
212,168,33240,1,10,0:0:0:0:
136,228,33440,1,0,0:0:0:0:
264,116,33640,5,0,0:0:0:0:
152,164,33840,1,0,0:0:0:0:
244,240,34040,1,8,0:0:0:0:
412,168,34240,1,0,0:0:0:0:
356,176,34340,1,0,0:0:0:0:
508,224,34540,5,0,0:0:0:0:
432,232,34640,1,0,0:0:0:0:
364,236,34740,1,0,0:0:0:0:
300,232,34840,1,10,0:0:0:0:
348,224,35040,1,0,0:0:0:0:
200,88,35240,6,0,B|232:120,7,25
200,88,35640,1,8,0:0:0:0:
344,96,35840,2,0,B|284:96,1,50
216,136,36140,1,0,0:0:0:0:
164,176,36240,1,0,0:0:0:0:
124,232,36340,1,0,0:0:0:0:
200,252,36440,5,10,0:0:0:0:
264,296,36540,1,0,0:0:0:0:
124,320,36640,1,0,0:0:0:0:
36,300,36740,1,0,0:0:0:0:
124,232,36840,1,0,0:0:0:0:
12,148,37040,1,0,0:0:0:0:
176,84,37240,1,8,0:0:0:0:
72,152,37440,6,0,B|148:188,1,50
212,200,37740,1,0,0:0:0:0:
284,236,37840,1,0,0:0:0:0:
364,280,37940,1,0,0:0:0:0:
268,312,38040,1,10,0:0:0:0:
172,344,38140,1,0,0:0:0:0:
96,328,38240,2,0,B|148:284,1,50
240,112,38440,6,0,B|208:80,7,25
200,72,38840,1,8,0:0:0:0:
332,72,39040,1,0,0:0:0:0:
392,72,39140,1,0,0:0:0:0:
240,112,39340,1,0,0:0:0:0:
184,116,39440,1,0,0:0:0:0:
184,116,39540,1,0,0:0:0:0:
244,112,39640,2,0,B|352:112,1,100,10|0,0:0|0:0,0:0:0:0:
444,188,40040,5,0,0:0:0:0:
380,188,40140,1,0,0:0:0:0:
440,252,40240,1,0,0:0:0:0:
508,252,40340,1,0,0:0:0:0:
440,320,40440,2,2,B|340:320,1,100,8|0,0:0|0:0,0:0:0:0:
252,324,40740,5,0,0:0:0:0:
192,328,40840,1,0,0:0:0:0:
124,328,40940,1,0,0:0:0:0:
128,284,41040,1,0,0:0:0:0:
176,256,41140,1,0,0:0:0:0:
216,232,41240,2,2,B|316:232,1,100,8|0,0:0|0:0,0:0:0:0:
436,324,41640,5,6,0:0:0:0:
296,328,41840,1,2,0:0:0:0:
436,320,42040,2,0,B|360:280,1,50,0|0,0:0|0:0,0:0:0:0:
504,272,42240,1,0,0:0:0:0:
376,196,42440,2,0,B|308:196,1,50,0|0,0:0|0:0,0:0:0:0:
252,196,42640,1,0,0:0:0:0:
80,116,42840,2,0,B|144:116,1,50,8|0,0:0|0:0,0:0:0:0:
184,116,43040,1,0,0:0:0:0:
404,236,43240,5,0,0:0:0:0:
344,240,43340,1,0,0:0:0:0:
284,240,43440,1,0,0:0:0:0:
52,224,43640,2,0,B|108:224,1,50,0|0,0:0|0:0,0:0:0:0:
168,228,43840,1,0,0:0:0:0:
240,240,43940,1,0,0:0:0:0:
168,152,44040,2,0,B|248:152,1,50,0|0,0:0|0:0,0:0:0:0:
284,148,44240,1,0,0:0:0:0:
240,240,44340,1,0,0:0:0:0:
356,272,44440,2,0,B|406:272,2,50
232,160,44840,5,2,0:0:0:0:
92,148,45040,5,0,0:0:0:0:
60,164,45140,1,0,0:0:0:0:
28,196,45240,1,0,0:0:0:0:
12,228,45340,1,0,0:0:0:0:
12,268,45440,1,10,0:0:0:0:
92,152,45640,5,0,0:0:0:0:
108,192,45740,1,0,0:0:0:0:
140,224,45840,1,0,0:0:0:0:
172,240,45940,1,0,0:0:0:0:
220,240,46040,1,10,0:0:0:0:
344,260,46240,5,0,0:0:0:0:
312,244,46340,1,0,0:0:0:0:
280,212,46440,1,0,0:0:0:0:
248,192,46540,1,0,0:0:0:0:
228,148,46640,1,10,0:0:0:0:
344,260,46840,5,0,0:0:0:0:
376,224,46940,1,0,0:0:0:0:
416,188,47040,1,0,0:0:0:0:
464,156,47140,1,0,0:0:0:0:
512,120,47240,1,2,0:0:0:0:
408,116,47440,5,0,0:0:0:0:
296,120,47640,5,8,0:0:0:0:
176,120,47840,5,0,0:0:0:0:
76,136,48040,6,8,B|140:88|188:136,1,100,0|0,0:0|0:0,0:0:0:0:
376,120,48440,1,8,0:0:0:0:
176,200,48640,2,0,B|144:248|208:296,1,100
0,296,49040,1,0,0:0:0:0:
196,292,49240,2,0,B|164:228|116:212,1,100,8|0,0:0|0:0,0:0:0:0:
20,192,49640,1,0,0:0:0:0:
241,153,49840,2,0,B|193:121|148:152,1,100,0|8,0:0|0:0,0:0:0:0:
388,164,50240,1,0,0:0:0:0:
264,224,50440,2,0,B|356:416|504:196|444:-24|204:0|268:248,1,600
156,216,51240,5,0,0:0:0:0:
328,168,51440,2,0,B|292:149|244:213,1,100,0|8,0:0|0:0,0:0:0:0:
440,128,51840,1,0,0:0:0:0:
348,288,52040,2,0,B|224:292,1,100
80,224,52440,1,8,0:0:0:0:
200,208,52640,1,0,0:0:0:0:
256,192,52840,12,4,54040,0:0:0:0:
40,208,54440,5,0,0:0:0:0:
88,208,54540,1,0,0:0:0:0:
144,208,54640,1,0,0:0:0:0:
192,208,54740,1,0,0:0:0:0:
240,208,54840,1,8,0:0:0:0:
88,208,55040,1,0,0:0:0:0:
240,212,55240,5,0,0:0:0:0:
284,168,55340,1,0,0:0:0:0:
220,140,55440,1,0,0:0:0:0:
276,96,55540,1,0,0:0:0:0:
240,52,55640,1,8,0:0:0:0:
368,56,55840,1,0,0:0:0:0:
224,72,56040,5,0,0:0:0:0:
224,72,56140,1,0,0:0:0:0:
224,72,56240,1,0,0:0:0:0:
224,72,56340,1,0,0:0:0:0:
160,72,56440,1,8,0:0:0:0:
160,72,56540,1,0,0:0:0:0:
160,72,56640,1,0,0:0:0:0:
160,72,56740,1,0,0:0:0:0:
184,140,56840,2,0,B|96:140,1,50
188,140,57040,2,0,B|276:140,1,50
304,140,57240,2,0,B|229:140,1,74.9999977648259,8|0,0:0|0:0,0:0:0:0:
300,140,57440,2,0,B|375:140,1,74.9999977648259,8|0,0:0|0:0,0:0:0:0:
440,208,57640,5,0,0:0:0:0:
388,208,57740,1,0,0:0:0:0:
336,208,57840,1,0,0:0:0:0:
288,208,57940,1,0,0:0:0:0:
240,208,58040,1,8,0:0:0:0:
388,204,58240,1,0,0:0:0:0:
272,212,58440,5,0,0:0:0:0:
272,172,58540,1,0,0:0:0:0:
272,136,58640,1,0,0:0:0:0:
272,92,58740,1,0,0:0:0:0:
272,52,58840,1,8,0:0:0:0:
384,52,59040,1,0,0:0:0:0:
200,140,59240,6,0,B|152:100,2,50
256,180,59540,1,0,0:0:0:0:
292,212,59640,1,8,0:0:0:0:
320,252,59740,1,0,0:0:0:0:
304,288,59840,1,0,0:0:0:0:
260,272,59940,1,0,0:0:0:0:
248,264,60040,2,0,B|176:260,1,50
248,264,60240,2,0,B|312:264,1,50
400,184,60440,2,0,B|288:184,2,100,8|0|8,0:0|0:0|0:0,0:0:0:0:
400,176,60840,6,2,B|388:48|260:40|328:80|192:228|308:376|400:332|512:52,1,600,2|0,0:0|0:0,0:0:0:0:
312,124,61640,2,2,B|376:316|280:380|104:164,1,400,2|0,0:0|0:0,0:0:0:0:
256,232,62240,1,0,0:0:0:0:
408,116,62440,2,0,B|328:4|228:112|520:312,1,400,2|0,0:0|0:0,0:0:0:0:
304,240,63040,2,0,B|304:112|240:-16|72:328,1,400,2|0,0:0|0:0,0:0:0:0:
264,272,63640,1,0,0:0:0:0:
432,184,64040,6,2,C|248:72,1,200,2|0,0:0|0:0,0:0:0:0:
432,184,64440,2,2,C|340:176|420:332,1,200
432,184,64840,2,2,B|445:35|520:64|512:236|460:308|394:178|220:192,1,400
104,196,65440,1,0,0:0:0:0:
320,160,65640,2,0,C|180:304,1,200,2|0,0:0|0:0,0:0:0:0:
440,224,66040,1,8,0:0:0:0:
272,296,66240,1,0,0:0:0:0:
96,240,66440,1,2,0:0:0:0:
392,56,66740,1,8,0:0:0:0:
152,164,67040,1,0,0:0:0:0:
264,52,67240,6,2,L|408:244,1,200,0|2,0:0|0:0,0:0:0:0:
152,220,67640,1,0,0:0:0:0:
256,300,67840,1,2,0:0:0:0:
420,124,68040,2,2,L|247:240,1,200,0|2,0:0|0:0,0:0:0:0:
412,208,68640,1,0,0:0:0:0:
256,92,68840,2,0,L|96:240,3,200,2|0|2|2,0:0|0:0|0:0|0:0,0:0:0:0:
328,200,69640,1,8,0:0:0:0:
176,116,70040,1,8,0:0:0:0:
56,144,70240,1,0,0:0:0:0:
336,192,70440,5,4,0:0:0:0:
204,192,70740,1,4,0:0:0:0:
456,188,71040,1,4,0:0:0:0:
92,184,71240,1,4,0:0:0:0:
320,96,71540,1,4,0:0:0:0:
176,196,71840,1,0,0:0:0:0:
380,224,72240,5,0,0:0:0:0:
324,180,72340,1,0,0:0:0:0:
360,116,72440,1,12,0:0:0:0:
256,204,72640,1,0,0:0:0:0:
464,56,72840,1,4,0:0:0:0:
256,72,73140,1,4,0:0:0:0:
184,200,73440,1,12,0:0:0:0:
208,252,73640,5,0,0:0:0:0:
300,248,73840,1,0,0:0:0:0:
208,128,74040,2,0,L|128:220,1,100,8|0,0:0|0:0,0:0:0:0:
296,128,74340,2,0,B|384:236|392:212,1,100
312,244,74640,1,0,0:0:0:0:
240,256,74740,1,0,0:0:0:0:
184,224,74840,2,0,B|72:144|120:48|312:48|352:216,1,400,8|8,0:0|0:0,0:0:0:0:
144,220,75840,5,0,0:0:0:0:
192,216,75940,1,0,0:0:0:0:
0,320,76140,1,0,0:0:0:0:
40,320,76240,1,0,0:0:0:0:
80,320,76340,1,0,0:0:0:0:
120,320,76440,2,0,B|248:320|-80:184|-24:144|236:88,1,400,8|8,0:0|0:0,0:0:0:0:
384,120,77440,5,0,0:0:0:0:
280,120,77540,1,0,0:0:0:0:
88,116,77740,1,0,0:0:0:0:
180,116,77840,1,0,0:0:0:0:
368,196,78040,1,8,0:0:0:0:
208,200,78240,1,0,0:0:0:0:
76,188,78440,5,0,0:0:0:0:
240,116,78640,1,0,0:0:0:0:
376,216,78840,1,8,0:0:0:0:
176,120,79040,1,0,0:0:0:0:
76,124,79140,1,0,0:0:0:0:
288,112,79340,1,0,0:0:0:0:
380,116,79440,1,0,0:0:0:0:
224,176,79640,2,0,B|200:256|376:308,1,200,8|0,0:0|0:0,0:0:0:0:
304,264,80140,5,0,0:0:0:0:
280,208,80240,1,0,0:0:0:0:
228,176,80340,1,0,0:0:0:0:
172,152,80440,1,8,0:0:0:0:
308,136,80640,1,0,0:0:0:0:
368,96,80740,1,0,0:0:0:0:
212,88,80940,1,0,0:0:0:0:
152,88,81040,1,0,0:0:0:0:
104,88,81140,5,0,0:0:0:0:
216,88,81240,1,8,0:0:0:0:
328,116,81440,1,0,0:0:0:0:
408,176,81640,5,0,0:0:0:0:
336,184,81740,1,0,0:0:0:0:
272,160,81840,1,0,0:0:0:0:
208,200,81940,1,0,0:0:0:0:
144,248,82040,1,8,0:0:0:0:
16,228,82240,5,0,0:0:0:0:
72,232,82340,1,0,0:0:0:0:
224,328,82540,1,0,0:0:0:0:
152,328,82640,1,0,0:0:0:0:
4,336,82840,1,8,0:0:0:0:
164,332,83040,1,0,0:0:0:0:
264,264,83240,5,4,0:0:0:0:
136,160,83540,1,0,0:0:0:0:
132,232,83640,1,8,0:0:0:0:
280,168,83840,1,4,0:0:0:0:
64,96,84040,1,0,0:0:0:0:
320,96,84340,1,0,0:0:0:0:
416,68,84440,1,8,0:0:0:0:
164,184,84640,1,4,0:0:0:0:
380,296,85040,5,0,0:0:0:0:
340,296,85140,1,4,0:0:0:0:
300,296,85240,1,8,0:0:0:0:
428,256,85440,1,4,0:0:0:0:
248,244,85640,2,0,B|380:156,1,150
304,156,86040,2,0,B|248:164,1,50
192,168,86240,2,0,B|124:160,1,50
72,160,86440,6,0,B|16:112,3,50,2|0|0|0,0:0|0:0|0:0|0:0,0:0:0:0:
88,96,86840,6,0,B|138:96,3,50,8|0|0|0,0:0|0:0|0:0|0:0,0:0:0:0:
172,152,87240,6,0,B|108:88,3,50,2|0|0|0,0:0|0:0|0:0|0:0,0:0:0:0:
224,152,87640,6,0,B|152:152,3,50,8|0|8|0,0:0|0:0|0:0|0:0,0:0:0:0:
256,184,88040,6,0,B|204:128,3,50
264,184,88440,6,0,B|314:184,3,50,8|0|0|0,0:0|0:0|0:0|0:0,0:0:0:0:
314,184,88840,2,0,B|376:184,1,50,2|0,0:0|0:0,0:0:0:0:
456,180,89040,2,0,B|384:184,1,50
484,200,89240,2,0,B|404:200,1,50,8|0,0:0|0:0,0:0:0:0:
356,180,89440,2,0,B|432:180,1,50,8|0,0:0|0:0,0:0:0:0:
504,184,89640,6,0,B|504:112,3,50
440,132,90040,6,0,B|390:132,3,50,8|0|0|0,0:0|0:0|0:0|0:0,0:0:0:0:
320,132,90440,6,0,B|364:80,3,50,2|0|0|0,0:0|0:0|0:0|0:0,0:0:0:0:
280,88,90840,6,0,B|230:88,3,50,8|0|8|0,0:0|0:0|0:0|0:0,0:0:0:0:
160,84,91240,6,0,B|208:32,2,50
88,104,91540,1,0,0:0:0:0:
20,104,91640,2,0,B|70:104,1,50,8|0,0:0|0:0,0:0:0:0:
184,104,91840,2,0,B|128:104,1,50,8|0,0:0|0:0,0:0:0:0:
0,200,92040,2,0,B|150:200,1,150,12|0,0:0|0:0,0:0:0:0:
212,272,92440,2,0,B|162:272,1,50,8|0,0:0|0:0,0:0:0:0:
248,272,92640,2,0,B|298:272,1,50,2|0,0:0|0:0,0:0:0:0:
368,200,92840,6,0,B|335:237,3,50
404,216,93240,6,0,B|453:213,3,50,8|0|0|0,0:0|0:0|0:0|0:0,0:0:0:0:
344,144,93640,6,0,B|268:144,3,50,2|0|0|0,0:0|0:0|0:0|0:0,0:0:0:0:
224,144,94040,6,0,B|172:72,3,50,8|0|8|0,0:0|0:0|0:0|0:0,0:0:0:0:
96,100,94440,6,0,B|34:100,3,50
104,172,94840,6,0,B|154:172,3,50,8|0|0|0,0:0|0:0|0:0|0:0,0:0:0:0:
204,176,95240,6,0,B|252:212,3,50,2|0|0|0,0:0|0:0|0:0|0:0,0:0:0:0:
316,208,95640,2,0,B|244:208,1,50,8|0,0:0|0:0,0:0:0:0:
188,212,95840,2,0,B|260:212,1,50,8|0,0:0|0:0,0:0:0:0:
312,204,96040,6,0,B|312:132,3,50
244,212,96440,6,0,B|194:212,3,50,8|0|0|0,0:0|0:0|0:0|0:0,0:0:0:0:
128,216,96840,6,0,B|78:216,3,50,2|0|0|0,0:0|0:0|0:0|0:0,0:0:0:0:
136,292,97240,6,0,B|196:292,2,50,8|0|8,0:0|0:0|0:0,0:0:0:0:
260,292,97540,1,0,0:0:0:0:
334,292,97640,2,0,B|384:292,1,50
440,216,97840,2,0,B|354:216,1,50,8|0,0:0|0:0,0:0:0:0:
512,148,98040,6,0,B|424:148,1,50,2|0,0:0|0:0,0:0:0:0:
338,148,98240,2,8,B|388:148,1,50,8|0,0:0|0:0,0:0:0:0:
248,140,98440,2,0,B|98:143,1,150,4|0,0:0|0:0,0:0:0:0:
208,212,98840,2,0,B|158:212,1,50,8|0,0:0|0:0,0:0:0:0:
240,212,99040,2,8,B|304:212,1,50
296,136,99240,5,2,0:0:0:0:
256,136,99340,1,0,0:0:0:0:
184,144,99440,1,0,0:0:0:0:
104,168,99540,1,2,0:0:0:0:
32,208,99640,1,8,0:0:0:0:
216,136,99840,5,2,0:0:0:0:
256,136,99940,1,0,0:0:0:0:
328,144,100040,1,0,0:0:0:0:
412,168,100140,1,2,0:0:0:0:
504,216,100240,1,8,0:0:0:0:
336,96,100440,1,8,0:0:0:0:
148,228,100640,1,2,0:0:0:0:
348,252,100840,5,2,0:0:0:0:
296,256,100940,1,0,0:0:0:0:
240,284,101040,1,0,0:0:0:0:
180,312,101140,1,2,0:0:0:0:
116,308,101240,1,8,0:0:0:0:
304,320,101440,1,2,0:0:0:0:
300,256,101540,1,0,0:0:0:0:
224,252,101640,1,2,0:0:0:0:
296,252,101740,1,0,0:0:0:0:
376,248,101840,1,0,0:0:0:0:
452,220,101940,1,2,0:0:0:0:
416,176,102040,1,8,0:0:0:0:
256,160,102240,1,2,0:0:0:0:
432,56,102440,5,2,0:0:0:0:
388,56,102540,1,0,0:0:0:0:
320,56,102640,1,0,0:0:0:0:
252,56,102740,1,2,0:0:0:0:
160,56,102840,1,8,0:0:0:0:
376,152,103040,1,2,0:0:0:0:
304,192,103140,1,0,0:0:0:0:
240,240,103240,1,2,0:0:0:0:
132,276,103340,1,0,0:0:0:0:
232,260,103440,1,0,0:0:0:0:
344,224,103540,1,2,0:0:0:0:
448,176,103640,1,8,0:0:0:0:
272,176,103840,1,2,0:0:0:0:
92,200,104040,5,2,0:0:0:0:
156,168,104140,1,0,0:0:0:0:
240,136,104240,1,0,0:0:0:0:
336,108,104340,1,2,0:0:0:0:
444,120,104440,1,8,0:0:0:0:
240,212,104640,1,2,0:0:0:0:
144,268,104740,1,0,0:0:0:0:
68,320,104840,1,2,0:0:0:0:
192,320,104940,1,0,0:0:0:0:
300,312,105040,1,0,0:0:0:0:
392,272,105140,1,2,0:0:0:0:
448,216,105240,1,8,0:0:0:0:
408,204,105440,1,2,0:0:0:0:
232,208,105640,5,2,0:0:0:0:
296,208,105740,1,0,0:0:0:0:
232,212,105840,1,0,0:0:0:0:
296,208,105940,1,2,0:0:0:0:
236,216,106040,1,8,0:0:0:0:
392,336,106240,1,2,0:0:0:0:
464,328,106340,1,0,0:0:0:0:
392,336,106440,1,2,0:0:0:0:
312,320,106540,1,0,0:0:0:0:
240,292,106640,1,0,0:0:0:0:
316,320,106740,1,2,0:0:0:0:
240,292,106840,1,8,0:0:0:0:
400,168,107040,1,2,0:0:0:0:
280,204,107240,5,2,0:0:0:0:
368,204,107340,1,0,0:0:0:0:
280,200,107440,1,0,0:0:0:0:
196,184,107540,1,2,0:0:0:0:
108,128,107640,1,8,0:0:0:0:
268,144,107840,1,2,0:0:0:0:
348,128,107940,1,0,0:0:0:0:
352,136,108040,1,2,0:0:0:0:
272,144,108140,1,0,0:0:0:0:
184,152,108240,1,0,0:0:0:0:
96,160,108340,1,2,0:0:0:0:
184,148,108440,1,8,0:0:0:0:
16,260,108640,1,2,0:0:0:0:
264,232,108840,5,4,0:0:0:0:
168,152,109140,1,0,0:0:0:0:
348,96,109440,1,4,0:0:0:0:
32,160,109640,1,4,0:0:0:0:
184,240,109940,1,4,0:0:0:0:
288,176,110240,1,4,0:0:0:0:
256,336,110640,5,6,0:0:0:0:
256,336,110740,1,2,0:0:0:0:
256,296,110840,1,4,0:0:0:0:
176,296,111040,1,2,0:0:0:0:
176,216,111240,1,2,0:0:0:0:
176,96,111540,1,2,0:0:0:0:
256,184,111840,1,6,0:0:0:0:
416,196,112040,5,4,0:0:0:0:
504,92,112340,1,0,0:0:0:0:
364,68,112640,1,0,0:0:0:0:
152,60,112840,5,4,0:0:0:0:
48,168,113140,1,0,0:0:0:0:
216,188,113440,1,0,0:0:0:0:
364,244,113640,5,4,0:0:0:0:
56,72,114040,1,0,0:0:0:0:
440,24,114440,5,4,0:0:0:0:
40,244,114840,1,4,0:0:0:0:
384,168,115240,5,0,0:0:0:0:
284,164,115440,1,0,0:0:0:0:
184,160,115640,1,0,0:0:0:0:
284,164,115840,1,0,0:0:0:0:
484,168,116040,1,8,0:0:0:0:
384,168,116240,1,0,0:0:0:0:
284,168,116440,1,0,0:0:0:0:
184,240,116640,5,0,0:0:0:0:
0,236,116840,1,0,0:0:0:0:
180,236,117040,1,0,0:0:0:0:
288,244,117240,1,0,0:0:0:0:
384,168,117440,1,0,0:0:0:0:
184,164,117640,1,8,0:0:0:0:
284,168,117840,1,0,0:0:0:0:
384,164,118040,1,0,0:0:0:0:
284,168,118240,1,0,0:0:0:0:
184,164,118440,5,0,0:0:0:0:
284,168,118640,1,0,0:0:0:0:
384,168,118840,1,0,0:0:0:0:
488,244,119040,1,0,0:0:0:0:
276,248,119240,1,8,0:0:0:0:
384,260,119440,1,0,0:0:0:0:
488,160,119640,1,0,0:0:0:0:
384,168,119840,5,0,0:0:0:0:
284,176,120040,1,0,0:0:0:0:
184,176,120240,1,0,0:0:0:0:
80,172,120440,1,0,0:0:0:0:
184,176,120640,1,0,0:0:0:0:
380,168,120840,1,8,0:0:0:0:
280,176,121040,1,0,0:0:0:0:
188,176,121240,1,0,0:0:0:0:
80,172,121440,1,0,0:0:0:0:
184,172,121640,5,0,0:0:0:0:
284,172,121840,1,0,0:0:0:0:
384,168,122040,1,0,0:0:0:0:
284,176,122240,1,0,0:0:0:0:
84,176,122440,1,8,0:0:0:0:
184,168,122640,1,0,0:0:0:0:
284,176,122840,1,0,0:0:0:0:
380,244,123040,5,0,0:0:0:0:
492,168,123240,1,0,0:0:0:0:
384,168,123440,1,0,0:0:0:0:
280,176,123640,1,0,0:0:0:0:
180,176,123840,1,0,0:0:0:0:
8,176,124040,1,8,0:0:0:0:
96,176,124240,1,0,0:0:0:0:
180,172,124440,1,0,0:0:0:0:
280,168,124640,1,0,0:0:0:0:
284,172,124840,5,0,0:0:0:0:
384,172,125040,1,0,0:0:0:0:
284,172,125240,1,0,0:0:0:0:
184,172,125440,1,0,0:0:0:0:
384,176,125640,1,8,0:0:0:0:
284,176,125840,1,0,0:0:0:0:
184,176,126040,1,0,0:0:0:0:
92,172,126240,5,0,0:0:0:0:
0,168,126440,1,0,0:0:0:0:
96,172,126640,1,0,0:0:0:0:
184,168,126840,1,0,0:0:0:0:
284,176,127040,1,0,0:0:0:0:
484,180,127240,1,8,0:0:0:0:
384,176,127440,1,0,0:0:0:0:
284,176,127640,1,0,0:0:0:0:
184,176,127840,1,0,0:0:0:0:
92,180,128040,5,0,0:0:0:0:
0,180,128240,1,0,0:0:0:0:
96,180,128440,1,0,0:0:0:0:
180,176,128640,1,0,0:0:0:0:
352,176,128840,1,8,0:0:0:0:
448,176,129040,1,0,0:0:0:0:
352,176,129240,1,0,0:0:0:0:
272,176,129440,5,0,0:0:0:0:
184,180,129640,1,0,0:0:0:0:
100,172,129840,1,0,0:0:0:0:
8,176,130040,1,0,0:0:0:0:
100,172,130240,1,0,0:0:0:0:
268,176,130440,1,8,0:0:0:0:
184,180,130640,1,0,0:0:0:0:
268,180,130840,1,0,0:0:0:0:
352,176,131040,1,0,0:0:0:0:
184,176,131240,5,0,0:0:0:0:
268,176,131440,1,0,0:0:0:0:
180,176,131640,1,0,0:0:0:0:
96,176,131840,1,0,0:0:0:0:
272,176,132040,1,8,0:0:0:0:
184,176,132240,1,0,0:0:0:0:
264,248,132440,1,0,0:0:0:0:
364,176,132640,5,0,0:0:0:0:
464,176,132840,1,0,0:0:0:0:
356,180,133040,1,0,0:0:0:0:
264,176,133240,1,0,0:0:0:0:
184,172,133440,1,0,0:0:0:0:
8,168,133640,1,8,0:0:0:0:
92,172,133840,1,0,0:0:0:0:
184,176,134040,1,0,0:0:0:0:
264,176,134240,1,0,0:0:0:0:
432,180,134440,5,0,0:0:0:0:
348,172,134640,1,0,0:0:0:0:
264,176,134840,1,0,0:0:0:0:
348,176,135040,1,0,0:0:0:0:
432,176,135240,1,8,0:0:0:0:
348,172,135440,1,0,0:0:0:0:
264,176,135640,1,0,0:0:0:0:
96,172,135840,5,0,0:0:0:0:
12,172,136040,1,0,0:0:0:0:
96,176,136240,1,0,0:0:0:0:
264,168,136440,1,0,0:0:0:0:
356,168,136640,1,0,0:0:0:0:
184,172,136840,1,8,0:0:0:0:
280,248,137040,1,0,0:0:0:0:
356,172,137240,1,0,0:0:0:0:
452,176,137440,1,0,0:0:0:0:
344,172,137640,5,0,0:0:0:0:
256,168,137840,1,0,0:0:0:0:
160,168,138040,1,0,0:0:0:0:
64,168,138240,1,0,0:0:0:0:
256,168,138440,1,8,0:0:0:0:
160,168,138640,1,0,0:0:0:0:
252,172,138840,1,0,0:0:0:0:
340,168,139040,5,0,0:0:0:0:
436,168,139240,1,0,0:0:0:0:
344,168,139440,1,0,0:0:0:0:
248,168,139640,1,0,0:0:0:0:
340,168,139840,1,0,0:0:0:0:
160,168,140040,2,0,B|256:96,3,100
184,112,140840,5,4,0:0:0:0:
184,112,140940,1,0,0:0:0:0:
184,112,141040,1,8,0:0:0:0:
320,192,141440,1,0,0:0:0:0:
320,112,141640,1,8,0:0:0:0:
80,176,142040,1,0,0:0:0:0:
80,260,142240,1,8,0:0:0:0:
404,192,142640,1,0,0:0:0:0:
296,192,142840,1,8,0:0:0:0:
468,128,143240,1,0,0:0:0:0:
316,120,143440,1,8,0:0:0:0:
164,160,143640,1,0,0:0:0:0:
72,252,143840,1,4,0:0:0:0:
288,224,144040,6,0,C|360:352|448:312|368:256|144:344,1,600,4|0,0:0|0:0,0:0:0:0:
128,304,145340,1,0,0:0:0:0:
128,264,145440,1,0,0:0:0:0:
136,224,145540,1,0,0:0:0:0:
152,184,145640,2,0,L|280:64|280:184|400:184,1,400,0|2,0:0|0:0,0:0:0:0:
232,184,146840,5,2,0:0:0:0:
184,184,147040,5,2,0:0:0:0:
136,184,147240,6,2,L|136:360|320:360|320:112,1,600
256,72,147940,1,2,0:0:0:0:
176,72,148040,2,0,L|32:72|32:152,1,200
104,168,148340,1,2,0:0:0:0:
184,168,148440,2,0,L|336:168|336:64|480:64|480:232|440:232,1,600,0|0,0:0|0:0,0:0:0:0:
368,232,149140,1,2,0:0:0:0:
288,232,149240,2,0,L|288:336|184:336,1,200
112,336,149540,1,2,0:0:0:0:
32,336,149640,2,0,L|32:32|136:32|136:128|80:128|80:240,1,650
80,336,150440,6,0,L|176:336|176:224|128:224|128:160|184:160|184:16|416:16|416:112|360:112|360:64|232:64|232:184|464:184|464:16|520:16|520:224|424:224|424:352|224:352|224:224|384:224|384:264|336:264|336:312|288:312|288:272,1,2800
256,112,153440,5,0,0:0:0:0:
224,184,153640,1,0,0:0:0:0:
192,160,153740,1,0,0:0:0:0:
160,136,153840,1,0,0:0:0:0:
128,112,153940,1,0,0:0:0:0:
128,152,154040,1,0,0:0:0:0:
160,176,154140,1,0,0:0:0:0:
192,200,154240,1,0,0:0:0:0:
224,224,154340,1,0,0:0:0:0:
224,264,154440,5,0,0:0:0:0:
224,264,154540,1,0,0:0:0:0:
224,264,154640,1,0,0:0:0:0:
256,288,154740,1,0,0:0:0:0:
288,264,154840,1,0,0:0:0:0:
288,264,154940,1,0,0:0:0:0:
288,264,155040,1,0,0:0:0:0:
288,224,155140,5,0,0:0:0:0:
320,200,155240,1,0,0:0:0:0:
352,176,155340,1,0,0:0:0:0:
384,152,155440,1,0,0:0:0:0:
384,112,155540,1,0,0:0:0:0:
352,136,155640,1,0,0:0:0:0:
320,160,155740,1,0,0:0:0:0:
288,184,155840,1,0,0:0:0:0:
256,208,155940,1,0,0:0:0:0:
256,248,156040,5,0,0:0:0:0:
256,228,156140,1,0,0:0:0:0:
256,208,156240,1,0,0:0:0:0:
256,188,156340,1,0,0:0:0:0:
256,168,156440,1,0,0:0:0:0:
256,147,156540,1,0,0:0:0:0:
256,127,156640,1,0,0:0:0:0:
212,52,156840,6,0,B|320:116,1,100
208,52,157040,2,0,B|116:144,1,100
32,140,157240,2,0,B|136:204,1,100
172,224,157440,2,0,B|32:172,1,100
112,216,157640,2,0,B|180:116,1,100
260,136,157840,2,0,B|228:232,1,100
272,240,158040,2,0,B|160:176,1,100
268,136,158240,2,0,B|380:208,1,100
256,136,158440,5,0,0:0:0:0:
256,176,158540,1,0,0:0:0:0:
256,216,158640,1,0,0:0:0:0:
256,256,158740,1,0,0:0:0:0:
172,260,158840,5,0,0:0:0:0:
120,216,158940,1,0,0:0:0:0:
192,192,159040,1,0,0:0:0:0:
144,144,159140,1,0,0:0:0:0:
256,256,159240,5,0,0:0:0:0:
308,212,159340,1,0,0:0:0:0:
236,196,159440,1,0,0:0:0:0:
268,132,159540,1,0,0:0:0:0:
384,264,159640,5,0,0:0:0:0:
464,216,159740,1,0,0:0:0:0:
360,120,159840,1,8,0:0:0:0:
448,144,159940,1,0,0:0:0:0:
512,96,160040,5,10,0:0:0:0:
400,56,160140,1,0,0:0:0:0:
320,56,160340,1,2,0:0:0:0:
376,112,160440,1,0,0:0:0:0:
240,16,160640,1,2,0:0:0:0:
200,16,160740,1,0,0:0:0:0:
200,56,160840,1,2,0:0:0:0:
200,96,160940,1,0,0:0:0:0:
56,180,161140,1,2,0:0:0:0:
128,208,161240,1,0,0:0:0:0:
244,196,161440,1,2,0:0:0:0:
4,176,161640,5,10,0:0:0:0:
76,132,161740,1,0,0:0:0:0:
128,184,161940,1,2,0:0:0:0:
128,224,162040,1,0,0:0:0:0:
208,224,162240,1,2,0:0:0:0:
260,260,162340,1,0,0:0:0:0:
328,232,162440,1,2,0:0:0:0:
376,180,162540,1,0,0:0:0:0:
220,176,162740,1,2,0:0:0:0:
304,132,162840,1,0,0:0:0:0:
476,64,163040,1,10,0:0:0:0:
312,192,163240,5,10,0:0:0:0:
400,176,163340,1,0,0:0:0:0:
264,232,163540,1,2,0:0:0:0:
196,256,163640,1,0,0:0:0:0:
396,224,163840,1,2,0:0:0:0:
332,264,163940,1,0,0:0:0:0:
268,296,164040,1,2,0:0:0:0:
192,268,164140,1,0,0:0:0:0:
0,184,164340,1,2,0:0:0:0:
64,216,164440,1,0,0:0:0:0:
240,284,164640,1,2,0:0:0:0:
124,264,164840,5,10,0:0:0:0:
176,216,164940,1,0,0:0:0:0:
336,204,165140,1,2,0:0:0:0:
272,160,165240,1,0,0:0:0:0:
124,152,165440,1,2,0:0:0:0:
184,116,165540,1,0,0:0:0:0:
248,80,165640,1,2,0:0:0:0:
328,48,165740,1,0,0:0:0:0:
72,104,165940,1,2,0:0:0:0:
72,144,166040,1,0,0:0:0:0:
196,192,166240,1,2,0:0:0:0:
360,188,166440,5,10,0:0:0:0:
436,188,166540,1,0,0:0:0:0:
272,192,166740,1,2,0:0:0:0:
168,200,166840,1,0,0:0:0:0:
348,248,167040,1,2,0:0:0:0:
440,252,167140,1,0,0:0:0:0:
356,320,167240,1,2,0:0:0:0:
252,276,167340,2,0,B|128:236,1,100
80,208,167640,1,0,0:0:0:0:
256,200,167840,1,10,0:0:0:0:
472,72,168040,5,10,0:0:0:0:
472,112,168140,1,0,0:0:0:0:
256,172,168340,1,2,0:0:0:0:
344,168,168440,1,0,0:0:0:0:
156,156,168640,1,2,0:0:0:0:
252,160,168740,1,0,0:0:0:0:
336,152,168840,1,2,0:0:0:0:
392,120,168940,1,0,0:0:0:0:
76,244,169140,1,2,0:0:0:0:
168,248,169240,1,0,0:0:0:0:
340,232,169440,1,2,0:0:0:0:
192,196,169640,5,4,0:0:0:0:
332,88,169940,5,0,0:0:0:0:
136,240,170240,5,4,0:0:0:0:
424,80,170440,5,0,0:0:0:0:
88,120,170740,5,4,0:0:0:0:
328,216,171040,5,0,0:0:0:0:
124,124,171440,5,4,0:0:0:0:
192,160,171540,1,0,0:0:0:0:
260,208,171640,1,0,0:0:0:0:
56,108,171840,1,0,0:0:0:0:
328,252,172040,1,4,0:0:0:0:
100,248,172340,1,4,0:0:0:0:
372,108,172640,1,4,0:0:0:0:
8,128,172840,5,0,0:0:0:0:
192,120,173040,1,0,0:0:0:0:
64,128,173240,2,0,C|216:120,1,150,8|0,0:0|0:0,0:0:0:0:
332,116,173740,1,0,0:0:0:0:
268,112,173840,1,0,0:0:0:0:
124,148,174040,1,8,0:0:0:0:
200,176,174140,1,0,0:0:0:0:
212,252,174240,1,2,0:0:0:0:
140,224,174340,1,0,0:0:0:0:
160,296,174440,1,2,0:0:0:0:
276,268,174640,5,0,0:0:0:0:
392,196,174840,2,0,C|200:108,1,200,8|0,0:0|0:0,0:0:0:0:
156,88,175340,1,0,0:0:0:0:
100,60,175440,1,0,0:0:0:0:
208,200,175640,1,8,0:0:0:0:
280,196,175740,1,0,0:0:0:0:
232,260,175840,1,2,0:0:0:0:
160,268,175940,1,2,0:0:0:0:
88,272,176040,1,2,0:0:0:0:
240,284,176240,5,0,0:0:0:0:
136,296,176440,2,2,C|128:336|280:352,1,200,10|2,0:0|0:0,0:0:0:0:
360,316,176940,1,0,0:0:0:0:
428,256,177040,1,0,0:0:0:0:
240,316,177240,1,8,0:0:0:0:
156,268,177340,1,0,0:0:0:0:
88,220,177440,1,0,0:0:0:0:
40,180,177540,1,0,0:0:0:0:
0,152,177640,1,2,0:0:0:0:
48,144,177840,5,0,0:0:0:0:
48,64,178040,2,0,C|112:40|120:128,1,150,8|0,0:0|0:0,0:0:0:0:
200,128,178540,1,0,0:0:0:0:
240,128,178640,1,0,0:0:0:0:
356,48,178840,1,8,0:0:0:0:
288,96,178940,1,0,0:0:0:0:
232,144,179040,1,2,0:0:0:0:
304,184,179140,1,0,0:0:0:0:
376,232,179240,1,2,0:0:0:0:
448,152,179440,5,0,0:0:0:0:
512,152,179540,1,0,0:0:0:0:
444,152,179640,1,0,0:0:0:0:
312,164,179840,1,0,0:0:0:0:
360,204,179940,1,0,0:0:0:0:
276,288,180140,1,0,0:0:0:0:
208,288,180240,1,0,0:0:0:0:
64,292,180440,2,0,C|64:196|184:196,1,200
0,116,181040,5,0,0:0:0:0:
64,112,181140,1,0,0:0:0:0:
0,116,181240,1,0,0:0:0:0:
132,88,181440,1,0,0:0:0:0:
172,80,181540,1,0,0:0:0:0:
328,88,181740,1,0,0:0:0:0:
272,92,181840,1,0,0:0:0:0:
408,128,182040,2,0,C|432:64|480:96|456:208,1,200,0|4,0:0|0:0,0:0:0:0:
360,216,182740,1,4,0:0:0:0:
164,220,183040,1,0,0:0:0:0:
400,160,183240,1,4,0:0:0:0:
32,116,183540,1,4,0:0:0:0:
240,152,183840,1,4,0:0:0:0:
428,144,184240,5,4,0:0:0:0:
336,112,184340,1,0,0:0:0:0:
256,76,184440,1,0,0:0:0:0:
500,112,184640,1,0,0:0:0:0:
144,216,184840,1,4,0:0:0:0:
40,104,185140,1,4,0:0:0:0:
304,224,185440,1,4,0:0:0:0:
256,192,185640,12,4,192040,0:0:0:0:
