osu file format v14

[General]
AudioFilename: Ever.mp3
AudioLeadIn: 0
PreviewTime: 64049
Countdown: 0
SampleSet: Soft
StackLeniency: 0.7
Mode: 0
LetterboxInBreaks: 0
WidescreenStoryboard: 0

[Editor]
Bookmarks: 102649,112249,166649,179449
DistanceSpacing: 0.9
BeatDivisor: 4
GridSize: 4
TimelineZoom: 1.5

[Metadata]
Title:Ever
TitleUnicode:Ever
Artist:KATOMORI
ArtistUnicode:KATOMORI
Creator:iyasine
Version:Another
Source:
Tags:
BeatmapID:1396157
BeatmapSetID:659227

[Difficulty]
HPDrainRate:6
CircleSize:4
OverallDifficulty:7
ApproachRate:9
SliderMultiplier:2
SliderTickRate:1

[Events]
//Background and Video events
0,0,"ever.jpg",0,0
//Break Periods
2,102849,111649
//Storyboard Layer 0 (Background)
//Storyboard Layer 1 (Fail)
//Storyboard Layer 2 (Pass)
//Storyboard Layer 3 (Foreground)
//Storyboard Sound Samples

[TimingPoints]
249,400,4,2,1,70,1,0
13049,-133.333333333333,4,2,1,70,0,0
24249,-100,4,2,1,70,0,0
25849,-100,4,2,1,80,0,0
31949,-100,4,2,1,65,0,0
32249,-100,4,2,1,80,0,0
37849,-100,4,2,1,65,0,0
39049,-133.333333333333,4,2,1,65,0,0
45249,-100,4,2,1,70,0,0
48249,-100,4,1,1,55,0,0
49049,-100,4,1,1,60,0,0
49849,-100,4,2,1,60,0,0
51449,-100,4,2,1,75,0,0
64249,-100,4,2,1,80,0,0
75449,-100,4,2,1,70,0,0
75949,-100,4,2,1,80,0,0
77049,-133.333333333333,4,2,1,60,0,0
83449,-100,4,2,1,70,0,0
95449,-200,4,2,1,60,0,0
96449,-83.3333333333333,4,2,1,70,0,0
97499,-83.3333333333333,4,2,1,10,0,0
97849,-83.3333333333333,4,2,1,70,0,0
99099,-83.3333333333333,4,2,1,10,0,0
99449,-133.333333333333,4,2,1,40,0,0
101849,-133.333333333333,4,2,1,60,0,0
114649,-100,4,2,1,70,0,0
115449,-100,4,2,1,80,0,0
121549,-100,4,2,1,65,0,0
121849,-100,4,2,1,80,0,0
127449,-100,4,2,1,65,0,0
128649,-133.333333333333,4,2,1,60,0,0
134649,-100,4,2,1,65,0,0
136249,-100,4,2,1,70,0,0
137849,-100,4,1,1,55,0,0
138649,-100,4,1,1,60,0,0
139449,-100,4,2,1,60,0,0
141049,-100,4,2,1,75,0,0
153849,-100,4,2,1,80,0,0
165049,-100,4,2,1,70,0,0
165549,-100,4,2,1,80,0,0
180249,-200,4,2,1,40,0,0
182049,-200,4,2,1,30,0,0
190449,-200,4,2,1,10,0,0

[Colours]
Combo1 : 235,141,190
Combo2 : 58,197,135
Combo3 : 255,128,66
Combo4 : 128,255,0
Combo5 : 0,128,255

[HitObjects]
8,288,13049,6,0,P|45:296|98:304,1,75.0000028610231,2|0,0:0|0:0,0:0:0:0:
136,242,13449,1,2,0:0:0:0:
32,201,13649,1,0,0:0:0:0:
163,237,13849,2,0,L|253:222,1,75.0000028610231,2|0,0:0|0:0,0:0:0:0:
295,171,14249,1,0,0:0:0:0:
181,141,14449,2,0,P|173:116|168:60,1,75.0000028610231,2|0,0:0|0:0,0:0:0:0:
168,68,14849,5,2,0:0:0:0:
266,70,15049,1,0,0:0:0:0:
295,171,15249,1,2,0:0:0:0:
392,147,15449,1,0,0:0:0:0:
268,266,15649,1,2,0:0:0:0:
268,266,15849,2,0,P|231:272|193:277,1,75.0000028610231,2|0,0:0|0:0,0:0:0:0:
373,352,16249,6,0,P|366:313|356:275,1,75.0000028610231,2|0,0:0|0:0,0:0:0:0:
333,183,16649,1,2,0:0:0:0:
333,183,16749,1,0,0:0:0:0:
333,183,16849,1,0,0:0:0:0:
512,274,17049,2,0,P|454:282|404:275,1,75.0000028610231,2|0,0:0|0:0,0:0:0:0:
418,278,17349,1,0,0:0:0:0:
418,278,17449,1,2,0:0:0:0:
370,173,17649,1,2,0:0:0:0:
370,173,18049,5,2,0:0:0:0:
439,100,18249,1,0,0:0:0:0:
463,199,18449,1,2,0:0:0:0:
346,179,18649,1,0,0:0:0:0:
460,106,18849,1,2,0:0:0:0:
378,263,19049,2,0,P|314:280|264:268,1,112.500004291535,2|0,0:0|0:0,0:0:0:0:
201,233,19449,5,8,0:0:0:0:
201,233,19849,1,8,0:0:0:0:
52,268,20049,1,2,0:0:0:0:
114,339,20249,1,8,0:0:0:0:
286,266,20549,1,2,0:0:0:0:
286,266,20649,1,8,0:0:0:0:
359,326,20849,1,2,0:0:0:0:
421,264,21049,1,8,0:0:0:0:
332,339,21249,5,0,0:0:0:0:
447,266,21449,1,8,0:0:0:0:
351,188,21649,1,2,0:0:0:0:
202,278,21849,1,8,0:0:0:0:
55,178,22049,1,2,0:0:0:0:
160,68,22249,2,0,P|174:111|180:151,1,75.0000028610231,8|2,0:0|0:0,0:0:0:0:
73,250,22649,6,0,P|61:215|54:171,1,75.0000028610231,8|0,0:0|0:0,0:0:0:0:
219,177,23049,1,8,0:0:0:0:
219,177,23149,1,0,0:0:0:0:
219,177,23249,1,2,0:0:0:0:
206,277,23449,1,8,0:0:0:0:
400,334,23749,1,2,0:0:0:0:
400,334,23849,2,0,P|408:293|410:254,1,75.0000028610231,8|2,0:0|0:0,0:0:0:0:
333,35,24249,5,8,0:0:0:0:
303,62,24349,1,0,0:0:0:0:
293,100,24449,1,0,0:0:0:0:
295,139,24549,1,0,0:0:0:0:
315,173,24649,6,0,P|331:200|343:222,1,50,8|0,0:0|0:0,0:0:0:0:
460,269,24849,2,0,P|425:254|401:239,1,50
289,308,25049,5,8,0:0:0:0:
252,324,25149,1,0,0:0:0:0:
212,330,25249,1,0,0:0:0:0:
173,320,25349,1,0,0:0:0:0:
141,295,25449,6,0,L|114:245,1,50,8|0,0:0|0:0,0:0:0:0:
72,144,25649,2,0,P|64:171|53:199,1,50,0|0,1:0|1:0,0:0:0:0:
0,255,25849,5,4,0:3:0:0:
161,183,26049,1,2,0:0:0:0:
27,350,26249,2,0,P|5:300|2:242,1,100,10|2,2:1|0:0,0:0:0:0:
0,255,26549,1,0,0:0:0:0:
0,255,26649,1,2,1:0:0:0:
173,320,26849,2,0,L|223:330,1,50,2|2,0:0|1:0,0:0:0:0:
329,265,27049,2,0,L|223:245,1,100,8|2,0:0|1:0,0:0:0:0:
161,183,27449,5,4,0:3:0:0:
331,157,27649,1,2,2:1:0:0:
200,262,27849,1,8,0:0:0:0:
234,119,28049,1,2,2:1:0:0:
13,191,28249,1,2,0:0:0:0:
106,252,28449,1,4,0:3:0:0:
210,114,28649,2,0,P|159:104|113:91,1,100,10|2,2:1|0:0,0:0:0:0:
200,262,29049,6,0,P|251:272|297:285,1,100,4|2,0:3|0:0,0:0:0:0:
500,226,29449,2,0,P|434:180|355:189,1,150,10|2,2:1|0:0,0:0:0:0:
337,193,29849,2,0,P|316:242|290:296,1,100,2|2,1:0|0:0,0:0:0:0:
308,111,30149,2,0,L|405:84,1,100,2|2,1:0|0:0,0:0:0:0:
248,172,30449,2,0,L|156:121,1,100,2|4,1:0|0:3,0:0:0:0:
79,70,30849,5,2,1:0:0:0:
79,70,30949,1,4,0:3:0:0:
79,70,31049,1,8,0:0:0:0:
240,35,31249,1,2,2:1:0:0:
99,190,31449,5,2,0:0:0:0:
0,142,31649,1,4,0:3:0:0:
154,12,31849,1,10,1:0:0:0:
159,41,31949,1,0,1:0:0:0:
164,70,32049,1,0,1:0:0:0:
169,99,32149,1,0,1:0:0:0:
174,128,32249,6,0,P|185:184|197:243,1,100,4|2,0:3|0:0,0:0:0:0:
315,353,32649,2,0,P|303:297|293:242,1,100,10|2,2:1|0:0,0:0:0:0:
220,297,32949,1,2,0:0:0:0:
195,319,33049,2,0,B|151:350|89:324|89:324|69:343|40:346,2,150,2|2|2,1:0|1:0|1:0,0:0:0:0:
452,306,33849,6,0,P|405:311|369:272,1,100,4|2,0:3|2:1,0:0:0:0:
326,155,34249,1,8,0:0:0:0:
267,274,34449,1,2,2:1:0:0:
441,221,34649,1,2,0:0:0:0:
371,324,34849,1,4,0:3:0:0:
326,155,35049,2,0,L|297:48,1,100,10|2,2:1|0:0,0:0:0:0:
441,221,35449,6,0,P|393:236|344:247,1,100,4|2,0:3|0:0,0:0:0:0:
169,295,35849,2,0,P|222:279|267:273,1,100,10|2,2:1|0:0,0:0:0:0:
267,274,36149,1,2,0:0:0:0:
267,274,36249,1,2,1:0:0:0:
71,261,36449,2,0,L|24:247,1,50,4|2,0:3|1:0,0:0:0:0:
152,191,36649,2,0,L|120:61,1,100,8|2,0:0|1:0,0:0:0:0:
51,148,37049,5,0,1:0:0:0:
223,101,37249,1,2,2:1:0:0:
71,261,37449,1,0,1:0:0:0:
182,346,37649,1,2,2:1:0:0:
310,222,37849,6,0,P|283:231|250:235,1,50,0|0,1:0|1:0,0:0:0:0:
182,346,38049,2,0,L|172:296,1,50,0|0,1:0|1:0,0:0:0:0:
22,273,38249,2,0,P|52:264|93:259,1,50,2|0,0:0|0:0,0:0:0:0:
152,191,38449,2,0,L|147:162,4,25,2|2|2|2|4,0:0|0:0|0:0|0:0|0:0,0:0:0:0:
194,25,38849,5,0,0:0:0:0:
194,25,38949,1,0,0:0:0:0:
194,25,39049,2,0,L|171:108,1,75.0000028610231,8|2,0:0|0:0,0:0:0:0:
100,120,39349,1,0,0:0:0:0:
70,126,39449,1,8,0:0:0:0:
40,132,39549,1,2,0:0:0:0:
10,139,39649,1,0,0:0:0:0:
153,213,39849,2,0,L|235:195,1,75.0000028610231,10|0,0:0|0:0,0:0:0:0:
69,299,40249,6,0,L|55:337,1,37.5000014305115,8|0,0:0|0:0,0:0:0:0:
161,322,40449,2,0,L|166:380,1,37.5000014305115,2|0,0:0|0:0,0:0:0:0:
265,359,40649,2,0,P|259:321|242:274,1,75.0000028610231,8|2,0:0|0:0,0:0:0:0:
247,286,40949,1,2,0:0:0:0:
247,286,41049,2,0,L|229:242,1,37.5000014305115,8|8,0:0|0:0,0:0:0:0:
379,213,41349,1,8,0:0:0:0:
379,213,41449,1,8,0:0:0:0:
470,332,41649,1,8,0:0:0:0:
333,289,41849,5,8,0:0:0:0:
464,239,42249,1,8,0:0:0:0:
384,358,42649,1,8,0:0:0:0:
379,213,42949,1,2,0:0:0:0:
379,213,43049,1,8,0:0:0:0:
470,332,43249,1,2,0:0:0:0:
254,311,43449,6,0,L|209:325,2,37.5000014305115,8|0|2,0:0|0:0|0:0,0:0:0:0:
333,289,43749,1,2,0:0:0:0:
333,289,43849,1,8,0:0:0:0:
129,255,44049,2,0,P|168:253|213:232,1,75.0000028610231,2|8,0:0|0:0,0:0:0:0:
138,337,44349,2,0,P|120:302|92:271,1,75.0000028610231,2|2,0:0|0:0,0:0:0:0:
213,228,44649,2,0,P|235:192|246:144,1,75.0000028610231,8|2,0:0|0:0,0:0:0:0:
238,56,45049,5,0,1:0:0:0:
100,135,45249,2,0,L|81:194,1,50,0|0,1:0|0:0,0:0:0:0:
0,181,45449,1,0,1:0:0:0:
42,303,45649,6,0,L|34:238,1,50,0|0,1:0|0:0,0:0:0:0:
129,255,45849,1,0,1:0:0:0:
100,135,46049,6,0,L|81:194,1,50,0|0,1:0|0:0,0:0:0:0:
0,181,46249,1,0,1:0:0:0:
129,255,46449,1,2,1:2:0:0:
238,178,46649,5,0,1:0:0:0:
238,178,46749,2,0,L|343:198,1,100,2|2,0:0|0:0,0:0:0:0:
405,139,47049,2,0,L|467:132,1,50,0|0,1:0|0:0,0:0:0:0:
384,276,47249,2,0,L|430:294,1,50,2|0,0:0|0:0,0:0:0:0:
512,224,47449,1,0,1:0:0:0:
324,193,47649,1,2,0:0:0:0:
324,193,47749,1,0,1:0:0:0:
324,193,47849,1,0,1:0:0:0:
475,76,48049,1,2,0:0:0:0:
411,240,48249,5,8,0:0:0:0:
384,276,48349,1,0,0:0:0:0:
343,295,48449,1,0,0:0:0:0:
298,290,48549,1,0,0:0:0:0:
258,268,48649,2,0,L|223:210,1,50,8|0,0:0|0:0,0:0:0:0:
146,233,48849,2,0,L|159:182,1,50
186,69,49049,5,8,0:0:0:0:
186,69,49149,1,0,0:0:0:0:
186,69,49249,2,0,L|170:1,1,50,0|8,0:0|0:0,0:0:0:0:
71,149,49449,2,0,L|53:205,1,50
247,219,49649,2,0,L|260:278,1,50,8|0,0:0|0:0,0:0:0:0:
124,324,49849,5,2,0:0:0:0:
119,337,49949,1,0,0:0:0:0:
114,350,50049,1,0,0:0:0:0:
109,363,50149,1,0,0:0:0:0:
72,361,50249,5,2,0:0:0:0:
51,332,50349,1,0,0:0:0:0:
51,297,50449,1,0,0:0:0:0:
69,267,50549,1,0,0:0:0:0:
100,252,50649,2,0,P|131:242|164:230,1,50,2|0,0:0|0:0,0:0:0:0:
211,336,50849,2,0,L|266:345,1,50,2|0,0:0|0:0,0:0:0:0:
369,303,51049,5,2,0:0:0:0:
232,225,51249,1,2,0:0:0:0:
344,72,51449,1,0,1:0:0:0:
344,72,51849,6,0,L|378:61,1,25,0|0,1:0|0:0,0:0:0:0:
107,312,52249,2,0,P|64:293|8:303,1,100,0|2,1:0|0:0,0:0:0:0:
194,308,52549,2,0,P|242:314|288:293,1,100,0|2,1:0|0:0,0:0:0:0:
232,225,52849,1,0,1:0:0:0:
232,225,53249,5,0,1:0:0:0:
405,276,53449,1,0,1:0:0:0:
396,247,53549,2,0,L|361:140,1,100,2|2,0:0|0:0,0:0:0:0:
344,72,53849,1,0,1:0:0:0:
460,164,54049,2,0,L|468:113,1,50,2|0,0:0|1:0,0:0:0:0:
282,140,54249,1,2,0:0:0:0:
481,245,54449,1,0,1:0:0:0:
328,338,54649,1,0,1:0:0:0:
328,338,55049,6,0,L|323:373,1,25,0|0,1:0|0:0,0:0:0:0:
96,86,55449,2,0,P|146:103|203:100,1,100,0|2,1:0|0:0,0:0:0:0:
371,142,55749,2,0,P|417:123|453:88,1,100,0|2,1:0|0:0,0:0:0:0:
282,140,56049,1,0,1:0:0:0:
282,140,56449,5,0,1:0:0:0:
235,287,56649,1,2,1:2:0:0:
129,220,56849,1,0,1:0:0:0:
371,142,57049,1,2,1:2:0:0:
215,202,57349,1,2,0:0:0:0:
215,202,57449,1,0,1:0:0:0:
321,316,57649,2,0,L|352:326,4,25,2|2|2|2|0,0:0|0:0|0:0|0:0|1:0,0:0:0:0:
240,371,58049,5,2,0:0:0:0:
37,268,58249,2,0,P|62:323|61:374,1,100,0|2,1:0|0:0,0:0:0:0:
360,273,58649,2,0,P|311:293|258:291,1,100,0|2,1:0|0:0,0:0:0:0:
129,220,58949,2,0,P|107:186|97:118,1,100,0|2,1:0|0:0,0:0:0:0:
228,27,59249,1,0,1:0:0:0:
228,27,59649,5,0,1:0:0:0:
266,163,59849,1,0,1:0:0:0:
266,163,59949,1,0,1:0:0:0:
266,163,60049,1,0,1:0:0:0:
382,50,60249,1,0,1:0:0:0:
170,91,60449,1,2,0:0:0:0:
139,99,60549,1,0,1:0:0:0:
0,245,60749,1,2,0:0:0:0:
31,237,60849,1,0,1:0:0:0:
198,363,61049,6,0,L|201:339,1,25,0|0,1:0|0:0,0:0:0:0:
32,119,61449,2,0,L|28:143,1,25,0|0,1:0|0:0,0:0:0:0:
324,212,61849,2,0,L|320:187,1,25,0|0,1:0|0:0,0:0:0:0:
124,239,62149,5,0,1:0:0:0:
124,239,62249,1,2,0:0:0:0:
307,297,62449,6,0,P|366:312|419:308,1,100,0|2,1:0|0:0,0:0:0:0:
432,306,62749,1,2,0:0:0:0:
433,306,62849,1,0,1:0:0:0:
366,96,63049,1,0,1:0:0:0:
367,125,63149,2,0,P|365:172|357:226,1,100,2|0,0:0|1:0,0:0:0:0:
307,297,63449,1,2,0:0:0:0:
458,189,63649,1,0,1:0:0:0:
275,100,63849,6,0,L|279:131,3,25
192,142,64049,2,0,L|187:184,3,25
152,65,64249,6,0,P|209:60|258:89,1,100,4|2,0:3|0:0,0:0:0:0:
350,243,64649,2,0,P|297:273|245:265,1,100,10|2,2:1|0:0,0:0:0:0:
96,309,65049,2,0,L|139:213,1,100,2|2,1:0|0:0,0:0:0:0:
145,200,65349,1,2,1:0:0:0:
145,200,65449,1,8,0:0:0:0:
287,326,65649,2,0,P|236:308|192:286,1,100,2|4,1:0|0:3,0:0:0:0:
44,226,66049,5,2,1:0:0:0:
141,77,66249,1,8,0:0:0:0:
141,77,66349,1,2,1:0:0:0:
240,178,66549,1,2,1:0:0:0:
240,178,66649,2,0,P|194:197|145:200,1,100,2|2,0:0|1:0,0:0:0:0:
61,144,67049,1,8,0:0:0:0:
251,67,67249,1,2,1:0:0:0:
191,211,67449,6,0,P|190:261|206:309,1,100,4|2,0:3|0:0,0:0:0:0:
359,267,67849,1,10,2:1:0:0:
206,309,68049,1,2,0:0:0:0:
438,375,68249,2,0,P|379:318|312:307,1,150,2|2,1:0|1:0,0:0:0:0:
289,310,68649,1,8,0:0:0:0:
363,173,68849,1,2,1:0:0:0:
475,235,69049,5,4,0:3:0:0:
359,267,69249,1,2,1:0:0:0:
303,95,69449,1,8,0:0:0:0:
201,151,69649,5,2,1:0:0:0:
363,173,69849,1,2,1:0:0:0:
216,32,70049,1,2,0:0:0:0:
216,32,70149,1,2,1:0:0:0:
216,32,70249,2,0,P|155:72|71:48,1,150,0|2,1:0|0:0,0:0:0:0:
59,44,70649,6,0,P|93:94|104:146,1,100,2|2,1:0|0:0,0:0:0:0:
5,273,71049,1,10,2:1:0:0:
156,352,71249,1,2,0:0:0:0:
247,210,71449,2,0,P|198:231|149:244,1,100,2|2,1:0|0:0,0:0:0:0:
125,250,71749,1,2,1:0:0:0:
125,250,71849,1,8,0:0:0:0:
325,265,72049,2,0,P|346:310|358:358,1,100,2|4,1:0|0:3,0:0:0:0:
322,149,72449,5,2,1:0:0:0:
446,223,72649,1,8,0:0:0:0:
446,223,72749,1,2,0:0:0:0:
446,223,72849,1,2,1:0:0:0:
247,210,73049,1,2,1:0:0:0:
390,91,73249,1,2,0:0:0:0:
397,66,73349,1,2,1:0:0:0:
230,72,73549,1,2,0:0:0:0:
219,49,73649,1,2,1:0:0:0:
467,136,73849,5,10,1:0:0:0:
322,149,74049,1,2,0:0:0:0:
445,222,74249,1,10,1:0:0:0:
390,91,74449,1,2,0:0:0:0:
358,228,74649,1,10,1:0:0:0:
467,136,74849,1,2,0:0:0:0:
467,136,74949,1,2,1:0:0:0:
467,136,75049,1,8,0:0:0:0:
268,69,75249,1,2,1:0:0:0:
90,183,75449,5,0,1:0:0:0:
124,189,75549,1,0,1:0:0:0:
158,196,75649,1,2,1:0:0:0:
192,203,75749,1,0,1:0:0:0:
226,210,75849,6,0,L|277:200,1,50,0|2,1:0|1:0,0:0:0:0:
32,105,76149,1,2,1:0:0:0:
32,105,76249,1,0,1:0:0:0:
73,270,76449,1,2,1:0:0:0:
286,139,76649,1,2,1:2:0:0:
90,183,76849,1,2,1:0:0:0:
191,298,77049,6,0,P|228:309|275:297,1,75.0000028610231,4|0,1:0|0:0,0:0:0:0:
344,263,77449,1,2,0:0:0:0:
344,263,77549,1,0,0:0:0:0:
344,263,77649,1,0,0:0:0:0:
381,343,77849,1,2,0:0:0:0:
455,294,78049,5,0,0:0:0:0:
288,332,78249,1,2,0:0:0:0:
336,173,78449,1,0,0:0:0:0:
421,208,78649,6,0,P|459:204|496:184,1,75.0000028610231,2|0,0:0|0:0,0:0:0:0:
502,175,78949,2,0,P|465:156|428:131,1,75.0000028610231,2|0,0:0|0:0,0:0:0:0:
422,125,79249,1,2,0:0:0:0:
406,113,79349,1,0,0:0:0:0:
390,102,79449,1,2,0:0:0:0:
118,119,79749,1,0,0:0:0:0:
118,119,79849,2,0,P|198:123|274:103,1,150.000005722046,2|2,0:0|0:0,0:0:0:0:
138,215,80449,6,0,P|98:213|55:204,1,75.0000028610231,2|0,0:0|0:0,0:0:0:0:
46,202,80749,1,0,0:0:0:0:
46,202,80849,1,2,0:0:0:0:
218,167,81049,1,2,0:0:0:0:
147,260,81249,1,0,0:0:0:0:
118,119,81449,2,0,L|103:45,1,75.0000028610231,2|0,0:0|0:0,0:0:0:0:
318,142,81849,5,2,0:0:0:0:
318,142,81949,2,0,P|273:158|212:165,1,75.0000028610231
218,167,82249,1,2,0:0:0:0:
343,250,82449,1,0,0:0:0:0:
343,250,82549,1,0,0:0:0:0:
343,250,82649,1,2,0:0:0:0:
467,105,82849,6,0,L|452:182,1,75.0000028610231,2|0,0:0|0:0,0:0:0:0:
450,200,83149,1,0,0:0:0:0:
445,222,83249,1,0,0:0:0:0:
440,244,83349,1,0,0:0:0:0:
435,266,83449,6,0,P|389:243|336:252,1,100,4|2,0:3|0:0,0:0:0:0:
265,281,83749,1,0,0:0:0:0:
228,307,83849,1,0,1:0:0:0:
183,312,83949,1,0,0:0:0:0:
142,292,84049,1,0,0:0:0:0:
114,256,84149,1,0,0:0:0:0:
116,211,84249,6,0,P|168:201|217:187,1,100,4|2,0:3|0:0,0:0:0:0:
283,149,84549,1,0,0:0:0:0:
312,115,84649,1,0,1:0:0:0:
310,70,84749,1,0,0:0:0:0:
283,33,84849,1,0,0:0:0:0:
239,23,84949,1,0,0:0:0:0:
199,44,85049,6,0,L|183:145,1,100,4|0,0:3|1:0,0:0:0:0:
96,117,85349,1,0,0:0:0:0:
96,117,85449,2,0,L|105:62,1,50,4|0,0:3|0:0,0:0:0:0:
24,187,85649,2,0,P|70:213|130:204,1,100,0|4,1:0|0:3,0:0:0:0:
252,320,85949,2,0,P|203:297|152:306,1,100,0|2,1:0|0:0,0:0:0:0:
83,319,86249,2,0,L|72:372,2,50,4|0|0,0:3|0:0|1:0,0:0:0:0:
97,238,86549,5,0,1:0:0:0:
97,238,86649,1,4,0:3:0:0:
343,173,86849,1,0,0:0:0:0:
306,199,86949,1,0,0:0:0:0:
261,203,87049,1,0,1:0:0:0:
218,187,87149,1,0,0:0:0:0:
189,152,87249,2,0,L|175:96,1,50,0|0,0:0|1:0,0:0:0:0:
96,117,87449,1,4,0:3:0:0:
15,268,87649,5,0,0:0:0:0:
52,242,87749,1,0,0:0:0:0:
97,238,87849,1,0,1:0:0:0:
140,254,87949,1,0,0:0:0:0:
169,289,88049,2,0,L|182:344,1,50
259,359,88249,5,4,0:3:0:0:
278,355,88349,1,0,0:0:0:0:
297,352,88449,1,0,1:0:0:0:
316,349,88549,1,0,0:0:0:0:
335,346,88649,1,0,0:0:0:0:
354,343,88749,1,0,1:0:0:0:
373,340,88849,1,0,0:0:0:0:
392,337,88949,1,0,0:0:0:0:
411,333,89049,1,0,1:0:0:0:
430,330,89149,1,0,0:0:0:0:
449,327,89249,6,0,L|458:266,1,50,2|0,0:0|0:0,0:0:0:0:
375,208,89449,2,0,L|366:269,1,50,2|0,1:2|0:0,0:0:0:0:
479,163,89649,2,0,L|488:102,1,50,2|0,0:0|0:0,0:0:0:0:
265,160,89849,6,0,B|226:164|226:164|295:188,1,100,4|2,0:3|0:0,0:0:0:0:
479,257,90249,2,0,B|518:253|518:253|449:229,1,100,4|2,0:3|0:0,0:0:0:0:
375,208,90549,1,0,0:0:0:0:
375,208,90649,1,4,0:3:0:0:
326,311,90849,2,0,B|330:350|330:350|354:281,1,100,2|4,0:0|0:3,0:0:0:0:
423,97,91249,2,0,B|419:58|419:58|395:127,1,100,2|4,0:0|0:3,0:0:0:0:
180,235,91649,6,0,B|252:248|252:248|233:228,1,100,2|4,0:0|0:3,0:0:0:0:
341,44,92049,2,0,P|311:82|261:66,1,100,2|4,0:0|0:3,0:0:0:0:
2,90,92449,1,2,0:0:0:0:
147,172,92649,2,0,B|192:186|192:186|232:231|232:231|289:236|346:193,2,200,4|4|4,0:3|0:3|0:3,0:0:0:0:
122,165,93549,5,0,0:0:0:0:
98,157,93649,1,2,0:0:0:0:
364,60,93849,2,0,B|387:94|387:94|386:131|358:159,1,100,4|2,0:3|0:0,0:0:0:0:
148,320,94249,2,0,B|126:249|126:249|160:263,2,100,4|2|4,0:3|0:0|0:3,0:0:0:0:
345,150,94849,2,0,P|312:184|244:161,1,100,2|4,0:0|0:3,0:0:0:0:
39,219,95249,1,2,0:0:0:0:
148,320,95449,6,0,B|129:257|129:257|149:202|149:202|128:125,1,200,4|4,1:0|0:3,0:0:0:0:
229,272,96449,6,0,L|242:324,1,29.9999990844727,0|0,1:0|0:0,0:0:0:0:
51,225,96649,2,0,L|66:193,1,29.9999990844727,0|0,1:0|0:0,0:0:0:0:
171,104,96849,2,0,L|139:113,1,29.9999990844727,0|0,1:0|0:0,0:0:0:0:
355,255,97049,2,0,B|323:135,1,119.999996337891,0|0,1:0|0:0,0:0:0:0:
324,139,97449,6,0,B|379:128,1,29.9999990844727,2|0,0:0|0:0,0:0:0:0:
330,124,97849,6,0,L|375:113,1,29.9999990844727,0|0,1:0|0:0,0:0:0:0:
132,85,98049,2,0,L|122:115,1,29.9999990844727,0|0,1:0|0:0,0:0:0:0:
251,226,98249,2,0,L|237:187,1,29.9999990844727,0|0,1:0|0:0,0:0:0:0:
70,256,98449,2,0,L|83:293,1,29.9999990844727,0|0,1:0|0:0,0:0:0:0:
234,172,98649,2,0,L|217:300,1,119.999996337891,0|0,1:0|0:0,0:0:0:0:
218,290,99049,6,0,L|173:286,1,29.9999990844727,2|0,0:0|0:0,0:0:0:0:
208,304,99449,6,0,P|143:272|229:198,1,225.000008583069,2|0,0:0|0:0,0:0:0:0:
363,294,100249,2,0,L|344:210,1,75.0000028610231,2|0,0:0|0:0,0:0:0:0:
264,155,100649,2,0,L|219:165,1,37.5000014305115,2|0,0:0|0:0,0:0:0:0:
175,229,100849,2,0,L|138:220,1,37.5000014305115,2|0,0:0|0:0,0:0:0:0:
58,198,101049,6,2,B|193:271|235:132|360:216,1,300.000011444092,0|8,1:0|0:0,0:0:0:0:
346,207,102249,1,8,0:0:0:0:
143,86,102649,5,4,1:0:0:0:
236,111,112249,5,2,0:0:0:0:
86,212,112649,1,2,0:0:0:0:
222,331,113049,2,0,P|270:314|305:315,1,75.0000028610231,2|0,0:0|0:0,0:0:0:0:
316,309,113349,1,2,0:0:0:0:
316,309,113449,1,0,0:0:0:0:
163,259,113649,1,2,0:0:0:0:
254,183,113849,6,0,L|243:231,1,37.5000014305115,2|0,1:2|0:0,0:0:0:0:
66,259,114049,2,0,L|43:230,1,37.5000014305115,2|0,1:0|0:0,0:0:0:0:
131,122,114249,2,0,L|139:165,1,37.5000014305115,2|0,0:0|0:0,0:0:0:0:
183,346,114449,1,2,1:0:0:0:
183,346,114549,1,0,0:0:0:0:
183,346,114649,6,0,L|170:291,1,50,0|2,0:0|1:0,0:0:0:0:
138,159,114849,2,0,L|152:226,1,50
265,249,115049,2,0,L|315:255,1,50,2|0,1:0|1:0,0:0:0:0:
59,289,115249,2,0,L|7:309,1,50,2|0,1:2|1:0,0:0:0:0:
120,367,115449,6,0,P|180:368|221:343,1,100,4|2,0:3|0:0,0:0:0:0:
9,110,115849,2,0,P|12:160|51:208,1,100,10|2,2:1|0:0,0:0:0:0:
62,211,116149,1,0,0:0:0:0:
86,217,116249,1,2,1:0:0:0:
217,151,116449,1,2,0:0:0:0:
217,151,116549,1,2,1:0:0:0:
217,151,116649,1,8,0:0:0:0:
127,33,116849,2,0,L|108:145,1,100,2|4,1:0|0:3,0:0:0:0:
255,246,117249,5,2,2:1:0:0:
217,151,117449,1,8,0:0:0:0:
188,319,117649,1,2,2:1:0:0:
320,167,117849,1,2,0:0:0:0:
154,227,118049,1,4,0:3:0:0:
353,259,118249,2,0,P|303:255|254:245,1,100,10|2,2:1|0:0,0:0:0:0:
75,339,118649,6,0,P|124:343|174:353,1,100,4|2,0:3|0:0,0:0:0:0:
318,310,119049,2,0,P|332:236|319:163,1,150,10|2,2:1|0:0,0:0:0:0:
309,134,119449,2,0,P|260:133|208:121,1,100,2|2,1:0|0:0,0:0:0:0:
414,43,119749,2,0,P|400:91|399:141,1,100,2|2,1:0|0:0,0:0:0:0:
395,223,120049,2,0,P|446:220|502:237,1,100,2|4,1:0|0:3,0:0:0:0:
512,122,120449,5,2,1:0:0:0:
512,122,120549,1,4,0:3:0:0:
512,122,120649,1,8,0:0:0:0:
304,229,120849,1,2,2:1:0:0:
410,314,121049,5,2,0:0:0:0:
490,158,121249,1,4,0:3:0:0:
292,198,121449,1,10,1:0:0:0:
286,168,121549,1,0,1:0:0:0:
284,138,121649,1,0,1:0:0:0:
287,108,121749,1,0,1:0:0:0:
293,78,121849,6,0,P|348:88|394:89,1,100,4|2,0:3|0:0,0:0:0:0:
199,267,122249,2,0,P|182:220|178:169,1,100,10|2,2:1|0:0,0:0:0:0:
188,83,122549,1,2,0:0:0:0:
158,91,122649,2,0,P|77:105|0:109,2,150,2|2|2,1:0|1:0|1:0,0:0:0:0:
405,144,123449,6,0,P|421:198|425:249,1,100,4|2,0:3|2:1,0:0:0:0:
301,341,123849,1,8,0:0:0:0:
328,221,124049,1,2,2:1:0:0:
408,304,124249,1,2,0:0:0:0:
225,258,124449,1,4,0:3:0:0:
347,126,124649,2,0,P|395:140|453:153,1,100,10|2,2:1|0:0,0:0:0:0:
241,167,125049,6,0,L|202:66,1,100,4|2,0:3|0:0,0:0:0:0:
12,177,125449,2,0,P|76:157|108:143,1,100,10|2,2:1|0:0,0:0:0:0:
106,143,125749,1,2,0:0:0:0:
106,143,125849,1,2,1:0:0:0:
216,25,126049,2,0,L|204:74,1,50,4|2,0:3|1:0,0:0:0:0:
167,217,126249,2,0,L|140:321,1,100,8|2,0:0|1:0,0:0:0:0:
60,263,126649,5,0,1:0:0:0:
240,311,126849,1,2,2:1:0:0:
106,143,127049,1,0,1:0:0:0:
141,313,127249,1,2,2:1:0:0:
215,206,127449,6,0,P|191:210|164:217,1,50,0|0,1:0|1:0,0:0:0:0:
31,79,127649,2,0,P|63:75|85:70,1,50,0|0,1:0|1:0,0:0:0:0:
230,115,127849,2,0,L|216:52,1,50,2|0,0:0|0:0,0:0:0:0:
375,11,128049,2,0,L|368:44,4,25,2|2|2|2|4,0:0|0:0|0:0|0:0|0:0,0:0:0:0:
140,156,128649,5,8,0:0:0:0:
352,273,129049,1,8,0:0:0:0:
443,162,129349,1,2,0:0:0:0:
443,162,129449,2,0,P|405:163|360:158,2,75.0000028610231,8|2|8,0:0|0:0|0:0,0:0:0:0:
505,86,130049,5,2,0:0:0:0:
345,168,130249,1,8,0:0:0:0:
345,168,130349,2,0,P|338:209|343:245,1,75.0000028610231,2|2,0:0|0:0,0:0:0:0:
352,273,130649,5,8,0:0:0:0:
363,301,130749,1,8,0:0:0:0:
512,252,130949,1,8,0:0:0:0:
512,222,131049,1,8,0:0:0:0:
345,168,131249,5,8,0:0:0:0:
430,250,131449,1,8,0:0:0:0:
245,211,131849,5,8,0:0:0:0:
468,103,132249,1,8,0:0:0:0:
356,93,132549,1,2,0:0:0:0:
356,93,132649,2,0,P|346:141|343:179,1,75.0000028610231,8|2,0:0|0:0,0:0:0:0:
128,251,133049,6,0,P|139:205|143:172,1,75.0000028610231,8|2,0:0|0:0,0:0:0:0:
263,317,133449,1,8,0:0:0:0:
232,139,133649,1,2,0:0:0:0:
356,220,133849,2,0,P|406:232|478:239,1,112.500004291535,8|2,0:0|0:0,0:0:0:0:
489,237,134249,1,8,0:0:0:0:
322,204,134449,1,2,0:0:0:0:
216,228,134649,5,2,1:2:0:0:
122,148,134849,1,0,1:0:0:0:
322,204,135049,1,2,1:2:0:0:
260,306,135249,1,0,1:0:0:0:
27,332,135449,2,0,P|80:311|124:312,1,100,2|2,1:2|0:0,0:0:0:0:
122,311,135749,1,2,0:0:0:0:
122,311,135849,1,0,1:0:0:0:
216,228,136049,1,2,1:2:0:0:
24,145,136249,1,0,1:0:0:0:
55,243,136449,5,2,1:2:0:0:
226,128,136649,1,2,1:2:0:0:
226,128,136749,1,2,1:2:0:0:
226,128,136849,1,2,1:2:0:0:
373,265,137049,1,2,1:2:0:0:
194,360,137249,1,2,0:0:0:0:
186,330,137349,1,2,1:2:0:0:
448,303,137549,1,2,0:0:0:0:
440,333,137649,1,2,1:2:0:0:
263,272,137849,5,8,0:0:0:0:
263,272,137949,1,0,0:0:0:0:
263,272,138049,2,0,L|247:218,1,50
317,63,138249,1,8,0:0:0:0:
317,63,138349,1,0,0:0:0:0:
317,63,138449,2,0,L|303:120,1,50
123,230,138649,5,8,0:0:0:0:
123,230,138749,2,0,L|182:216,1,50
357,234,138949,1,8,0:0:0:0:
357,234,139049,2,0,L|341:180,1,50
317,63,139249,1,8,0:0:0:0:
261,182,139449,5,2,0:0:0:0:
433,124,139649,1,2,2:1:0:0:
182,209,139849,1,2,0:0:0:0:
182,209,139949,1,2,2:1:0:0:
320,321,140149,1,2,2:1:0:0:
463,252,140349,1,2,0:0:0:0:
463,252,140449,1,2,2:1:0:0:
216,76,140649,2,0,P|173:139|186:217,1,150,2|0,0:0|0:0,0:0:0:0:
320,321,141049,5,0,1:0:0:0:
320,321,141449,2,0,L|329:281,1,25,0|0,1:0|0:0,0:0:0:0:
50,173,141849,1,0,1:0:0:0:
390,261,142249,2,0,L|380:219,1,25,0|0,1:0|0:0,0:0:0:0:
475,206,142449,2,0,P|425:235|367:232,1,100,4|2,0:3|0:0,0:0:0:0:
153,165,142849,5,0,1:0:0:0:
268,323,143049,1,0,1:0:0:0:
268,323,143149,2,0,P|266:273|244:229,1,100,2|2,0:0|0:0,0:0:0:0:
176,293,143449,1,0,1:0:0:0:
22,221,143649,2,0,P|53:216|73:210,1,50,2|0,0:0|1:0,0:0:0:0:
153,165,143849,1,2,0:0:0:0:
21,59,144049,1,0,1:0:0:0:
239,132,144249,5,0,1:0:0:0:
239,132,144649,2,0,L|249:171,1,25,0|0,1:0|0:0,0:0:0:0:
512,300,145049,1,0,1:0:0:0:
272,46,145449,2,0,L|297:39,1,25,0|0,1:0|0:0,0:0:0:0:
153,165,145649,2,0,L|142:215,1,50,4|0,0:3|0:0,0:0:0:0:
12,171,145849,2,0,L|70:184,1,50,4|0,0:3|0:0,0:0:0:0:
79,95,146049,5,0,1:0:0:0:
124,288,146249,1,0,1:0:0:0:
249,212,146449,1,0,1:0:0:0:
30,253,146649,1,0,1:0:0:0:
220,356,146949,1,2,0:0:0:0:
220,356,147049,1,0,1:0:0:0:
124,288,147249,2,0,L|112:247,4,25,2|2|2|2|0,0:0|0:0|0:0|0:0|1:0,0:0:0:0:
99,178,147649,5,2,0:0:0:0:
205,328,147849,2,0,P|254:332|302:320,1,100,0|2,1:0|0:0,0:0:0:0:
377,97,148249,2,0,P|398:145|398:198,1,100,0|2,1:0|0:0,0:0:0:0:
302,319,148549,2,0,P|293:257|300:220,1,100,0|2,1:0|0:0,0:0:0:0:
191,166,148849,1,0,1:0:0:0:
191,166,149249,5,0,1:0:0:0:
64,222,149449,1,0,1:0:0:0:
64,222,149549,1,0,1:0:0:0:
64,222,149649,1,0,1:0:0:0:
24,356,149849,1,0,1:0:0:0:
205,265,150049,1,2,0:0:0:0:
211,296,150149,1,0,1:0:0:0:
412,311,150349,1,2,0:0:0:0:
405,340,150449,1,0,1:0:0:0:
287,170,150649,6,0,L|292:200,1,25,0|0,1:0|0:0,0:0:0:0:
56,331,151049,2,0,L|49:299,1,25,0|0,1:0|0:0,0:0:0:0:
342,264,151449,2,0,L|335:291,1,25,0|0,1:0|0:0,0:0:0:0:
124,241,151749,5,0,1:0:0:0:
124,241,151849,1,2,0:0:0:0:
287,170,152049,6,0,P|231:171|185:159,1,100,0|2,1:0|0:0,0:0:0:0:
159,148,152349,1,2,0:0:0:0:
159,148,152449,1,0,1:0:0:0:
342,264,152649,1,0,1:0:0:0:
371,255,152749,2,0,P|428:244|470:222,1,100,2|0,0:0|1:0,0:0:0:0:
512,153,153049,1,2,0:0:0:0:
343,83,153249,1,0,1:0:0:0:
451,213,153449,6,0,L|465:254,3,25
355,175,153649,2,0,L|327:186,3,25
433,112,153849,6,0,P|451:62|466:17,1,100,4|2,0:3|0:0,0:0:0:0:
268,140,154249,2,0,P|250:190|235:235,1,100,10|2,2:1|0:0,0:0:0:0:
343,373,154649,2,0,P|361:323|376:278,1,100,2|2,1:0|0:0,0:0:0:0:
382,256,154949,1,2,1:0:0:0:
382,256,155049,1,8,0:0:0:0:
139,343,155249,2,0,P|194:333|245:321,1,100,2|4,1:0|0:3,0:0:0:0:
382,256,155649,5,2,1:0:0:0:
268,140,155849,1,8,0:0:0:0:
268,140,155949,1,2,1:0:0:0:
476,229,156149,1,2,1:0:0:0:
476,229,156249,2,0,P|432:251|374:255,1,100,2|2,0:0|1:0,0:0:0:0:
192,194,156649,1,8,0:0:0:0:
358,159,156849,1,2,1:0:0:0:
304,325,157049,6,0,P|285:274|282:216,1,100,4|2,0:3|0:0,0:0:0:0:
352,47,157449,1,10,2:1:0:0:
187,99,157649,1,2,0:0:0:0:
361,240,157849,2,0,P|421:214|438:137,1,150,2|2,1:0|1:0,0:0:0:0:
428,110,158249,1,8,0:0:0:0:
269,162,158449,1,2,1:0:0:0:
259,264,158649,5,4,0:3:0:0:
112,216,158849,1,2,1:0:0:0:
198,335,159049,5,8,0:0:0:0:
269,162,159249,1,2,1:0:0:0:
92,117,159449,1,2,1:0:0:0:
259,264,159649,1,2,0:0:0:0:
259,264,159749,1,2,1:0:0:0:
259,264,159849,2,0,P|320:284|399:239,1,150,0|2,1:0|0:0,0:0:0:0:
404,215,160249,6,0,P|459:236|504:226,1,100,2|2,1:0|0:0,0:0:0:0:
312,178,160649,1,10,2:1:0:0:
455,112,160849,1,2,0:0:0:0:
239,69,161049,2,0,P|235:120|226:172,1,100,2|2,1:0|0:0,0:0:0:0:
220,200,161349,1,2,1:0:0:0:
220,200,161449,1,8,0:0:0:0:
42,96,161649,2,0,P|102:115|147:116,1,100,2|4,1:0|0:3,0:0:0:0:
239,69,162049,5,2,1:0:0:0:
102,203,162249,1,8,0:0:0:0:
102,203,162349,1,2,0:0:0:0:
102,203,162449,1,2,1:0:0:0:
283,278,162649,1,2,1:0:0:0:
359,121,162849,1,2,0:0:0:0:
369,95,162949,1,2,1:0:0:0:
220,200,163149,1,2,0:0:0:0:
194,207,163249,1,2,1:0:0:0:
370,286,163449,5,2,1:0:0:0:
504,236,163649,1,2,0:0:0:0:
428,358,163849,1,10,2:1:0:0:
416,207,164049,1,0,0:0:0:0:
510,322,164249,1,2,1:0:0:0:
370,286,164449,1,0,0:0:0:0:
370,286,164549,1,2,1:0:0:0:
370,286,164649,1,8,0:0:0:0:
272,101,164849,1,2,1:0:0:0:
462,167,165049,5,0,1:0:0:0:
428,175,165149,1,0,1:0:0:0:
394,183,165249,1,2,1:0:0:0:
360,191,165349,1,0,1:0:0:0:
326,199,165449,6,0,L|274:189,1,50,0|2,1:0|1:0,0:0:0:0:
58,280,165749,1,2,1:0:0:0:
58,280,165849,1,0,1:0:0:0:
242,328,166049,1,2,1:0:0:0:
370,286,166249,1,2,1:2:0:0:
173,250,166449,1,2,1:0:0:0:
139,127,166649,6,0,L|131:101,4,25,0|0|0|0|2,0:0|0:0|0:0|0:0|0:0,0:0:0:0:
225,86,166949,5,0,0:0:0:0:
225,86,167049,2,0,P|227:150|212:191,1,100,8|2,0:0|1:0,0:0:0:0:
137,341,167449,2,0,P|148:287|181:241,1,100,2|2,0:0|1:0,0:0:0:0:
198,260,167749,1,2,0:0:0:0:
222,270,167849,1,8,0:0:0:0:
37,304,168049,1,2,1:0:0:0:
106,189,168249,6,0,L|84:75,1,100,4|2,0:3|0:0,0:0:0:0:
3,151,168649,1,10,2:1:0:0:
166,29,168849,1,2,0:0:0:0:
195,152,169049,1,2,1:0:0:0:
380,63,169249,1,2,0:0:0:0:
380,63,169349,1,2,1:0:0:0:
380,63,169449,2,0,P|317:79|271:82,1,100,8|2,0:0|1:0,0:0:0:0:
106,189,169849,5,4,0:3:0:0:
106,189,169949,1,2,0:0:0:0:
106,189,170049,1,2,1:0:0:0:
171,337,170249,1,8,0:0:0:0:
265,269,170449,1,2,1:0:0:0:
10,258,170649,2,0,P|70:270|115:270,1,100,0|2,1:0|1:0,0:0:0:0:
134,265,170949,1,2,0:0:0:0:
134,265,171049,1,8,0:0:0:0:
254,96,171249,1,2,1:0:0:0:
328,198,171449,6,0,P|351:238|356:293,1,100,4|2,0:3|1:0,0:0:0:0:
312,357,171749,2,0,P|256:365|205:345,2,100,2|2|2,0:0|2:1|2:1,0:0:0:0:
510,299,172349,1,2,0:0:0:0:
478,313,172449,1,2,1:0:0:0:
446,327,172549,1,0,0:0:0:0:
414,341,172649,2,0,L|353:326,1,50,8|0,0:0|0:0,0:0:0:0:
258,227,172849,2,0,L|285:283,1,50,2|0,1:0|0:0,0:0:0:0:
159,257,173049,5,4,0:3:0:0:
125,266,173149,1,0,0:0:0:0:
91,275,173249,2,0,L|28:259,1,50,2|0,0:0|0:0,0:0:0:0:
5,169,173449,1,10,2:1:0:0:
5,169,173549,1,0,0:0:0:0:
5,169,173649,2,0,L|56:182,1,50,2|0,0:0|0:0,0:0:0:0:
196,365,173849,1,2,1:0:0:0:
196,365,173949,1,0,0:0:0:0:
196,365,174049,2,0,L|145:352,1,50,2|2,0:0|1:0,0:0:0:0:
56,285,174249,6,0,L|69:338,1,50,8|0,0:0|0:0,0:0:0:0:
142,177,174449,2,0,L|130:128,1,50,2|0,1:0|0:0,0:0:0:0:
207,30,174649,5,4,0:3:0:0:
240,59,174749,1,0,0:0:0:0:
260,99,174849,1,2,1:0:0:0:
264,144,174949,1,0,0:0:0:0:
251,187,175049,2,0,L|235:238,2,50,8|0|2,0:0|0:0|1:0,0:0:0:0:
332,236,175349,2,0,P|382:257|436:256,1,100,2|2,0:0|0:0,0:0:0:0:
468,238,175649,5,2,0:0:0:0:
468,238,175749,1,0,0:0:0:0:
468,238,175849,2,0,L|489:298,1,50,10|0,2:1|0:0,0:0:0:0:
401,172,176049,2,0,L|381:109,1,50
236,234,176249,5,2,1:0:0:0:
246,277,176349,1,0,0:0:0:0:
276,309,176449,1,10,0:0:0:0:
316,328,176549,1,0,0:0:0:0:
360,329,176649,2,0,P|387:318|408:312,1,50,2|0,1:0|0:0,0:0:0:0:
492,160,176849,2,0,P|485:191|476:213,1,50,10|0,0:0|0:0,0:0:0:0:
332,236,177049,2,0,P|321:211|312:181,1,50,2|8,1:0|0:0,0:0:0:0:
340,48,177249,2,0,P|336:73|326:102,1,50,0|2,0:0|1:0,0:0:0:0:
198,116,177449,2,0,L|256:133,1,50,8|0,0:0|0:0,0:0:0:0:
401,172,177649,5,2,1:0:0:0:
401,172,177749,1,0,0:0:0:0:
401,172,177849,2,0,L|425:114,1,50,4|0,0:3|0:0,0:0:0:0:
229,232,178049,2,0,L|171:212,1,50,2|0,0:0|0:0,0:0:0:0:
370,349,178249,2,0,L|389:398,1,50,4|0,0:3|0:0,0:0:0:0:
294,147,178449,2,0,L|274:98,1,50,2|0,0:0|0:0,0:0:0:0:
265,324,178649,2,0,L|232:362,1,50,0|2,1:0|0:0,0:0:0:0:
426,271,178849,2,0,L|477:288,1,50,4|4,0:3|0:3,0:0:0:0:
330,245,179049,5,0,1:0:0:0:
104,113,179249,1,4,0:3:0:0:
104,113,179349,2,0,L|88:161,1,50,4|4,0:3|1:0,0:0:0:0:
82,193,180249,6,0,L|32:355,1,150,2|2,0:0|0:0,0:0:0:0:
37,336,181249,1,2,0:0:0:0:
367,220,182049,1,0,0:0:0:0:
453,233,182249,1,2,0:0:0:0:
384,133,182449,1,0,0:0:0:0:
273,179,182649,6,0,P|164:200|67:169,1,200,2|2,0:0|0:0,0:0:0:0:
80,176,183849,1,0,0:0:0:0:
148,257,184049,2,0,P|164:312|160:359,2,100,2|0|2,0:0|0:0|0:0,0:0:0:0:
50,91,185449,1,2,0:0:0:0:
135,66,185649,1,0,0:0:0:0:
207,116,185849,1,2,0:0:0:0:
438,264,186649,6,0,P|459:170|442:106,1,150,2|2,0:0|0:0,0:0:0:0:
447,119,187649,1,0,0:0:0:0:
307,241,188049,2,0,L|158:206,1,150,2|2,0:0|0:0,0:0:0:0:
90,162,188849,1,0,0:0:0:0:
11,193,189049,1,2,0:0:0:0:
256,36,189849,6,2,L|256:190,1,150,2|4,0:0|1:0,0:0:0:0:
