osu file format v14

[General]
AudioFilename: audio.mp3
AudioLeadIn: 0
PreviewTime: 170602
Countdown: 0
SampleSet: Soft
StackLeniency: 0.7
Mode: 0
LetterboxInBreaks: 0
WidescreenStoryboard: 1

[Editor]
Bookmarks: 99597,162935,180097
DistanceSpacing: 1.3
BeatDivisor: 4
GridSize: 4
TimelineZoom: 1.7

[Metadata]
Title:Day By Day (Kotonohouse Remix)
TitleUnicode:Day By Day (Kotonohouse Remix)
Artist:KATAMORI
ArtistUnicode:KATAMORI
Creator:Lazy Cat Soup
Version:Level 7
Source:
Tags:DnB EDM Kawaii Anime House English
BeatmapID:1223953
BeatmapSetID:578260

[Difficulty]
HPDrainRate:5
CircleSize:4
OverallDifficulty:8.5
ApproachRate:9.5
SliderMultiplier:2
SliderTickRate:1

[Events]
//Background and Video events
0,0,"bg.jpg",0,0
//Break Periods
2,86963,96905
2,193631,203572
//Storyboard Layer 0 (Background)
//Storyboard Layer 1 (Fail)
//Storyboard Layer 2 (Pass)
//Storyboard Layer 3 (Foreground)
//Storyboard Sound Samples

[TimingPoints]
1431,333.333333333333,4,2,19,100,1,0
1431,-200,4,2,19,30,0,0
12097,-142.857142857143,4,2,19,40,0,0
22764,-125,4,2,19,50,0,0
41764,-125,4,2,19,40,0,0
42430,-125,4,2,19,30,0,0
42764,-400,4,2,19,50,0,0
44097,-100,4,2,19,70,0,0
64764,-100,4,2,19,80,0,0
65430,-166.666666666667,4,2,19,30,0,0
65764,-83.3333333333333,4,2,19,80,0,1
85097,-83.3333333333333,4,2,19,50,0,1
85430,-400,4,3,19,30,0,0
86763,-200,4,2,19,20,0,0
97430,-200,4,2,19,30,0,0
105430,-200,4,2,19,35,0,0
106097,-200,4,2,19,40,0,0
108096,-142.857142857143,4,2,19,60,0,0
108430,-142.857142857143,4,2,19,40,0,0
110097,-142.857142857143,4,2,19,45,0,0
110764,-142.857142857143,4,2,19,50,0,0
112430,-142.857142857143,4,2,19,55,0,0
114764,-142.857142857143,4,2,19,60,0,0
118763,-125,4,2,19,60,0,0
124097,-125,4,2,19,30,0,0
124764,-125,4,2,19,40,0,0
125430,-125,4,2,19,45,0,0
126097,-125,4,2,19,55,0,0
126764,-125,4,2,19,65,0,0
127430,-125,4,2,19,80,0,0
128097,-125,4,2,19,70,0,0
128347,-125,4,2,19,60,0,0
128597,-125,4,2,19,50,0,0
128930,-125,4,2,19,60,0,0
129429,-100,4,2,19,50,0,0
149430,-100,4,2,19,35,0,0
150097,-100,4,2,19,40,0,0
150430,-100,4,2,19,50,0,0
150764,-83.3333333333333,4,2,19,80,0,1
172097,-166.666666666667,4,2,19,40,0,0
172430,-83.3333333333333,4,2,19,100,0,1
192097,-400,4,2,19,25,0,0
193429,-200,4,2,19,20,0,0
204097,-200,4,2,19,30,0,0
214762,-142.857142857143,4,2,19,40,0,0
225428,-125,4,2,19,50,0,0
226764,-125,4,2,19,60,0,0
228097,-125,4,2,19,65,0,0
229430,-125,4,2,19,70,0,0
230764,-125,4,2,19,30,0,0
231430,-125,4,2,19,35,0,0
232097,-125,4,2,19,40,0,0
232764,-125,4,2,19,50,0,0
233430,-125,4,2,19,65,0,0
234097,-125,4,2,19,80,0,0
234764,-125,4,2,19,70,0,0
235014,-125,4,2,19,60,0,0
235264,-125,4,2,19,50,0,0
235430,-125,4,2,19,60,0,0
236095,-100,4,2,19,50,0,0
252097,-100,4,2,19,30,0,0
252430,-100,4,2,19,35,0,0
252764,-100,4,2,19,45,0,0
253097,-100,4,2,19,50,0,0
253430,-100,4,2,19,60,0,0
254097,-100,4,2,19,70,0,0
254764,-100,4,2,19,30,0,0
255097,-100,4,2,19,45,0,0
255430,-100,4,2,19,60,0,0
255764,-100,4,2,19,75,0,0
257428,-90.9090909090909,4,2,19,75,0,0
277430,-90.9090909090909,4,2,19,40,0,0
278097,-90.9090909090909,4,2,19,60,0,0
278428,-166.666666666667,4,2,19,80,0,0
278764,-83.3333333333333,4,2,19,100,0,1
300097,-125,4,2,19,30,0,0
300430,-83.3333333333333,4,2,19,80,0,1
319764,-83.3333333333333,4,2,19,40,0,1
320097,-166.666666666667,4,2,19,15,0,0
321428,-200,4,2,19,30,0,0
342762,-142.857142857143,4,2,19,30,0,0

[Colours]
Combo1 : 255,128,255
Combo2 : 204,128,255
Combo3 : 128,255,255
Combo4 : 255,0,128
Combo5 : 0,128,255
Combo6 : 0,255,128

[HitObjects]
96,152,1431,6,0,L|144:248,1,100,4|0,0:3|0:0,0:0:0:0:
192,312,1930,1,0,0:0:0:0:
256,184,2430,1,0,0:0:0:0:
416,152,2764,6,0,L|368:248,1,100
328,312,3264,1,0,0:0:0:0:
256,184,3764,1,0,0:0:0:0:
64,56,4097,6,0,L|176:32,1,100
264,96,4597,2,0,L|152:128,1,100
88,144,5097,1,0,0:0:0:0:
448,56,5430,6,0,L|336:32,1,100
248,96,5930,2,0,L|360:128,1,100
424,144,6430,1,0,0:0:0:0:
232,172,6764,6,0,L|208:52,1,100
200,4,7264,1,0,0:0:0:0:
352,232,7764,1,0,0:0:0:0:
352,232,8097,6,0,L|232:256,1,100
160,304,8597,2,0,L|48:272,1,100
256,332,9097,1,0,0:0:0:0:
304,120,9430,6,0,P|304:176|320:224,1,100
480,152,9930,2,0,P|416:152|368:168,1,100
224,224,10430,2,0,L|224:160,1,50
303,69,10764,6,0,L|303:133,2,50
176,112,11264,2,0,B|128:112|128:112|96:128|96:176,1,100
104,224,11764,1,0,0:0:0:0:
184,336,12097,5,0,0:0:0:0:
184,336,12264,2,0,P|200:272|280:264,1,139.999995727539
392,320,12930,2,0,P|416:256|392:192,1,139.999995727539
120,64,13597,2,0,P|96:128|120:192,1,139.999995727539
424,192,14264,2,0,P|368:184|256:200,1,139.999995727539
88,136,14764,6,0,P|144:144|256:128,1,139.999995727539
416,72,15264,2,0,P|344:64|256:80,2,139.999995727539
344,208,16264,1,0,0:0:0:0:
160,128,16597,1,0,0:0:0:0:
280,312,16930,1,0,0:0:0:0:
280,312,17430,6,0,L|352:352,1,69.9999978637696
348,88,17930,1,0,0:0:0:0:
348,88,18097,2,0,L|276:128,1,69.9999978637696
112,228,18597,1,0,0:0:0:0:
240,288,18930,1,0,0:0:0:0:
216,176,19264,1,0,0:0:0:0:
120,352,19597,1,0,0:0:0:0:
320,288,19930,5,0,0:0:0:0:
320,288,20097,2,0,B|320:248|336:232|336:232|320:192|336:128,1,139.999995727539
332,64,20597,1,0,0:0:0:0:
448,188,20930,1,0,0:0:0:0:
208,64,21264,1,0,0:0:0:0:
296,224,21597,1,0,0:0:0:0:
332,64,21930,1,0,0:0:0:0:
216,296,22264,1,0,0:0:0:0:
216,296,22764,6,0,L|328:304,1,80,4|0,0:3|0:0,0:0:0:0:
364,168,23264,1,0,0:0:0:0:
364,168,23430,2,0,L|272:160,1,80
228,24,23930,1,0,0:0:0:0:
228,24,24097,2,0,L|328:32,1,80
408,40,24430,1,0,0:0:0:0:
304,232,24597,6,0,P|240:272|152:272,1,160
76,208,25097,1,0,0:0:0:0:
224,352,25430,6,0,P|280:352|304:344,1,80
392,200,25930,1,0,0:0:0:0:
240,160,26097,2,0,P|192:160|152:176,1,80
32,72,26597,1,0,0:0:0:0:
200,64,26764,6,0,P|240:64|280:56,1,80
392,8,27097,1,0,0:0:0:0:
392,8,27264,2,0,P|368:56|380:168,1,160
296,200,27764,2,0,P|248:196|184:220,1,80
88,284,28097,6,0,P|128:300|164:300,2,80
216,116,28597,1,0,0:0:0:0:
73,162,28764,2,0,P|81:122|117:86,2,80
256,320,29264,5,0,0:0:0:0:
348,132,29430,2,0,P|400:164|408:192,1,80
368,288,29764,1,0,0:0:0:0:
288,216,29930,2,0,P|212:200|120:228,1,160
176,112,30430,2,0,P|220:120|264:112,1,80
344,56,30764,5,0,0:0:0:0:
72,56,30930,1,0,0:0:0:0:
72,56,31264,1,0,0:0:0:0:
128,284,31430,2,0,L|152:368,2,80
244,192,31930,1,0,0:0:0:0:
384,240,32097,6,0,P|392:184|384:152,1,80
328,56,32430,1,0,0:0:0:0:
208,88,32597,2,0,P|128:96|48:88,1,160
56,176,33097,2,0,P|104:172|160:184,1,80
216,260,33430,6,0,P|168:268|112:260,2,80
324,176,33930,1,0,0:0:0:0:
352,316,34097,2,0,P|306:332|249:334,2,80
408,180,34597,1,0,0:0:0:0:
368,40,34764,2,0,P|408:32|456:32,2,80
304,112,35264,2,0,P|216:120|120:104,1,160
72,184,35764,2,0,L|96:288,1,80
252,220,36097,5,0,0:0:0:0:
296,296,36264,2,0,P|344:288|416:188,1,160
416,8,36764,1,0,0:0:0:0:
348,64,36930,2,0,P|288:80|176:48,1,160
264,176,37430,5,0,0:0:0:0:
160,316,37597,1,0,0:0:0:0:
164,144,37764,1,0,0:0:0:0:
284,296,37930,2,0,B|352:360|392:256|440:344,1,160
368,224,38430,2,0,P|360:188|380:120,1,80
456,48,38764,5,0,0:0:0:0:
456,48,38930,2,0,B|396:8|400:96|280:40,1,160
124,164,39430,6,0,P|87:151|59:123,2,80
224,172,39930,1,0,0:0:0:0:
324,164,40097,6,0,P|361:151|389:123,2,80
104,264,40597,2,0,P|96:192|120:96,1,160
188,48,41097,1,0,0:0:0:0:
256,200,41264,1,0,0:0:0:0:
376,80,41430,6,0,L|440:8,2,80
256,200,41930,1,0,0:0:0:0:
384,316,42097,2,0,L|468:372,2,80
256,200,42597,1,0,0:0:0:0:
56,200,42764,6,0,B|88:248|88:248|72:296|72:296|104:320|152:304,1,187.5,4|0,0:3|0:0,0:0:0:0:
147,305,44097,6,0,P|187:257|267:249,1,100,4|0,0:0|0:0,0:0:0:0:
360,232,44430,1,8,0:0:0:0:
192,88,44597,1,0,0:0:0:0:
192,88,44680,1,0,0:0:0:0:
192,88,44763,1,0,0:0:0:0:
320,320,44930,1,2,0:0:0:0:
352,128,45097,1,8,0:0:0:0:
116,248,45263,1,0,0:0:0:0:
104,148,45430,5,2,0:0:0:0:
360,232,45597,1,0,0:0:0:0:
360,232,45680,1,0,0:0:0:0:
360,232,45763,1,8,0:0:0:0:
284,48,45930,1,0,0:0:0:0:
232,336,46097,5,0,0:0:0:0:
168,64,46263,1,2,0:0:0:0:
448,272,46430,1,8,0:0:0:0:
384,92,46597,1,0,0:0:0:0:
176,152,46763,6,0,P|168:216|176:256,1,100,2|0,0:0|0:0,0:0:0:0:
184,272,47013,1,0,0:0:0:0:
200,292,47097,1,8,0:0:0:0:
312,196,47264,1,0,0:0:0:0:
456,152,47430,2,0,P|464:216|456:256,1,100
264,48,47764,2,0,P|324:44|376:52,1,100,8|0,0:0|0:0,0:0:0:0:
312,320,48096,5,2,0:0:0:0:
312,132,48263,1,2,0:0:0:0:
312,320,48430,1,8,0:0:0:0:
472,88,48596,1,2,0:0:0:0:
472,88,48680,1,0,0:0:0:0:
472,88,48763,1,0,0:0:0:0:
208,300,48930,1,2,0:0:0:0:
208,300,49013,1,0,0:0:0:0:
208,300,49097,2,0,L|208:212,1,50,8|0,0:0|0:0,0:0:0:0:
212,96,49263,1,2,0:0:0:0:
256,176,49430,5,2,0:0:0:0:
60,200,49596,1,0,0:0:0:0:
304,264,49763,2,0,P|360:272|408:256,1,100,8|0,0:0|0:0,0:0:0:0:
424,232,50013,1,0,0:0:0:0:
440,200,50096,1,0,0:0:0:0:
440,168,50180,1,0,0:0:0:0:
424,136,50263,1,2,0:0:0:0:
188,108,50430,2,0,P|172:164|184:228,1,100,8|0,0:0|0:0,0:0:0:0:
256,324,50763,5,2,0:0:0:0:
328,132,50930,1,0,0:0:0:0:
92,188,51096,1,8,0:0:0:0:
352,320,51264,1,0,0:0:0:0:
236,48,51430,1,0,0:0:0:0:
168,348,51596,1,0,0:0:0:0:
168,348,51680,1,0,0:0:0:0:
168,348,51764,1,8,0:0:0:0:
92,188,51930,1,0,0:0:0:0:
440,200,52096,5,2,0:0:0:0:
284,52,52263,1,0,0:0:0:0:
432,296,52430,1,8,0:0:0:0:
176,244,52596,1,0,0:0:0:0:
404,96,52763,1,0,0:0:0:0:
240,384,52930,1,2,0:0:0:0:
240,136,53096,1,8,0:0:0:0:
492,244,53263,1,0,0:0:0:0:
72,84,53430,6,0,P|136:76|184:84,1,100,2|2,0:0|0:0,0:0:0:0:
352,312,53764,2,0,P|288:320|240:312,1,100,2|8,0:0|0:0,0:0:0:0:
228,308,54013,1,0,0:0:0:0:
204,300,54096,1,0,0:0:0:0:
92,188,54264,1,2,0:0:0:0:
136,168,54347,1,0,0:0:0:0:
184,160,54430,1,8,0:0:0:0:
236,168,54514,1,0,0:0:0:0:
276,196,54597,1,0,0:0:0:0:
408,260,54763,6,0,P|400:196|416:148,1,100,2|0,0:0|0:0,0:0:0:0:
453,75,55097,1,8,0:0:0:0:
108,228,55263,1,0,0:0:0:0:
92,188,55346,1,0,0:0:0:0:
84,140,55430,1,0,0:0:0:0:
92,92,55513,1,0,0:0:0:0:
116,52,55597,1,2,0:0:0:0:
324,152,55763,2,0,P|272:160|208:148,1,100,8|0,0:0|0:0,0:0:0:0:
224,296,56097,2,0,P|272:304|344:288,2,100,2|0|8,0:0|0:0|0:0,0:0:0:0:
336,76,56596,5,0,0:0:0:0:
304,68,56680,1,0,0:0:0:0:
272,60,56763,1,0,0:0:0:0:
240,68,56846,1,0,0:0:0:0:
208,76,56930,1,2,0:0:0:0:
322,296,57096,1,8,0:0:0:0:
272,60,57263,1,0,0:0:0:0:
80,200,57430,1,2,0:0:0:0:
376,224,57596,1,0,0:0:0:0:
376,224,57680,1,0,0:0:0:0:
376,224,57763,1,8,0:0:0:0:
160,136,57930,5,0,0:0:0:0:
440,272,58096,1,0,0:0:0:0:
272,144,58263,1,2,0:0:0:0:
136,312,58430,1,8,0:0:0:0:
384,136,58596,1,0,0:0:0:0:
384,136,58680,1,0,0:0:0:0:
384,136,58763,2,0,L|384:64,2,50,2|0|2,0:0|0:0|0:0,0:0:0:0:
322,296,59096,5,8,0:0:0:0:
208,68,59263,1,2,0:0:0:0:
80,200,59430,1,0,0:0:0:0:
72,232,59514,1,0,0:0:0:0:
84,264,59596,1,2,0:0:0:0:
116,280,59680,1,0,0:0:0:0:
152,280,59764,1,8,0:0:0:0:
188,268,59847,1,0,0:0:0:0:
228,268,59930,2,0,P|260:264|292:272,1,50,2|0,0:0|0:0,0:0:0:0:
384,312,60096,5,2,0:0:0:0:
280,128,60263,1,0,0:0:0:0:
277,266,60430,1,8,0:0:0:0:
388,48,60596,1,0,0:0:0:0:
432,168,60764,1,0,0:0:0:0:
220,88,60930,1,2,0:0:0:0:
352,196,61096,1,8,0:0:0:0:
136,188,61263,1,0,0:0:0:0:
440,244,61430,5,2,0:0:0:0:
60,144,61596,1,0,0:0:0:0:
256,336,61763,1,8,0:0:0:0:
432,168,61930,1,0,0:0:0:0:
80,232,62096,5,0,0:0:0:0:
256,40,62263,1,2,0:0:0:0:
440,244,62430,1,8,0:0:0:0:
60,144,62596,1,0,0:0:0:0:
256,40,62764,5,2,0:0:0:0:
264,232,62930,1,0,0:0:0:0:
264,232,63013,1,0,0:0:0:0:
264,232,63096,1,8,0:0:0:0:
60,144,63263,1,0,0:0:0:0:
472,112,63430,5,0,0:0:0:0:
320,320,63596,1,2,0:0:0:0:
320,320,63680,1,0,0:0:0:0:
320,320,63763,1,8,0:0:0:0:
80,232,63930,1,0,0:0:0:0:
360,240,64096,5,2,0:0:0:0:
184,32,64263,1,2,0:0:0:0:
172,240,64430,1,2,0:0:0:0:
380,36,64596,1,8,0:0:0:0:
408,352,64763,5,0,0:0:0:0:
360,328,64846,1,0,0:0:0:0:
312,336,64930,1,2,0:0:0:0:
264,328,65013,1,0,0:0:0:0:
216,344,65097,2,0,B|160:352|160:352|112:344,1,100,8|0,0:0|0:0,0:0:0:0:
93,138,65430,6,0,B|133:162|133:162|133:208,1,89.9999972534181
133,206,65764,6,0,B|200:192|200:192|288:216,1,119.999996337891,4|0,0:2|0:0,0:0:0:0:
408,240,66096,1,0,0:0:0:0:
176,48,66263,1,2,0:0:0:0:
312,376,66430,1,8,0:0:0:0:
352,112,66596,5,0,0:0:0:0:
352,112,66680,1,0,0:0:0:0:
352,112,66764,2,0,B|288:100|288:100|216:112,1,119.999996337891,2|0,0:0|0:0,0:0:0:0:
28,180,67097,1,8,0:0:0:0:
76,308,67264,1,0,0:0:0:0:
96,64,67430,5,0,0:0:0:0:
112,120,67513,1,0,0:0:0:0:
128,176,67596,1,2,0:0:0:0:
144,232,67680,1,0,0:0:0:0:
160,288,67763,1,8,0:0:0:0:
288,160,67930,1,0,0:0:0:0:
128,3,68097,6,0,P|192:35|232:75,1,119.999996337891,2|0,0:0|0:0,0:0:0:0:
464,296,68430,2,0,P|392:256|360:208,2,119.999996337891,8|0|0,0:0|0:0|0:0,0:0:0:0:
480,240,68846,1,0,0:0:0:0:
472,184,68930,1,0,0:0:0:0:
440,136,69013,1,0,0:0:0:0:
384,128,69096,1,8,0:0:0:0:
248,216,69263,1,0,0:0:0:0:
164,64,69430,6,0,L|104:108,1,59.9999981689454,2|0,0:0|0:0,0:0:0:0:
348,64,69597,2,0,L|408:108,1,59.9999981689454,2|0,0:0|0:0,0:0:0:0:
344,356,69764,2,0,L|396:308,1,59.9999981689454
160,356,69930,2,0,L|100:296,1,59.9999981689454,2|0,0:0|0:0,0:0:0:0:
248,156,70096,2,0,L|248:240,1,59.9999981689454
252,356,70263,1,2,0:0:0:0:
252,356,70346,1,0,0:0:0:0:
252,356,70430,2,0,L|316:356,1,59.9999981689454,8|0,0:0|0:0,0:0:0:0:
472,224,70597,2,0,L|408:224,1,59.9999981689454,2|0,0:0|0:0,0:0:0:0:
248,216,70763,5,2,0:0:0:0:
428,320,70930,1,0,0:0:0:0:
224,72,71096,1,8,0:0:0:0:
72,240,71263,1,0,0:0:0:0:
72,240,71346,1,0,0:0:0:0:
72,240,71430,1,0,0:0:0:0:
280,360,71596,1,2,0:0:0:0:
296,72,71763,1,8,0:0:0:0:
128,360,71930,1,0,0:0:0:0:
240,0,72096,5,2,0:0:0:0:
184,288,72263,1,0,0:0:0:0:
184,288,72346,1,0,0:0:0:0:
184,288,72430,1,8,0:0:0:0:
456,144,72596,1,0,0:0:0:0:
24,216,72763,1,0,0:0:0:0:
128,48,72930,1,2,0:0:0:0:
288,324,73097,2,0,B|352:324|352:324|400:292,1,119.999996337891,8|0,0:0|0:0,0:0:0:0:
328,32,73430,6,0,B|285:74|285:74|285:158,1,119.999996337891,2|0,0:0|0:0,0:0:0:0:
288,188,73680,1,0,0:0:0:0:
316,236,73763,1,8,0:0:0:0:
136,136,73930,1,0,0:0:0:0:
80,160,74013,1,0,0:0:0:0:
56,216,74096,1,0,0:0:0:0:
56,272,74180,2,0,P|80:296|128:296,1,59.9999981689454,0|2,0:0|0:0,0:0:0:0:
384,240,74430,1,8,0:0:0:0:
304,48,74597,1,0,0:0:0:0:
104,44,74764,5,2,0:0:0:0:
472,192,74930,1,4,0:0:0:0:
328,368,75096,1,0,0:0:0:0:
320,32,75263,1,4,0:0:0:0:
88,336,75430,1,0,0:0:0:0:
296,152,75596,5,2,0:0:0:0:
56,264,75763,1,4,0:0:0:0:
416,272,75930,1,2,0:0:0:0:
416,272,76013,1,0,0:0:0:0:
416,272,76097,2,0,L|392:104,2,119.999996337891,2|0|8,0:0|0:0|0:0,0:0:0:0:
252,332,76596,1,0,0:0:0:0:
252,332,76680,1,0,0:0:0:0:
252,332,76763,1,0,0:0:0:0:
264,72,76930,1,2,0:0:0:0:
488,316,77096,1,8,0:0:0:0:
456,64,77263,1,0,0:0:0:0:
128,240,77430,5,2,0:0:0:0:
224,0,77596,1,0,0:0:0:0:
280,256,77763,1,8,0:0:0:0:
224,0,77930,1,0,0:0:0:0:
192,348,78096,1,0,0:0:0:0:
448,224,78263,5,2,0:0:0:0:
192,168,78430,1,8,0:0:0:0:
448,224,78596,1,2,0:0:0:0:
100,300,78763,1,2,0:0:0:0:
64,64,78930,5,0,0:0:0:0:
64,64,79013,1,0,0:0:0:0:
64,64,79096,1,8,0:0:0:0:
256,320,79263,1,0,0:0:0:0:
264,128,79430,1,0,0:0:0:0:
264,128,79513,1,0,0:0:0:0:
264,128,79596,1,2,0:0:0:0:
72,384,79763,1,8,0:0:0:0:
88,168,79930,1,0,0:0:0:0:
336,312,80096,5,2,0:0:0:0:
388,284,80180,1,0,0:0:0:0:
420,232,80263,1,2,0:0:0:0:
432,172,80346,2,0,P|424:112|404:76,1,59.9999981689454,0|8,0:0|0:0,0:0:0:0:
228,56,80514,1,0,0:0:0:0:
172,72,80596,1,2,0:0:0:0:
132,120,80680,1,0,0:0:0:0:
120,176,80764,2,0,P|112:224|116:244,1,59.9999981689454
248,336,80930,5,2,0:0:0:0:
276,340,81013,1,0,0:0:0:0:
304,344,81097,2,0,L|380:352,1,59.9999981689454,8|0,0:0|0:0,0:0:0:0:
496,296,81264,2,0,L|420:288,1,59.9999981689454,2|0,0:0|0:0,0:0:0:0:
320,224,81430,2,0,P|344:128|360:96,1,119.999996337891,2|0,0:0|0:0,0:0:0:0:
432,48,81763,5,8,0:0:0:0:
128,272,81930,1,0,0:0:0:0:
128,272,82013,1,0,0:0:0:0:
128,272,82096,1,0,0:0:0:0:
408,320,82264,1,2,0:0:0:0:
216,72,82430,1,8,0:0:0:0:
256,384,82596,1,0,0:0:0:0:
316,20,82763,5,2,0:0:0:0:
124,364,82930,1,0,0:0:0:0:
124,364,83013,1,0,0:0:0:0:
124,364,83096,1,8,0:0:0:0:
402,167,83263,1,0,0:0:0:0:
88,155,83430,1,0,0:0:0:0:
353,325,83596,1,2,0:0:0:0:
204,56,83763,1,8,0:0:0:0:
488,288,83930,1,0,0:0:0:0:
160,352,84096,5,2,0:0:0:0:
432,64,84263,1,0,0:0:0:0:
432,64,84346,1,0,0:0:0:0:
432,64,84430,1,8,0:0:0:0:
72,328,84596,1,0,0:0:0:0:
372,0,84763,1,0,0:0:0:0:
248,332,84930,1,0,0:0:0:0:
284,8,85096,1,8,0:0:0:0:
348,196,85263,1,0,0:0:0:0:
100,120,85430,6,0,B|235:88|235:88|188:47|196:15,1,200,4|0,0:0|0:0,0:0:0:0:
128,104,97430,6,0,L|112:160,1,50
44,196,97764,2,0,P|84:232|140:236,1,100
232,224,98264,1,0,0:0:0:0:
232,224,98597,2,0,P|236:176|292:148,1,100
464,144,99264,6,0,P|428:152|416:152,1,50
340,120,99597,2,0,P|316:112|292:108,1,50
208,104,99930,2,0,P|160:136|148:232,1,150
248,328,100764,1,0,0:0:0:0:
364,228,101097,1,0,0:0:0:0:
364,228,101264,1,0,0:0:0:0:
344,88,101430,6,0,L|324:148,1,50
256,192,101764,1,0,0:0:0:0:
168,88,101930,2,0,L|180:148,1,50
256,320,102264,2,0,L|256:264,1,50
188,32,102597,2,0,P|264:60|332:20,1,150
160,300,103430,6,0,L|132:248,2,50
240,216,103930,2,0,L|268:164,2,50
80,56,104597,6,0,P|76:96|100:168,1,100
156,192,105097,1,0,0:0:0:0:
216,144,105264,1,0,0:0:0:0:
288,156,105430,2,0,P|304:124|308:96,3,50
204,272,106097,2,0,P|204:304|212:324,3,50
256,192,106764,12,0,107931,0:0:0:0:
224,288,108097,6,0,P|288:300|368:280,1,139.999995727539,6|0,0:0|0:0,0:0:0:0:
280,88,108764,1,0,0:0:0:0:
246,221,108930,2,0,L|216:316,1,69.9999978637696
348,168,109264,2,0,L|392:248,1,69.9999978637696
176,136,109597,2,0,L|120:180,1,69.9999978637696
360,308,109930,5,0,0:0:0:0:
360,308,110097,2,0,L|376:212,1,69.9999978637696,2|0,0:0|0:0,0:0:0:0:
184,305,110430,2,0,L|176:225,1,69.9999978637696,2|0,0:0|0:0,0:0:0:0:
384,24,110764,6,0,L|408:192,1,139.999995727539,2|0,0:0|0:0,0:0:0:0:
360,272,111264,1,0,0:0:0:0:
264,204,111430,2,0,P|228:196|192:208,2,69.9999978637696,0|0|2,0:0|0:0|0:0,0:0:0:0:
228,12,111930,2,0,P|184:60|288:72,1,209.999993591309
108,280,112597,2,0,P|68:288|24:272,1,69.9999978637696
40,48,112930,2,0,P|80:40|124:56,2,69.9999978637696
304,192,113430,6,0,L|384:192,1,69.9999978637696,2|0,0:0|0:0,0:0:0:0:
196,136,113764,2,0,L|116:136,1,69.9999978637696
336,88,114097,2,0,L|416:88,1,69.9999978637696,2|0,0:0|0:0,0:0:0:0:
208,24,114430,2,0,L|128:24,1,69.9999978637696
304,192,114764,6,0,L|384:192,1,69.9999978637696,2|0,0:0|0:0,0:0:0:0:
196,248,115098,2,0,L|116:248,1,69.9999978637696
336,296,115431,2,0,L|416:296,1,69.9999978637696,2|0,0:0|0:0,0:0:0:0:
208,360,115764,2,0,L|128:360,1,69.9999978637696
360,176,116098,6,0,L|392:272,2,69.9999978637696,2|0|0,0:0|0:0|0:0,0:0:0:0:
320,56,116597,1,0,0:0:0:0:
280,200,116763,2,0,L|264:272,2,69.9999978637696,2|0|0,0:0|0:0|0:0,0:0:0:0:
320,56,117263,1,0,0:0:0:0:
208,152,117430,2,0,L|128:208,2,69.9999978637696,2|0|0,0:0|0:0|0:0,0:0:0:0:
320,56,117930,1,0,0:0:0:0:
192,72,118097,2,0,L|112:80,2,69.9999978637696,2|0|0,0:0|0:0|0:0,0:0:0:0:
320,56,118597,1,0,0:0:0:0:
240,272,118765,5,2,0:0:0:0:
176,168,118930,1,2,0:0:0:0:
280,112,119097,1,2,0:0:0:0:
344,208,119263,1,2,0:0:0:0:
196,269,119430,5,2,0:0:0:0:
179,123,119597,1,2,0:0:0:0:
321,115,119763,1,2,0:0:0:0:
342,252,119930,1,2,0:0:0:0:
140,278,120098,5,2,0:0:0:0:
196,111,120263,1,2,0:0:0:0:
354,174,120430,1,2,0:0:0:0:
307,334,120597,1,2,0:0:0:0:
128,227,120763,5,2,0:0:0:0:
248,99,120931,1,2,0:0:0:0:
365,223,121097,1,2,0:0:0:0:
255,348,121263,1,2,0:0:0:0:
112,167,121430,5,2,0:0:0:0:
291,95,121598,1,2,0:0:0:0:
350,273,121764,1,2,0:0:0:0:
182,347,121930,1,2,0:0:0:0:
124,100,122097,5,2,0:0:0:0:
335,112,122265,1,2,0:0:0:0:
312,317,122431,1,2,0:0:0:0:
110,312,122597,1,2,0:0:0:0:
166,39,122764,5,2,0:0:0:0:
372,149,122932,1,2,0:0:0:0:
253,342,123098,1,2,0:0:0:0:
55,244,123264,1,2,0:0:0:0:
238,0,123430,5,2,0:0:0:0:
391,204,123598,1,2,0:0:0:0:
184,340,123764,1,2,0:0:0:0:
33,151,123930,1,2,0:0:0:0:
352,296,124097,5,2,0:0:0:0:
368,288,124180,1,0,0:0:0:0:
384,272,124263,1,0,0:0:0:0:
392,252,124347,1,0,0:0:0:0:
392,232,124430,1,0,0:0:0:0:
384,212,124514,1,0,0:0:0:0:
372,196,124597,1,0,0:0:0:0:
356,184,124680,1,0,0:0:0:0:
336,180,124765,5,2,0:0:0:0:
312,196,124847,1,0,0:0:0:0:
288,208,124930,1,0,0:0:0:0:
260,216,125013,1,0,0:0:0:0:
232,220,125097,1,0,0:0:0:0:
204,216,125180,1,0,0:0:0:0:
176,208,125263,1,0,0:0:0:0:
156,188,125347,1,0,0:0:0:0:
140,164,125430,5,2,0:0:0:0:
132,204,125513,1,0,0:0:0:0:
136,244,125597,1,0,0:0:0:0:
148,280,125680,1,0,0:0:0:0:
176,308,125763,1,0,0:0:0:0:
216,316,125847,1,0,0:0:0:0:
256,312,125930,1,0,0:0:0:0:
292,296,126013,1,0,0:0:0:0:
316,264,126097,5,2,0:0:0:0:
304,216,126180,1,0,0:0:0:0:
312,168,126263,1,0,0:0:0:0:
340,128,126347,1,0,0:0:0:0:
384,112,126430,1,0,0:0:0:0:
432,124,126513,1,0,0:0:0:0:
464,160,126597,1,0,0:0:0:0:
472,208,126680,1,0,0:0:0:0:
432,236,126765,5,2,0:0:0:0:
376,244,126847,1,0,0:0:0:0:
324,224,126930,1,0,0:0:0:0:
268,236,127013,1,0,0:0:0:0:
240,284,127097,1,0,0:0:0:0:
252,340,127180,1,0,0:0:0:0:
296,376,127263,1,0,0:0:0:0:
352,376,127347,1,0,0:0:0:0:
400,352,127430,5,2,0:0:0:0:
352,308,127513,1,0,0:0:0:0:
332,248,127597,1,0,0:0:0:0:
348,188,127680,1,0,0:0:0:0:
400,152,127763,1,0,0:0:0:0:
464,168,127847,1,0,0:0:0:0:
496,224,127930,1,0,0:0:0:0:
476,284,128013,1,0,0:0:0:0:
416,328,128097,6,0,P|364:348|312:344,1,80,4|0,0:0|0:0,0:0:0:0:
340,348,128347,2,0,P|308:300|260:304,1,80,4|0,0:0|0:0,0:0:0:0:
289,296,128598,2,0,P|247:299|211:283,1,80,4|0,0:0|0:0,0:0:0:0:
156,140,128930,1,0,0:0:0:0:
348,204,129097,1,4,0:0:0:0:
348,204,129429,6,0,B|344:120|344:120|280:80,1,150,2|0,0:0|0:0,0:0:0:0:
200,48,129764,2,0,P|192:112|192:180,1,100,2|0,0:0|0:0,0:0:0:0:
268,268,130098,1,2,0:0:0:0:
92,256,130264,1,0,0:0:0:0:
156,352,130431,2,0,P|224:360|272:356,1,100,2|0,0:0|0:0,0:0:0:0:
364,304,130681,5,0,0:0:0:0:
356,292,130764,2,0,B|364:212|364:212|404:152,1,150,2|0,0:0|0:0,0:0:0:0:
444,104,131097,2,0,L|316:100,1,100,2|0,0:0|0:0,0:0:0:0:
88,156,131431,2,0,L|216:160,1,100,2|0,0:0|0:0,0:0:0:0:
288,308,131764,1,2,0:0:0:0:
284,40,131931,5,0,0:0:0:0:
324,40,132014,1,0,0:0:0:0:
364,40,132098,2,0,B|380:116|380:116|348:184,1,150,2|0,0:0|0:0,0:0:0:0:
324,240,132431,2,0,L|432:244,1,100,2|0,0:0|0:0,0:0:0:0:
187,159,132764,2,0,L|75:155,1,100,2|0,0:0|0:0,0:0:0:0:
228,276,133098,1,2,0:0:0:0:
228,276,133181,2,0,B|256:232|256:232|256:156,1,100
256,104,133430,5,2,0:0:0:0:
356,264,133597,2,0,L|404:320,1,50,2|0,0:0|0:0,0:0:0:0:
156,264,133764,2,0,L|108:320,1,50,2|0,0:0|0:0,0:0:0:0:
384,192,133930,2,0,L|458:191,1,50,2|0,0:0|0:0,0:0:0:0:
128,192,134098,2,0,L|54:191,1,50,2|0,0:0|0:0,0:0:0:0:
356,120,134264,1,2,0:0:0:0:
356,120,134348,1,0,0:0:0:0:
356,120,134430,2,0,L|404:64,1,50
156,120,134597,2,0,L|108:64,1,50,2|0,0:0|0:0,0:0:0:0:
260,284,134764,5,4,0:0:0:0:
260,284,135097,1,0,0:0:0:0:
332,124,135264,2,0,P|384:116|432:132,1,100,2|0,0:0|0:0,0:0:0:0:
180,259,135597,2,0,P|131:268|83:254,1,100,2|0,0:0|0:0,0:0:0:0:
352,223,135930,2,0,P|385:264|395:314,1,100,2|0,0:0|0:0,0:0:0:0:
159,160,136263,2,0,P|127:121|115:73,1,100,2|0,0:0|0:0,0:0:0:0:
272,280,136597,2,0,P|252:329|214:362,1,100,2|0,0:0|0:0,0:0:0:0:
244,96,136930,2,0,P|263:46|301:13,2,100,2|0|0,0:0|0:0|0:0,0:0:0:0:
256,192,137430,6,0,P|328:200|460:172,1,200,4|0,0:0|0:0,0:0:0:0:
476,92,137930,1,0,0:0:0:0:
124,76,138097,2,0,P|80:148|96:288,1,200,2|2,0:0|0:0,0:0:0:0:
256,164,138598,1,0,0:0:0:0:
256,288,138764,6,0,P|184:288|148:280,1,100,2|0,0:0|0:0,0:0:0:0:
256,164,139098,2,0,P|312:168|364:160,2,100,2|0|2,0:0|0:0|0:0,0:0:0:0:
256,40,139598,2,0,P|200:36|148:44,2,100
384,256,140097,6,0,B|384:188|384:188|352:136|408:76,1,150,2|0,0:0|0:0,0:0:0:0:
444,48,140430,2,0,B|472:84|472:84|472:156,1,100,2|2,0:0|0:0,0:0:0:0:
476,312,140764,1,2,0:0:0:0:
224,224,140931,1,0,0:0:0:0:
224,224,141014,1,0,0:0:0:0:
224,224,141098,1,2,0:0:0:0:
384,224,141264,1,0,0:0:0:0:
120,352,141431,6,0,B|120:284|120:284|152:232|96:172,1,150,2|0,0:0|0:0,0:0:0:0:
52,152,141764,2,0,B|88:128|88:128|160:128,1,100,2|2,0:0|0:0,0:0:0:0:
456,104,142097,2,0,B|420:128|420:128|348:128,1,100,2|0,0:0|0:0,0:0:0:0:
256,40,142431,1,2,0:0:0:0:
256,40,142514,1,0,0:0:0:0:
288,264,142681,5,0,0:0:0:0:
288,264,142764,2,0,B|272:208|272:208|296:188|296:188|280:124,1,150,2|0,0:0|0:0,0:0:0:0:
484,240,143098,2,0,B|428:248|428:248|340:228,1,100,2|2,0:0|0:0,0:0:0:0:
96,176,143431,2,0,B|148:164|148:164|200:176,1,100,2|0,0:0|0:0,0:0:0:0:
152,272,143681,1,0,0:0:0:0:
152,272,143764,2,0,B|176:292|204:292|204:292|200:324|200:324|232:328|268:344,1,150,2|2,0:0|0:0,0:0:0:0:
258,339,144097,5,2,0:0:0:0:
436,240,144264,2,0,L|420:180,1,50,2|0,0:0|0:0,0:0:0:0:
384,68,144431,2,0,L|332:132,1,50,2|0,0:0|0:0,0:0:0:0:
256,192,144598,2,0,L|324:224,1,50,2|0,0:0|0:0,0:0:0:0:
480,128,144764,6,0,L|432:108,3,50,2|0|0|0,0:0|0:0|0:0|0:0,0:0:0:0:
372,256,145097,6,0,L|324:276,3,50,2|0|0|0,0:0|0:0|0:0|0:0,0:0:0:0:
324,80,145431,6,0,P|236:68|192:88,1,100,2|0,0:0|0:0,0:0:0:0:
220,328,145764,2,0,P|308:340|352:320,1,100,2|0,0:0|0:0,0:0:0:0:
189,155,146098,2,0,P|129:163|97:203,1,100,2|0,0:0|0:0,0:0:0:0:
328,252,146431,2,0,P|388:244|420:204,1,100,2|0,0:0|0:0,0:0:0:0:
216,228,146764,6,0,P|204:304|224:368,1,100,2|0,0:0|0:0,0:0:0:0:
360,152,147097,2,0,P|372:76|352:12,1,100,2|0,0:0|0:0,0:0:0:0:
112,68,147431,2,0,P|104:124|104:180,1,100,2|0,0:0|0:0,0:0:0:0:
400,328,147764,2,0,P|408:272|408:216,1,100,2|0,0:0|0:0,0:0:0:0:
412,180,148014,1,0,0:0:0:0:
416,132,148097,6,0,L|424:72,3,50,2|0|0|0,0:0|0:0|0:0|0:0,0:0:0:0:
328,252,148431,2,0,L|312:312,3,50,2|0|0|0,0:0|0:0|0:0|0:0,0:0:0:0:
192,152,148764,2,0,L|208:92,3,50,2|0|0|0,0:0|0:0|0:0|0:0,0:0:0:0:
88,268,149098,2,0,L|72:328,3,50,2|0|0|0,0:0|0:0|0:0|0:0,0:0:0:0:
100,244,149431,5,2,0:0:0:0:
124,228,149514,1,2,0:0:0:0:
148,224,149598,1,2,0:0:0:0:
172,224,149681,1,2,0:0:0:0:
192,236,149764,1,2,0:0:0:0:
216,244,149847,1,2,0:0:0:0:
240,248,149931,1,2,0:0:0:0:
264,248,150014,1,2,0:0:0:0:
288,240,150098,6,0,P|312:176|312:124,1,100,2|0,0:0|0:0,0:0:0:0:
196,0,150431,6,0,P|180:84|192:128,1,100,4|0,0:0|0:0,0:0:0:0:
448,308,150764,6,0,B|468:244|468:244|460:164,1,119.999996337891,4|0,0:0|0:0,0:0:0:0:
456,132,151014,1,0,0:0:0:0:
416,88,151098,1,8,0:0:0:0:
128,248,151264,1,0,0:0:0:0:
180,276,151348,1,0,0:0:0:0:
240,280,151431,1,0,0:0:0:0:
296,256,151514,1,0,0:0:0:0:
336,212,151598,1,2,0:0:0:0:
192,112,151764,1,8,0:0:0:0:
384,320,151931,1,0,0:0:0:0:
392,40,152098,6,0,P|312:40|232:48,1,119.999996337891,2|0,0:0|0:0,0:0:0:0:
72,136,152431,1,8,0:0:0:0:
156,332,152597,1,2,0:0:0:0:
216,340,152681,1,0,0:0:0:0:
272,324,152764,1,0,0:0:0:0:
372,136,152931,1,0,0:0:0:0:
316,112,153014,1,0,0:0:0:0:
256,116,153098,1,8,0:0:0:0:
208,152,153181,1,0,0:0:0:0:
200,212,153264,1,0,0:0:0:0:
68,48,153431,6,0,L|96:188,1,119.999996337891,2|0,0:0|0:0,0:0:0:0:
256,348,153764,1,8,0:0:0:0:
444,48,153930,2,0,L|416:188,1,119.999996337891
184,304,154264,1,2,0:0:0:0:
32,12,154431,2,0,L|52:160,1,119.999996337891,8|0,0:0|0:0,0:0:0:0:
96,368,154764,5,2,0:0:0:0:
192,160,154931,1,0,0:0:0:0:
204,140,155014,1,0,0:0:0:0:
216,120,155098,1,8,0:0:0:0:
272,300,155264,1,2,0:0:0:0:
296,304,155348,1,0,0:0:0:0:
324,308,155431,1,0,0:0:0:0:
352,312,155514,1,0,0:0:0:0:
376,316,155597,1,2,0:0:0:0:
292,192,155764,5,8,0:0:0:0:
200,336,155931,1,0,0:0:0:0:
196,72,156098,2,0,L|332:72,1,119.999996337891,4|0,0:0|0:0,0:0:0:0:
88,332,156431,1,8,0:0:0:0:
168,0,156598,1,0,0:0:0:0:
172,224,156764,1,0,0:0:0:0:
232,240,156848,1,0,0:0:0:0:
292,236,156931,1,2,0:0:0:0:
348,216,157014,1,0,0:0:0:0:
392,172,157098,2,0,P|372:88|332:40,1,119.999996337891,8|0,0:0|0:0,0:0:0:0:
192,304,157430,6,0,P|248:312|312:304,1,119.999996337891,2|0,0:0|0:0,0:0:0:0:
424,164,157764,1,8,0:0:0:0:
256,16,157931,2,0,P|240:72|248:132,1,119.999996337891
300,356,158264,1,2,0:0:0:0:
340,320,158347,1,0,0:0:0:0:
348,268,158431,1,8,0:0:0:0:
324,220,158514,1,0,0:0:0:0:
269,198,158597,1,0,0:0:0:0:
104,256,158764,5,4,0:0:0:0:
412,196,158931,1,0,0:0:0:0:
156,100,159098,1,8,0:0:0:0:
392,360,159264,1,0,0:0:0:0:
392,360,159348,1,0,0:0:0:0:
392,360,159430,1,2,0:0:0:0:
388,100,159598,1,0,0:0:0:0:
372,96,159681,1,0,0:0:0:0:
356,88,159764,1,10,0:0:0:0:
340,80,159848,1,0,0:0:0:0:
324,72,159931,1,0,0:0:0:0:
372,240,160098,5,4,0:0:0:0:
140,128,160264,1,2,0:0:0:0:
432,128,160431,1,2,0:0:0:0:
144,296,160598,1,4,0:0:0:0:
184,320,160681,1,0,0:0:0:0:
232,328,160764,1,0,0:0:0:0:
288,324,160848,1,0,0:0:0:0:
344,304,160931,1,2,0:0:0:0:
252,88,161098,2,0,L|240:228,1,119.999996337891,8|0,0:0|0:0,0:0:0:0:
464,0,161431,6,0,L|496:160,1,119.999996337891,4|0,0:0|0:0,0:0:0:0:
231,327,161764,2,0,L|243:187,1,119.999996337891,8|0,0:0|0:0,0:0:0:0:
244,148,162014,1,0,0:0:0:0:
248,88,162097,2,0,L|256:12,2,59.9999981689454,0|0|2,0:0|0:0|0:0,0:0:0:0:
128,248,162431,1,8,0:0:0:0:
280,372,162598,6,0,B|300:332|300:332|304:212,1,119.999996337891,2|0,0:0|0:0,0:0:0:0:
88,12,162931,2,0,B|68:52|68:52|64:172,1,119.999996337891,2|8,0:0|0:0,0:0:0:0:
372,232,163264,1,2,0:0:0:0:
432,220,163348,1,0,0:0:0:0:
476,180,163431,1,0,0:0:0:0:
152,160,163597,1,2,0:0:0:0:
104,196,163681,1,0,0:0:0:0:
80,252,163764,1,8,0:0:0:0:
84,312,163848,1,0,0:0:0:0:
116,364,163930,1,0,0:0:0:0:
176,368,164014,1,0,0:0:0:0:
228,336,164097,6,0,P|288:328|352:340,1,119.999996337891,2|0,0:0|0:0,0:0:0:0:
292,52,164431,2,0,P|216:44|152:64,1,119.999996337891,8|2,0:0|0:0,0:0:0:0:
164,84,164681,1,0,0:0:0:0:
152,112,164764,1,0,0:0:0:0:
248,148,164931,1,2,0:0:0:0:
256,176,165014,1,0,0:0:0:0:
264,204,165098,1,8,0:0:0:0:
272,232,165181,1,0,0:0:0:0:
280,260,165264,1,2,0:0:0:0:
416,116,165431,5,2,0:0:0:0:
172,268,165598,1,2,0:0:0:0:
292,36,165764,5,8,0:0:0:0:
296,352,165931,1,2,0:0:0:0:
176,112,166098,5,0,0:0:0:0:
420,276,166264,1,2,0:0:0:0:
172,268,166431,5,8,0:0:0:0:
416,116,166598,1,0,0:0:0:0:
108,220,166764,6,0,P|104:144|128:64,2,119.999996337891,4|0|8,0:0|0:0|0:0,0:0:0:0:
228,324,167264,1,2,0:0:0:0:
288,328,167348,1,0,0:0:0:0:
348,316,167431,2,0,P|424:312|472:320,1,119.999996337891,2|0,0:0|0:0,0:0:0:0:
464,68,167764,2,0,P|388:72|340:64,1,119.999996337891,8|2,0:0|0:0,0:0:0:0:
72,48,168098,5,2,0:0:0:0:
176,320,168264,1,2,0:0:0:0:
424,120,168431,1,8,0:0:0:0:
412,356,168598,1,2,0:0:0:0:
176,136,168764,1,0,0:0:0:0:
392,280,168931,5,2,0:0:0:0:
280,48,169098,1,8,0:0:0:0:
176,320,169264,1,0,0:0:0:0:
496,188,169431,2,0,P|492:104|472:36,1,119.999996337891,2|0,0:0|0:0,0:0:0:0:
204,16,169764,1,8,0:0:0:0:
30,164,169931,1,2,0:0:0:0:
42,224,170014,1,0,0:0:0:0:
66,280,170098,2,0,P|158:320|194:316,1,119.999996337891,0|2,0:0|0:0,0:0:0:0:
320,72,170431,5,8,0:0:0:0:
348,124,170514,1,0,0:0:0:0:
352,184,170598,1,2,0:0:0:0:
324,236,170681,1,0,0:0:0:0:
268,256,170764,2,0,P|196:236|132:248,1,119.999996337891,2|2,0:0|0:0,0:0:0:0:
48,116,171098,6,0,P|116:136|172:124,1,119.999996337891,2|4,0:0|0:0,0:0:0:0:
216,100,171348,1,0,0:0:0:0:
276,88,171431,1,0,0:0:0:0:
344,112,171514,1,0,0:0:0:0:
380,176,171598,1,2,0:0:0:0:
376,248,171681,1,0,0:0:0:0:
320,292,171764,1,4,0:0:0:0:
240,296,171848,1,0,0:0:0:0:
184,244,171931,1,2,0:0:0:0:
176,168,172014,1,0,0:0:0:0:
228,108,172098,6,0,B|272:104|272:104|284:136|328:136,1,89.9999972534181,4|0,0:3|0:0,0:0:0:0:
344,136,172430,2,0,B|288:176|288:176|340:248,1,119.999996337891,4|0,0:0|0:0,0:0:0:0:
452,384,172764,5,2,0:0:0:0:
400,92,172931,1,2,0:0:0:0:
180,284,173098,1,0,0:0:0:0:
180,284,173181,1,0,0:0:0:0:
180,284,173264,1,0,0:0:0:0:
488,128,173431,5,2,0:0:0:0:
128,128,173597,1,2,0:0:0:0:
304,372,173764,1,2,0:0:0:0:
352,12,173931,1,2,0:0:0:0:
352,12,174014,1,0,0:0:0:0:
352,12,174098,1,0,0:0:0:0:
48,264,174264,1,2,0:0:0:0:
48,264,174348,1,0,0:0:0:0:
48,264,174431,1,0,0:0:0:0:
384,264,174598,1,2,0:0:0:0:
124,164,174764,5,4,0:0:0:0:
304,372,174931,1,2,0:0:0:0:
224,8,175098,1,0,0:0:0:0:
0,152,175264,1,0,0:0:0:0:
304,372,175430,1,2,0:0:0:0:
300,80,175598,1,2,0:0:0:0:
88,384,175764,1,0,0:0:0:0:
416,172,175931,1,0,0:0:0:0:
124,172,176098,5,4,0:0:0:0:
488,260,176264,1,2,0:0:0:0:
48,260,176431,1,2,0:0:0:0:
400,92,176598,1,2,0:0:0:0:
200,376,176764,1,0,0:0:0:0:
200,8,176930,1,2,0:0:0:0:
384,256,177097,1,2,0:0:0:0:
168,88,177264,1,2,0:0:0:0:
88,380,177430,5,4,0:0:0:0:
400,92,177598,1,0,0:0:0:0:
272,236,177764,1,0,0:0:0:0:
488,236,177931,1,2,0:0:0:0:
124,164,178098,1,2,0:0:0:0:
376,332,178264,1,2,0:0:0:0:
284,76,178431,1,0,0:0:0:0:
16,332,178598,1,2,0:0:0:0:
416,172,178764,5,2,0:0:0:0:
36,0,178930,1,2,0:0:0:0:
256,332,179098,1,2,0:0:0:0:
512,0,179264,1,2,0:0:0:0:
84,88,179431,5,0,0:0:0:0:
512,332,179598,1,2,0:0:0:0:
284,76,179764,1,2,0:0:0:0:
16,336,179931,1,2,0:0:0:0:
504,52,180098,5,4,0:0:0:0:
152,48,180264,1,0,0:0:0:0:
316,320,180431,1,0,0:0:0:0:
384,120,180598,1,2,0:0:0:0:
68,120,180764,1,2,0:0:0:0:
224,360,180931,1,2,0:0:0:0:
348,0,181097,1,0,0:0:0:0:
152,204,181264,1,0,0:0:0:0:
396,384,181431,5,4,0:0:0:0:
160,56,181598,1,2,0:0:0:0:
160,56,181681,1,0,0:0:0:0:
160,56,181764,1,0,0:0:0:0:
512,276,181931,1,4,0:0:0:0:
512,276,182014,1,0,0:0:0:0:
512,276,182098,1,0,0:0:0:0:
72,284,182264,1,2,0:0:0:0:
72,284,182348,1,0,0:0:0:0:
72,284,182431,1,4,0:0:0:0:
412,52,182598,1,2,0:0:0:0:
272,384,182764,6,0,L|252:316,1,59.9999981689454,6|0,0:0|0:0,0:0:0:0:
252,8,182930,2,0,L|288:116,1,59.9999981689454,2|0,0:0|0:0,0:0:0:0:
468,324,183098,2,0,L|392:288,1,59.9999981689454
68,152,183264,2,0,L|168:184,1,59.9999981689454,2|0,0:0|0:0,0:0:0:0:
320,232,183431,1,2,0:0:0:0:
380,224,183514,1,0,0:0:0:0:
432,192,183598,1,2,0:0:0:0:
460,140,183681,1,0,0:0:0:0:
464,80,183764,1,0,0:0:0:0:
100,256,183931,2,0,L|24:304,1,59.9999981689454,2|0,0:0|0:0,0:0:0:0:
264,4,184098,5,2,0:0:0:0:
324,12,184181,1,0,0:0:0:0:
376,44,184264,1,2,0:0:0:0:
404,96,184348,1,0,0:0:0:0:
408,156,184431,2,0,L|404:232,1,59.9999981689454,2|0,0:0|0:0,0:0:0:0:
216,300,184598,6,0,L|224:208,1,59.9999981689454,2|0,0:0|0:0,0:0:0:0:
368,100,184764,2,0,L|364:200,1,59.9999981689454
164,252,184931,6,0,L|172:160,1,59.9999981689454,2|0,0:0|0:0,0:0:0:0:
316,52,185098,2,0,L|312:152,1,59.9999981689454,2|0,0:0|0:0,0:0:0:0:
112,208,185264,6,0,L|120:116,1,59.9999981689454,2|0,0:0|0:0,0:0:0:0:
264,8,185431,2,0,L|260:108,1,59.9999981689454,6|0,0:0|0:0,0:0:0:0:
204,328,185598,2,0,L|208:248,1,59.9999981689454,2|0,0:0|0:0,0:0:0:0:
380,100,185764,2,0,L|376:200,1,59.9999981689454
320,348,185931,1,2,0:0:0:0:
260,344,186014,1,0,0:0:0:0:
204,328,186098,1,2,0:0:0:0:
164,284,186181,1,0,0:0:0:0:
152,224,186264,2,0,L|156:164,1,59.9999981689454,2|0,0:0|0:0,0:0:0:0:
188,0,186431,5,4,0:0:0:0:
248,4,186514,1,0,0:0:0:0:
304,20,186598,1,2,0:0:0:0:
344,64,186681,1,0,0:0:0:0:
356,124,186764,2,0,L|352:184,1,59.9999981689454,4|0,0:0|0:0,0:0:0:0:
332,384,186931,5,2,0:0:0:0:
155,164,187098,1,2,0:0:0:0:
456,240,187264,1,2,0:0:0:0:
80,352,187431,1,0,0:0:0:0:
344,64,187598,1,2,0:0:0:0:
512,384,187764,1,2,0:0:0:0:
220,72,187931,1,2,0:0:0:0:
80,352,188097,5,4,0:0:0:0:
80,352,188181,1,0,0:0:0:0:
80,352,188264,1,0,0:0:0:0:
80,352,188348,1,0,0:0:0:0:
80,352,188431,1,0,0:0:0:0:
408,212,188598,1,2,0:0:0:0:
100,52,188764,1,2,0:0:0:0:
100,52,188848,1,0,0:0:0:0:
100,52,188931,1,0,0:0:0:0:
100,52,189014,1,0,0:0:0:0:
100,52,189098,1,0,0:0:0:0:
168,340,189264,5,2,0:0:0:0:
336,0,189431,1,2,0:0:0:0:
76,240,189598,1,2,0:0:0:0:
432,240,189764,1,2,0:0:0:0:
84,112,189931,1,2,0:0:0:0:
340,340,190098,1,0,0:0:0:0:
176,0,190264,1,2,0:0:0:0:
168,340,190431,1,2,0:0:0:0:
432,112,190598,1,2,0:0:0:0:
84,112,190764,5,2,0:0:0:0:
84,172,190848,1,0,0:0:0:0:
108,228,190931,1,2,0:0:0:0:
160,260,191014,1,0,0:0:0:0:
216,232,191098,5,0,0:0:0:0:
276,192,191181,1,0,0:0:0:0:
348,184,191264,1,2,0:0:0:0:
416,208,191348,1,0,0:0:0:0:
444,272,191431,5,2,0:0:0:0:
392,336,191514,1,0,0:0:0:0:
308,352,191598,1,2,0:0:0:0:
240,300,191681,1,0,0:0:0:0:
236,216,191764,1,0,0:0:0:0:
284,148,191848,1,0,0:0:0:0:
280,64,191931,1,0,0:0:0:0:
204,32,192014,1,0,0:0:0:0:
140,80,192098,6,0,B|124:128|124:128|148:180|148:180|124:220|124:220|140:276,1,200,4|0,0:3|0:0,0:0:0:0:
360,252,204097,6,0,P|392:264|424:264,2,50
300,172,204764,1,0,0:0:0:0:
236,248,204931,2,0,L|120:264,1,100
76,192,205431,5,0,0:0:0:0:
84,44,205598,1,0,0:0:0:0:
84,44,205931,2,0,L|148:40,1,50
224,100,206264,2,0,L|152:108,1,50
260,168,206597,2,0,P|304:172|408:108,1,150
440,32,207431,1,0,0:0:0:0:
440,232,207764,1,0,0:0:0:0:
440,232,208097,6,0,L|368:236,1,50
288,292,208430,1,0,0:0:0:0:
288,292,208597,2,0,L|352:296,1,50
228,348,208930,2,0,L|168:344,1,50
92,332,209264,2,0,P|92:256|164:216,1,150
307,140,210097,5,0,0:0:0:0:
235,84,210264,1,0,0:0:0:0:
159,124,210430,1,0,0:0:0:0:
147,216,210597,2,0,P|187:236|211:236,1,50
340,220,210930,2,0,P|296:208|276:208,1,50
364,304,211264,2,0,P|388:308|416:304,1,50
500,224,211597,2,0,P|460:220|436:224,1,50
276,280,211930,2,0,P|236:276|176:180,1,150
208,124,212597,5,0,0:0:0:0:
188,52,212764,1,0,0:0:0:0:
116,36,212930,1,0,0:0:0:0:
56,80,213097,1,0,0:0:0:0:
52,156,213264,1,0,0:0:0:0:
92,216,213430,1,4,0:3:0:0:
168,232,214764,6,0,P|228:240|316:224,1,139.999995727539,6|0,0:0|0:0,0:0:0:0:
384,104,215430,1,0,0:0:0:0:
384,104,215597,1,0,0:0:0:0:
416,204,215764,1,0,0:0:0:0:
364,296,215930,2,0,P|312:320|284:316,1,69.9999978637696
204,280,216264,2,0,P|224:236|216:200,1,69.9999978637696
164,128,216597,1,0,0:0:0:0:
216,36,216764,2,0,P|276:16|312:24,1,69.9999978637696,2|0,0:0|0:0,0:0:0:0:
372,68,217097,2,0,P|352:116|352:160,1,69.9999978637696,2|0,0:0|0:0,0:0:0:0:
400,228,217430,5,2,0:0:0:0:
400,228,217764,2,0,L|352:300,1,69.9999978637696
112,228,218097,2,0,L|160:300,1,69.9999978637696
328,104,218430,2,0,L|320:196,1,69.9999978637696
184,104,218764,2,0,L|192:196,1,69.9999978637696
256,308,219097,5,0,0:0:0:0:
256,104,219264,2,0,P|296:96|336:104,1,69.9999978637696
420,260,219597,1,0,0:0:0:0:
320,204,219764,1,0,0:0:0:0:
256,104,219930,1,0,0:0:0:0:
192,292,220097,1,2,0:0:0:0:
192,292,220430,6,0,L|220:364,2,69.9999978637696
260,172,220930,1,0,0:0:0:0:
320,256,221097,1,0,0:0:0:0:
356,152,221264,1,0,0:0:0:0:
456,232,221430,2,0,L|496:296,2,69.9999978637696,2|0|0,0:0|0:0|0:0,0:0:0:0:
296,192,221930,1,0,0:0:0:0:
172,124,222097,2,0,L|136:48,2,69.9999978637696,2|0|0,0:0|0:0|0:0,0:0:0:0:
256,268,222597,5,0,0:0:0:0:
312,96,222764,2,0,L|344:20,2,69.9999978637696,2|0|0,0:0|0:0|0:0,0:0:0:0:
216,200,223264,1,0,0:0:0:0:
120,300,223430,2,0,L|96:368,2,69.9999978637696,2|0|0,0:0|0:0|0:0,0:0:0:0:
172,140,223930,1,0,0:0:0:0:
344,288,224097,6,0,L|416:356,2,69.9999978637696,2|0|0,0:0|0:0|0:0,0:0:0:0:
244,168,224597,1,0,0:0:0:0:
436,116,224764,2,0,L|512:100,2,69.9999978637696,2|0|0,0:0|0:0|0:0,0:0:0:0:
244,168,225264,1,0,0:0:0:0:
304,304,225430,5,2,0:0:0:0:
304,116,225597,1,2,0:0:0:0:
160,224,225764,1,2,0:0:0:0:
388,264,225930,1,2,0:0:0:0:
228,92,226097,1,2,0:0:0:0:
220,336,226264,1,2,0:0:0:0:
384,160,226430,1,2,0:0:0:0:
136,320,226597,1,2,0:0:0:0:
420,316,226764,5,2,0:0:0:0:
328,76,226930,1,2,0:0:0:0:
104,200,227097,1,2,0:0:0:0:
344,248,227264,1,2,0:0:0:0:
132,36,227430,1,2,0:0:0:0:
228,296,227597,1,2,0:0:0:0:
472,120,227764,1,2,0:0:0:0:
192,124,227930,1,2,0:0:0:0:
392,340,228097,5,2,0:0:0:0:
344,48,228264,1,2,0:0:0:0:
56,112,228430,1,2,0:0:0:0:
296,272,228597,1,2,0:0:0:0:
136,4,228764,1,2,0:0:0:0:
156,300,228930,1,2,0:0:0:0:
408,124,229097,1,2,0:0:0:0:
120,192,229264,1,2,0:0:0:0:
328,380,229430,5,2,0:0:0:0:
280,64,229597,1,2,0:0:0:0:
40,264,229764,1,2,0:0:0:0:
388,280,229930,1,2,0:0:0:0:
56,112,230097,1,2,0:0:0:0:
288,380,230264,1,2,0:0:0:0:
408,124,230430,1,2,0:0:0:0:
120,192,230597,1,2,0:0:0:0:
388,280,230764,5,2,0:0:0:0:
404,292,230847,1,0,0:0:0:0:
420,304,230930,1,0,0:0:0:0:
436,316,231014,1,0,0:0:0:0:
452,328,231097,5,0,0:0:0:0:
456,300,231180,1,0,0:0:0:0:
456,272,231264,1,0,0:0:0:0:
448,244,231347,1,0,0:0:0:0:
440,216,231430,5,2,0:0:0:0:
408,196,231514,1,0,0:0:0:0:
388,168,231597,1,0,0:0:0:0:
384,132,231680,1,0,0:0:0:0:
400,100,231764,5,0,0:0:0:0:
360,104,231847,1,0,0:0:0:0:
320,104,231930,1,0,0:0:0:0:
280,92,232014,1,0,0:0:0:0:
252,64,232097,5,2,0:0:0:0:
216,92,232180,1,0,0:0:0:0:
196,132,232264,1,0,0:0:0:0:
188,176,232347,1,0,0:0:0:0:
192,220,232430,1,0,0:0:0:0:
208,260,232514,1,0,0:0:0:0:
244,284,232597,1,0,0:0:0:0:
288,292,232680,1,0,0:0:0:0:
328,312,232764,5,2,0:0:0:0:
316,360,232847,1,0,0:0:0:0:
272,380,232930,1,0,0:0:0:0:
224,380,233014,1,0,0:0:0:0:
180,356,233097,1,0,0:0:0:0:
172,308,233180,1,0,0:0:0:0:
188,260,233264,1,0,0:0:0:0:
228,236,233347,1,0,0:0:0:0:
276,244,233430,5,2,0:0:0:0:
328,236,233514,1,0,0:0:0:0:
364,200,233597,1,0,0:0:0:0:
380,152,233680,1,0,0:0:0:0:
364,100,233764,1,0,0:0:0:0:
324,68,233847,1,0,0:0:0:0:
272,64,233930,1,0,0:0:0:0:
224,80,234014,1,0,0:0:0:0:
196,124,234097,5,2,0:0:0:0:
204,184,234180,1,0,0:0:0:0:
184,240,234264,1,0,0:0:0:0:
128,260,234347,1,0,0:0:0:0:
76,228,234430,1,0,0:0:0:0:
76,168,234514,1,0,0:0:0:0:
112,120,234597,1,0,0:0:0:0:
172,120,234680,1,0,0:0:0:0:
220,160,234764,6,0,P|284:172|324:160,1,80,4|0,0:0|0:0,0:0:0:0:
297,169,235014,2,0,P|368:160|404:168,1,80,4|0,0:0|0:0,0:0:0:0:
376,161,235264,1,4,0:0:0:0:
276,336,235430,2,0,P|212:304|188:276,1,80,4|0,0:0|0:0,0:0:0:0:
110,110,235764,1,4,0:0:0:0:
174,122,235847,1,4,0:0:0:0:
206,178,235930,1,4,0:0:0:0:
186,238,236014,1,4,0:0:0:0:
206,298,236097,6,0,B|270:306|270:306|350:274,1,150,2|0,0:0|0:0,0:0:0:0:
338,174,236430,2,0,L|350:282,1,100,2|0,0:0|0:0,0:0:0:0:
308,52,236764,1,2,0:0:0:0:
176,128,236930,1,0,0:0:0:0:
176,128,237014,1,0,0:0:0:0:
176,128,237097,2,0,L|196:200,1,50,2|0,0:0|0:0,0:0:0:0:
224,280,237264,5,0,0:0:0:0:
224,280,237347,1,0,0:0:0:0:
224,280,237430,2,0,B|300:272|300:272|368:304,1,150,2|0,0:0|0:0,0:0:0:0:
408,212,237764,2,0,L|364:308,1,100,2|0,0:0|0:0,0:0:0:0:
161,170,238097,6,0,L|157:70,1,100,2|0,0:0|0:0,0:0:0:0:
304,88,238347,1,0,0:0:0:0:
304,88,238430,2,0,B|228:64|228:64|140:72,1,150,2|0,0:0|0:0,0:0:0:0:
72,148,238764,6,0,B|80:224|80:224|120:292,1,150,2|0,0:0|0:0,0:0:0:0:
172,344,239097,1,2,0:0:0:0:
416,200,239264,1,2,0:0:0:0:
192,140,239430,2,0,B|208:104|208:104|280:104,1,100,2|0,0:0|0:0,0:0:0:0:
344,108,239680,1,0,0:0:0:0:
344,108,239764,2,0,B|341:188|341:188|356:268,1,150,2|0,0:0|0:0,0:0:0:0:
361,350,240097,6,0,L|280:324,1,50,2|0,0:0|0:0,0:0:0:0:
217,238,240264,2,0,L|293:266,1,50,2|0,0:0|0:0,0:0:0:0:
437,266,240430,2,0,L|352:232,1,50,2|0,0:0|0:0,0:0:0:0:
293,154,240597,2,0,L|360:188,1,50,2|0,0:0|0:0,0:0:0:0:
488,184,240764,5,2,0:0:0:0:
480,160,240847,1,0,0:0:0:0:
472,136,240930,1,0,0:0:0:0:
464,112,241014,1,0,0:0:0:0:
456,88,241097,2,0,L|436:36,2,50,2|0|0,0:0|0:0|0:0,0:0:0:0:
336,104,241430,2,0,P|264:112|216:92,1,100,4|0,0:0|0:0,0:0:0:0:
288,260,241764,1,0,0:0:0:0:
160,196,241930,1,2,0:0:0:0:
272,348,242097,1,0,0:0:0:0:
180,72,242264,1,2,0:0:0:0:
84,236,242430,1,0,0:0:0:0:
372,172,242597,6,0,P|364:108|308:52,1,100,2|0,0:0|0:0,0:0:0:0:
160,140,242930,2,0,P|204:152|280:132,1,100,2|0,0:0|0:0,0:0:0:0:
432,104,243264,1,2,0:0:0:0:
200,56,243430,1,0,0:0:0:0:
312,320,243597,1,0,0:0:0:0:
460,176,243764,2,0,L|276:160,1,150
264,72,244097,6,0,P|240:136|260:292,1,200,4|0,0:0|0:0,0:0:0:0:
396,340,244597,1,0,0:0:0:0:
136,236,244764,1,2,0:0:0:0:
364,208,244930,1,0,0:0:0:0:
288,352,245097,1,0,0:0:0:0:
288,108,245264,6,0,L|288:52,2,50,2|0|0,0:0|0:0|0:0,0:0:0:0:
104,208,245597,2,0,L|104:272,2,50,2|0|0,0:0|0:0|0:0,0:0:0:0:
104,80,245930,2,0,L|216:80,1,100,2|0,0:0|0:0,0:0:0:0:
456,152,246264,2,0,L|344:152,2,100
200,24,246764,6,0,B|124:24|124:24|148:48|168:92,1,150,2|0,0:0|0:0,0:0:0:0:
184,168,247097,2,0,B|132:156|132:156|52:168|56:168,1,100,2|0,0:0|0:0,0:0:0:0:
60,168,247347,1,0,0:0:0:0:
60,168,247430,1,0,0:0:0:0:
192,320,247597,1,0,0:0:0:0:
336,168,247764,2,0,B|368:148|368:108|368:108|452:108,1,150
484,196,248097,6,0,B|488:252|468:292|468:292|432:268|388:292,1,150,2|0,0:0|0:0,0:0:0:0:
340,344,248430,2,0,B|332:312|332:312|344:280|344:280|340:244,1,100,2|0,0:0|0:0,0:0:0:0:
292,124,248764,1,0,0:0:0:0:
292,124,248847,1,0,0:0:0:0:
292,124,248930,2,0,L|220:164,1,50
136,200,249097,1,0,0:0:0:0:
136,200,249180,1,0,0:0:0:0:
136,200,249264,2,0,L|144:292,1,50
244,328,249430,6,0,B|304:328|304:328|336:308|336:308|408:308,1,150,2|0,0:0|0:0,0:0:0:0:
452,216,249764,2,0,B|400:232|400:232|336:232,1,100,2|0,0:0|0:0,0:0:0:0:
232,232,250097,1,0,0:0:0:0:
332,136,250264,1,0,0:0:0:0:
224,28,250430,1,0,0:0:0:0:
212,36,250514,1,0,0:0:0:0:
200,44,250597,1,0,0:0:0:0:
188,52,250680,1,0,0:0:0:0:
176,60,250764,6,0,L|184:136,1,50,2|0,0:0|0:0,0:0:0:0:
332,136,250930,2,0,L|320:208,1,50,2|0,0:0|0:0,0:0:0:0:
172,212,251097,2,0,L|180:288,1,50,2|0,0:0|0:0,0:0:0:0:
328,288,251263,2,0,L|316:360,1,50,2|0,0:0|0:0,0:0:0:0:
240,200,251430,5,2,0:0:0:0:
236,184,251514,1,0,0:0:0:0:
240,168,251597,1,0,0:0:0:0:
248,156,251680,1,0,0:0:0:0:
260,148,251764,5,2,0:0:0:0:
260,184,251847,1,0,0:0:0:0:
268,216,251930,1,0,0:0:0:0:
288,244,252014,1,0,0:0:0:0:
320,256,252097,6,0,P|356:256|396:240,1,50,2|0,0:0|0:0,0:0:0:0:
388,128,252264,2,0,B|352:116|316:120|316:120,1,50,2|0,0:0|0:0,0:0:0:0:
288,272,252430,6,0,P|324:272|364:256,1,50,2|0,0:0|0:0,0:0:0:0:
356,144,252597,2,0,B|320:132|284:136|284:136,1,50,2|0,0:0|0:0,0:0:0:0:
256,288,252764,6,0,P|292:288|332:272,1,50,2|0,0:0|0:0,0:0:0:0:
324,160,252931,2,0,B|288:148|252:152|252:152,1,50,2|0,0:0|0:0,0:0:0:0:
224,304,253097,6,0,P|260:304|300:288,1,50,2|0,0:0|0:0,0:0:0:0:
292,176,253264,2,0,B|256:164|220:168|220:168,1,50,2|0,0:0|0:0,0:0:0:0:
104,280,253430,6,0,L|184:280,1,50,2|0,0:0|0:0,0:0:0:0:
408,280,253597,2,0,L|328:280,1,50,2|0,0:0|0:0,0:0:0:0:
140,208,253764,6,0,L|220:208,1,50,2|0,0:0|0:0,0:0:0:0:
372,208,253930,2,0,L|292:208,1,50,2|0,0:0|0:0,0:0:0:0:
168,136,254097,6,0,L|248:136,1,50,2|0,0:0|0:0,0:0:0:0:
344,136,254264,2,0,L|264:136,1,50,2|0,0:0|0:0,0:0:0:0:
192,64,254430,6,0,L|272:64,1,50,2|0,0:0|0:0,0:0:0:0:
320,64,254597,2,0,L|240:64,1,50,2|0,0:0|0:0,0:0:0:0:
76,96,254764,5,2,0:0:0:0:
80,104,254847,1,0,0:0:0:0:
84,112,254930,1,0,0:0:0:0:
84,124,255014,1,0,0:0:0:0:
80,132,255097,5,2,0:0:0:0:
72,156,255180,1,0,0:0:0:0:
72,180,255264,1,0,0:0:0:0:
80,204,255347,1,0,0:0:0:0:
96,220,255430,5,2,0:0:0:0:
132,216,255514,1,0,0:0:0:0:
164,228,255597,1,0,0:0:0:0:
184,256,255680,1,0,0:0:0:0:
188,292,255764,5,2,0:0:0:0:
224,320,255847,1,0,0:0:0:0:
268,320,255930,1,0,0:0:0:0:
312,312,256014,1,0,0:0:0:0:
344,280,256097,1,6,3:0:0:0:
352,96,256764,6,0,L|380:248,1,150
379,243,257097,2,0,P|320:208|268:288,1,150
260,352,257430,6,0,B|184:324|184:324|160:152,1,220.000006713867,6|0,0:0|0:0,0:0:0:0:
192,80,257930,1,0,0:0:0:0:
264,244,258097,1,2,0:0:0:0:
332,112,258264,2,0,B|368:128|368:128|376:220,1,110.000003356934
376,352,258597,1,0,0:0:0:0:
216,192,258764,6,0,L|144:96,2,110.000003356934,2|0|0,0:0|0:0|0:0,0:0:0:0:
316,300,259264,1,0,0:0:0:0:
108,260,259430,2,0,L|-16:236,2,110.000003356934,0|0|2,0:0|0:0|0:0,0:0:0:0:
316,300,259930,1,0,0:0:0:0:
356,136,260097,6,0,P|420:144|340:236,1,220.000006713867,4|0,0:0|0:0,0:0:0:0:
264,88,260597,1,0,0:0:0:0:
264,88,260680,1,0,0:0:0:0:
264,88,260764,1,2,0:0:0:0:
160,136,260930,1,0,0:0:0:0:
260,340,261097,1,0,0:0:0:0:
260,224,261264,1,0,0:0:0:0:
44,216,261430,6,0,P|108:228|156:216,1,110.000003356934,2|0,0:0|0:0,0:0:0:0:
228,108,261764,2,0,P|272:64|352:56,2,110.000003356934
176,220,262264,1,0,0:0:0:0:
100,112,262430,1,2,0:0:0:0:
184,312,262597,1,0,0:0:0:0:
312,136,262764,6,0,P|356:96|372:208,1,220.000006713867,4|0,0:0|0:0,0:0:0:0:
312,256,263264,1,0,0:0:0:0:
192,204,263430,2,0,L|236:76,1,110.000003356934,2|0,0:0|0:0,0:0:0:0:
64,240,263764,2,0,L|24:348,1,110.000003356934
300,264,264097,5,2,0:0:0:0:
56,156,264264,2,0,L|-8:204,2,55.0000016784668
280,8,264597,1,0,0:0:0:0:
280,8,264930,1,2,0:0:0:0:
300,264,265097,1,0,0:0:0:0:
152,68,265264,1,0,0:0:0:0:
56,304,265430,6,0,P|112:328|272:292,1,220.000006713867,4|0,0:0|0:0,0:0:0:0:
332,228,265930,1,0,0:0:0:0:
456,80,266097,2,0,P|400:56|240:92,1,220.000006713867,2|0,0:0|0:0,0:0:0:0:
180,156,266597,1,0,0:0:0:0:
140,256,266764,6,0,P|76:252|16:220,1,110.000003356934,2|0,0:0|0:0,0:0:0:0:
356,164,267097,2,0,P|416:160|480:136,2,110.000003356934
140,124,267597,2,0,P|80:120|16:96,2,110.000003356934,2|0|2,0:0|0:0|0:0,0:0:0:0:
304,68,268097,6,0,B|348:76|368:104|368:104|356:132|364:168|364:168|348:192|324:188|324:188|320:196|316:236,1,220.000006713867,4|0,0:0|0:0,0:0:0:0:
328,320,268597,1,0,0:0:0:0:
328,320,268764,2,0,P|388:332|440:316,2,110.000003356934,2|0|0,0:0|0:0|0:0,0:0:0:0:
156,120,269264,1,0,0:0:0:0:
432,224,269430,5,0,0:0:0:0:
352,52,269597,1,0,0:0:0:0:
352,52,269764,1,2,0:0:0:0:
156,120,269930,2,0,B|128:164|164:216|164:216|132:272|144:336,1,220.000006713867
360,212,270430,2,0,L|236:212,1,110.000003356934
364,324,270764,6,0,L|464:264|464:264,2,110.000003356934,4|0|0,0:0|0:0|0:0,0:0:0:0:
164,264,271264,1,0,0:0:0:0:
368,120,271430,2,0,L|472:188|472:188,2,110.000003356934,2|0|0,0:0|0:0|0:0,0:0:0:0:
200,152,271930,1,0,0:0:0:0:
280,336,272097,5,2,0:0:0:0:
288,64,272264,1,0,0:0:0:0:
124,204,272430,1,0,0:0:0:0:
384,160,272597,1,0,0:0:0:0:
384,160,272680,1,0,0:0:0:0:
384,160,272764,1,0,0:0:0:0:
156,64,272930,1,0,0:0:0:0:
84,312,273097,2,0,P|152:332|232:320,1,110.000003356934,2|0,0:0|0:0,0:0:0:0:
464,272,273430,5,2,0:0:0:0:
304,112,273597,1,2,0:0:0:0:
248,328,273764,1,2,0:0:0:0:
448,184,273930,1,2,0:0:0:0:
160,104,274097,1,2,0:0:0:0:
168,360,274264,1,2,0:0:0:0:
400,108,274430,1,2,0:0:0:0:
192,232,274597,1,2,0:0:0:0:
400,332,274764,5,2,0:0:0:0:
344,44,274930,1,2,0:0:0:0:
96,260,275097,1,2,0:0:0:0:
480,112,275264,1,2,0:0:0:0:
160,104,275430,1,2,0:0:0:0:
324,368,275597,1,2,0:0:0:0:
440,28,275764,1,2,0:0:0:0:
168,360,275930,1,2,0:0:0:0:
452,348,276097,6,0,L|436:280,1,55.0000016784668,2|0,0:0|0:0,0:0:0:0:
340,72,276264,2,0,L|324:124,1,55.0000016784668,2|0,0:0|0:0,0:0:0:0:
348,360,276430,6,0,L|332:292,1,55.0000016784668,2|0,0:0|0:0,0:0:0:0:
236,84,276597,2,0,L|220:136,1,55.0000016784668,2|0,0:0|0:0,0:0:0:0:
244,372,276764,6,0,L|228:304,1,55.0000016784668,2|0,0:0|0:0,0:0:0:0:
132,96,276931,2,0,L|116:148,1,55.0000016784668,2|0,0:0|0:0,0:0:0:0:
140,384,277097,6,0,L|124:316,1,55.0000016784668,2|0,0:0|0:0,0:0:0:0:
28,108,277264,2,0,L|12:160,1,55.0000016784668,2|0,0:0|0:0,0:0:0:0:
224,248,277430,5,2,0:0:0:0:
268,248,277514,1,2,0:0:0:0:
300,220,277597,1,2,0:0:0:0:
316,180,277680,1,2,0:0:0:0:
308,136,277764,1,2,0:0:0:0:
316,92,277847,1,2,0:0:0:0:
352,64,277930,1,2,0:0:0:0:
396,72,278014,1,2,0:0:0:0:
428,104,278097,5,2,0:0:0:0:
420,152,278180,1,0,0:0:0:0:
432,208,278264,1,0,0:0:0:0:
428,272,278347,1,0,0:0:0:0:
384,320,278430,2,0,B|344:316|344:316|336:292|276:296,1,89.9999972534181
312,252,278764,6,0,B|312:208|312:208|324:180|324:180|324:112,1,119.999996337891,4|0,0:0|0:0,0:0:0:0:
168,64,279097,1,0,0:0:0:0:
132,280,279264,1,0,0:0:0:0:
76,80,279430,1,2,0:0:0:0:
312,248,279597,1,2,0:0:0:0:
240,4,279764,1,0,0:0:0:0:
248,324,279930,1,0,0:0:0:0:
248,324,280014,1,0,0:0:0:0:
248,324,280097,1,2,0:0:0:0:
400,72,280264,5,2,0:0:0:0:
64,200,280430,1,2,0:0:0:0:
408,196,280597,1,2,0:0:0:0:
192,40,280764,1,0,0:0:0:0:
192,360,280930,1,2,0:0:0:0:
256,144,281097,1,2,0:0:0:0:
40,288,281264,1,0,0:0:0:0:
416,296,281430,5,4,0:0:0:0:
416,296,281514,1,0,0:0:0:0:
416,296,281597,1,0,0:0:0:0:
416,296,281680,2,0,L|444:232,1,59.9999981689454
500,92,281930,1,0,0:0:0:0:
204,240,282097,5,4,0:0:0:0:
204,240,282180,1,0,0:0:0:0:
204,240,282264,1,0,0:0:0:0:
204,240,282347,2,0,L|188:172,1,59.9999981689454
160,28,282597,1,0,0:0:0:0:
324,336,282764,5,6,0:0:0:0:
76,80,282930,1,2,0:0:0:0:
472,80,283097,1,2,0:0:0:0:
156,384,283264,1,2,0:0:0:0:
152,104,283430,1,0,0:0:0:0:
464,380,283597,1,2,0:0:0:0:
56,204,283764,1,2,0:0:0:0:
440,204,283930,1,2,0:0:0:0:
132,280,284097,5,4,0:0:0:0:
328,28,284264,1,0,0:0:0:0:
416,296,284430,1,0,0:0:0:0:
76,340,284597,5,2,0:0:0:0:
96,60,284764,1,2,0:0:0:0:
324,336,284930,1,2,0:0:0:0:
88,144,285097,5,0,0:0:0:0:
412,168,285264,1,2,0:0:0:0:
204,336,285430,5,2,0:0:0:0:
152,48,285597,1,2,0:0:0:0:
328,288,285764,5,2,0:0:0:0:
380,0,285931,1,2,0:0:0:0:
108,356,286097,5,0,0:0:0:0:
56,68,286264,1,2,0:0:0:0:
420,332,286431,5,2,0:0:0:0:
472,44,286598,1,2,0:0:0:0:
256,96,286764,5,4,0:0:0:0:
148,260,286930,1,0,0:0:0:0:
360,256,287097,1,0,0:0:0:0:
256,41,287264,5,2,0:0:0:0:
94,288,287430,1,2,0:0:0:0:
412,282,287597,1,2,0:0:0:0:
128,128,287764,5,0,0:0:0:0:
256,344,287930,1,0,0:0:0:0:
256,344,288014,1,0,0:0:0:0:
256,344,288097,1,4,0:0:0:0:
264,196,288264,1,0,0:0:0:0:
264,196,288347,1,0,0:0:0:0:
264,196,288430,1,4,0:0:0:0:
380,268,288597,5,0,0:0:0:0:
396,264,288680,1,0,0:0:0:0:
412,260,288764,1,0,0:0:0:0:
428,256,288847,1,0,0:0:0:0:
444,252,288930,1,4,0:0:0:0:
112,192,289097,1,4,0:0:0:0:
384,132,289264,1,4,0:0:0:0:
384,344,289430,5,6,0:0:0:0:
384,28,289597,1,2,0:0:0:0:
84,112,289764,1,0,0:0:0:0:
464,280,289930,1,2,0:0:0:0:
384,132,290097,1,2,0:0:0:0:
152,372,290264,1,2,0:0:0:0:
384,236,290430,1,0,0:0:0:0:
160,28,290597,5,2,0:0:0:0:
88,292,290764,1,2,0:0:0:0:
464,184,290930,1,2,0:0:0:0:
156,204,291097,1,2,0:0:0:0:
464,280,291264,1,2,0:0:0:0:
384,28,291430,1,0,0:0:0:0:
224,292,291597,1,2,0:0:0:0:
464,84,291764,1,2,0:0:0:0:
228,112,291930,1,0,0:0:0:0:
464,380,292097,5,6,0:0:0:0:
308,184,292264,1,0,0:0:0:0:
152,372,292430,1,0,0:0:0:0:
464,184,292597,1,2,0:0:0:0:
16,188,292764,1,2,0:0:0:0:
308,280,292930,1,2,0:0:0:0:
160,28,293097,1,0,0:0:0:0:
308,380,293264,1,2,0:0:0:0:
384,28,293430,5,6,0:0:0:0:
12,368,293597,1,2,0:0:0:0:
464,184,293764,1,2,0:0:0:0:
20,28,293930,1,2,0:0:0:0:
384,344,294097,1,0,0:0:0:0:
308,84,294264,1,2,0:0:0:0:
88,292,294430,1,2,0:0:0:0:
464,84,294597,1,2,0:0:0:0:
84,112,294764,5,4,0:0:0:0:
464,84,294930,1,2,0:0:0:0:
88,292,295097,1,0,0:0:0:0:
464,280,295264,1,2,0:0:0:0:
16,188,295430,5,2,0:0:0:0:
464,84,295597,1,2,0:0:0:0:
160,28,295764,1,0,0:0:0:0:
464,184,295930,1,2,0:0:0:0:
224,292,296097,5,2,0:0:0:0:
308,0,296264,1,2,0:0:0:0:
384,344,296430,1,2,0:0:0:0:
20,28,296597,1,2,0:0:0:0:
464,184,296764,1,0,0:0:0:0:
12,368,296930,1,2,0:0:0:0:
464,280,297097,1,2,0:0:0:0:
16,188,297264,1,2,0:0:0:0:
300,68,297430,5,4,0:0:0:0:
376,304,297597,1,0,0:0:0:0:
208,8,297764,5,8,0:0:0:0:
96,300,297930,1,0,0:0:0:0:
380,24,298097,5,0,0:0:0:0:
480,344,298264,1,2,0:0:0:0:
240,88,298430,5,8,0:0:0:0:
112,380,298597,1,0,0:0:0:0:
472,116,298764,5,2,0:0:0:0:
36,116,298930,1,2,0:0:0:0:
274,323,299097,5,2,0:0:0:0:
188,20,299264,2,0,B|232:36|232:36|296:16|296:16|372:36,1,179.999994506836,12|0,0:0|0:0,0:0:0:0:
365,33,299597,1,2,0:0:0:0:
260,240,299764,2,0,B|248:176|248:176|272:104,1,119.999996337891,12|2,0:0|0:0,0:0:0:0:
372,336,300097,2,0,B|344:316|344:316|320:336|320:336|296:316|296:316|260:328,1,120,4|0,3:0|0:0,0:0:0:0:
274,323,300430,5,4,0:0:0:0:
412,164,300597,2,0,P|424:92|400:28,1,119.999996337891,2|0,0:0|0:0,0:0:0:0:
48,176,300930,1,2,0:0:0:0:
96,212,301014,1,0,0:0:0:0:
152,228,301097,1,8,0:0:0:0:
212,232,301180,1,0,0:0:0:0:
272,216,301264,1,0,0:0:0:0:
176,88,301430,5,2,0:0:0:0:
160,320,301597,1,0,0:0:0:0:
160,320,301680,1,0,0:0:0:0:
160,320,301764,1,8,0:0:0:0:
460,172,301930,2,0,P|396:148|324:160,1,119.999996337891,2|0,0:0|0:0,0:0:0:0:
264,268,302264,1,2,0:0:0:0:
252,240,302347,1,0,0:0:0:0:
248,212,302430,1,8,0:0:0:0:
248,180,302514,1,0,0:0:0:0:
260,152,302597,1,0,0:0:0:0:
212,40,302764,6,0,P|280:56|356:36,1,119.999996337891,2|0,0:0|0:0,0:0:0:0:
460,304,303097,2,0,P|368:280|324:304,1,119.999996337891,8|2,0:0|0:0,0:0:0:0:
296,320,303347,1,0,0:0:0:0:
240,336,303430,1,0,0:0:0:0:
180,336,303514,1,0,0:0:0:0:
120,324,303597,1,2,0:0:0:0:
200,124,303764,1,8,0:0:0:0:
388,228,303930,1,0,0:0:0:0:
424,52,304097,6,0,L|344:72,1,59.9999981689454,2|0,0:0|0:0,0:0:0:0:
124,212,304264,2,0,L|204:192,1,59.9999981689454,2|0,0:0|0:0,0:0:0:0:
208,12,304430,2,0,L|240:84,1,59.9999981689454,8|0,0:0|0:0,0:0:0:0:
292,344,304597,2,0,L|304:268,1,59.9999981689454,2|0,0:0|0:0,0:0:0:0:
472,236,304764,2,0,L|392:216,1,59.9999981689454
184,148,304930,1,2,0:0:0:0:
220,100,305014,1,0,0:0:0:0:
280,92,305097,1,8,0:0:0:0:
336,112,305180,1,0,0:0:0:0:
368,164,305264,1,0,0:0:0:0:
268,244,305430,6,0,P|200:256|136:236,1,119.999996337891,4|0,0:0|0:0,0:0:0:0:
104,232,305680,1,0,0:0:0:0:
104,232,305764,1,8,0:0:0:0:
184,52,305930,1,2,0:0:0:0:
192,68,306014,1,0,0:0:0:0:
200,84,306097,1,0,0:0:0:0:
208,100,306180,1,0,0:0:0:0:
216,116,306264,2,0,L|264:212,1,59.9999981689454,2|0,0:0|0:0,0:0:0:0:
356,344,306430,2,0,B|344:280|344:280|356:208,1,119.999996337891,8|0,0:0|0:0,0:0:0:0:
364,0,306764,5,2,0:0:0:0:
432,228,306930,1,0,0:0:0:0:
432,228,307014,1,0,0:0:0:0:
432,228,307097,1,8,0:0:0:0:
196,288,307264,1,2,0:0:0:0:
136,288,307347,1,0,0:0:0:0:
84,260,307430,1,0,0:0:0:0:
48,212,307514,1,0,0:0:0:0:
32,152,307597,1,2,0:0:0:0:
256,32,307764,2,0,L|216:168|216:168,1,119.999996337891,8|0,0:0|0:0,0:0:0:0:
336,340,308097,6,0,L|376:216,1,119.999996337891,4|0,0:0|0:0,0:0:0:0:
124,120,308430,1,8,0:0:0:0:
124,120,308514,1,0,0:0:0:0:
124,120,308597,2,0,L|144:208,1,59.9999981689454
168,296,308764,6,0,B|196:244|196:244|280:224,1,119.999996337891,2|0,0:0|0:0,0:0:0:0:
424,144,309097,6,0,B|396:196|396:196|312:216,1,119.999996337891,2|0,0:0|0:0,0:0:0:0:
288,196,309347,1,0,0:0:0:0:
232,176,309430,1,4,0:0:0:0:
172,176,309514,1,0,0:0:0:0:
116,200,309597,1,0,0:0:0:0:
288,340,309764,1,4,0:0:0:0:
360,156,309930,2,0,P|372:76|444:4,1,179.999994506836,4|0,0:0|0:0,0:0:0:0:
440,12,310264,1,0,0:0:0:0:
480,220,310430,2,0,B|416:240|416:240|324:224,1,119.999996337891,8|0,0:0|0:0,0:0:0:0:
176,148,310764,6,0,B|112:144|112:144|44:160,1,119.999996337891,4|0,0:0|0:0,0:0:0:0:
216,336,311097,1,8,0:0:0:0:
288,212,311264,5,2,0:0:0:0:
296,196,311347,1,0,0:0:0:0:
304,180,311430,2,0,L|336:116,1,59.9999981689454
152,132,311597,5,2,0:0:0:0:
136,124,311680,1,0,0:0:0:0:
120,116,311764,2,0,L|48:68|48:68,1,59.9999981689454
304,288,311930,5,2,0:0:0:0:
320,292,312014,1,0,0:0:0:0:
336,296,312097,2,0,L|404:316,1,59.9999981689454
424,160,312264,5,2,0:0:0:0:
428,144,312347,1,0,0:0:0:0:
432,128,312430,2,0,L|456:32,1,59.9999981689454
224,164,312597,5,2,0:0:0:0:
220,180,312680,1,0,0:0:0:0:
216,196,312764,2,0,L|192:280|192:280,1,59.9999981689454
484,212,312930,6,0,B|484:104|448:68|448:68|392:96|348:216,1,299.999990844727,2|0,0:0|0:0,0:0:0:0:
348,308,313430,6,0,B|396:344|396:344|468:324,1,119.999996337891,4|0,0:0|0:0,0:0:0:0:
224,152,313764,1,8,0:0:0:0:
164,144,313847,1,0,0:0:0:0:
108,160,313930,1,2,0:0:0:0:
64,200,314014,1,0,0:0:0:0:
52,260,314097,2,0,L|116:328,1,59.9999981689454
228,212,314264,5,2,0:0:0:0:
224,152,314347,1,0,0:0:0:0:
248,96,314430,1,8,0:0:0:0:
300,64,314514,1,0,0:0:0:0:
360,60,314597,2,0,P|392:72|408:108,1,59.9999981689454,2|0,0:0|0:0,0:0:0:0:
404,220,314764,5,0,0:0:0:0:
400,236,314847,1,0,0:0:0:0:
396,252,314930,1,2,0:0:0:0:
392,268,315014,1,0,0:0:0:0:
388,284,315097,2,0,P|364:300|316:300,1,59.9999981689454,8|0,0:0|0:0,0:0:0:0:
204,192,315264,1,2,0:0:0:0:
204,192,315347,2,0,P|268:168|288:172,1,59.9999981689454
152,332,315597,5,2,0:0:0:0:
100,304,315680,1,0,0:0:0:0:
72,252,315764,1,8,0:0:0:0:
92,196,315847,1,0,0:0:0:0:
72,140,315930,1,0,0:0:0:0:
92,84,316014,1,0,0:0:0:0:
144,56,316097,6,0,B|184:48|184:48|220:52|220:52|268:40,1,119.999996337891,4|0,0:0|0:0,0:0:0:0:
324,176,316430,1,8,0:0:0:0:
168,284,316597,1,2,0:0:0:0:
216,320,316680,1,0,0:0:0:0:
276,332,316764,1,0,0:0:0:0:
336,328,316847,1,0,0:0:0:0:
392,308,316930,1,2,0:0:0:0:
412,160,317097,5,8,0:0:0:0:
416,144,317180,1,0,0:0:0:0:
420,128,317264,1,2,0:0:0:0:
424,112,317347,1,0,0:0:0:0:
428,96,317430,6,0,L|336:92,1,59.9999981689454
256,168,317597,2,0,L|340:172,1,59.9999981689454,2|0,0:0|0:0,0:0:0:0:
208,92,317764,2,0,L|116:88,1,59.9999981689454,8|0,0:0|0:0,0:0:0:0:
80,180,317930,1,2,0:0:0:0:
84,196,318013,1,0,0:0:0:0:
88,212,318097,2,0,B|136:240|136:240|176:232|176:232|208:236,1,119.999996337891,0|2,0:0|0:0,0:0:0:0:
448,304,318430,2,0,B|400:276|400:276|364:284|364:284|328:280,1,119.999996337891,8|0,0:0|0:0,0:0:0:0:
128,312,318764,1,4,0:0:0:0:
232,44,318930,5,0,0:0:0:0:
276,88,319014,1,0,0:0:0:0:
336,100,319097,1,8,0:0:0:0:
380,140,319180,1,0,0:0:0:0:
372,200,319264,1,2,0:0:0:0:
316,224,319347,1,0,0:0:0:0:
256,212,319430,1,0,0:0:0:0:
200,188,319514,1,0,0:0:0:0:
144,212,319597,1,2,0:0:0:0:
120,268,319680,1,0,0:0:0:0:
148,324,319764,5,8,0:0:0:0:
220,316,319847,1,0,0:0:0:0:
296,328,319930,1,2,0:0:0:0:
376,360,320014,1,0,0:0:0:0:
464,356,320097,2,0,B|480:280|428:80|428:80|372:208|352:216|352:216|352:216|352:216|352:216|352:216|352:216,1,419.999987182618
256,256,321430,6,0,B|240:200|251:143|251:143,1,100,4|0,0:3|0:0,0:0:0:0:
340,84,321930,2,0,B|352:140|344:192|344:192,1,100
340,300,322430,1,0,0:0:0:0:
196,176,322764,6,0,B|140:192|83:181|83:181,1,100
24,92,323264,2,0,B|80:80|132:88|132:88,1,100
240,92,323764,1,0,0:0:0:0:
316,208,324097,6,0,B|372:192|429:203|429:203,1,100
488,292,324597,2,0,B|432:304|380:296|380:296,1,100
272,292,325097,1,0,0:0:0:0:
324,84,325430,6,0,P|272:72|212:84,1,100
152,164,325930,2,0,P|208:176|268:164,1,100
332,160,326430,1,0,0:0:0:0:
432,188,326764,6,0,P|408:232|339:243,1,100
216,248,327264,2,0,P|240:204|308:192,1,100
364,188,327764,1,0,0:0:0:0:
224,312,328097,6,0,P|172:316|112:308,1,100
72,204,328597,2,0,P|72:132|96:96,1,100
152,64,329097,1,0,0:0:0:0:
288,72,329430,6,0,P|340:68|400:76,1,100
440,180,329930,2,0,P|440:252|416:288,1,100
360,320,330430,1,0,0:0:0:0:
196,148,330764,6,0,L|296:148,1,100
332,260,331264,2,0,L|220:260,1,100
152,264,331764,1,0,0:0:0:0:
152,264,332097,5,0,0:0:0:0:
304,136,332597,2,0,L|408:172,1,100
256,220,333264,2,0,L|268:336,1,100
132,252,333930,2,0,L|92:348,1,100
88,348,334764,5,0,0:0:0:0:
304,248,335264,2,0,L|408:212,1,100
256,164,335931,2,0,L|268:48,1,100
132,132,336597,2,0,L|92:36,1,100
92,40,337430,5,0,0:0:0:0:
344,140,337930,2,0,L|320:256,1,100
168,140,338597,2,0,L|192:256,1,100
464,232,339264,2,0,L|385:320,1,100
396,308,340097,5,0,0:0:0:0:
396,316,340597,2,0,L|392:208,1,100
324,80,341264,2,0,L|316:192,1,100
228,312,341930,2,0,L|240:200,1,100
216,48,342764,5,0,0:0:0:0:
132,88,342930,1,0,0:0:0:0:
132,88,343014,1,0,0:0:0:0:
132,88,343097,1,0,0:0:0:0:
280,136,343264,1,0,0:0:0:0:
128,176,343430,1,0,0:0:0:0:
224,220,343597,1,0,0:0:0:0:
224,220,343930,5,0,0:0:0:0:
292,80,344097,1,0,0:0:0:0:
296,280,344264,1,0,0:0:0:0:
296,280,344347,1,0,0:0:0:0:
296,280,344430,1,0,0:0:0:0:
216,144,344597,1,0,0:0:0:0:
216,144,344930,5,0,0:0:0:0:
340,200,345097,1,0,0:0:0:0:
200,268,345264,1,0,0:0:0:0:
332,332,345430,1,0,0:0:0:0:
200,268,345597,1,0,0:0:0:0:
200,268,345930,5,0,0:0:0:0:
280,92,346097,1,0,0:0:0:0:
356,268,346264,1,0,0:0:0:0:
356,268,346597,5,0,0:0:0:0:
172,156,346764,1,0,0:0:0:0:
420,156,346930,1,0,0:0:0:0:
284,320,347097,1,0,0:0:0:0:
288,96,347264,1,0,0:0:0:0:
288,96,347597,5,0,0:0:0:0:
336,208,347764,1,0,0:0:0:0:
188,144,347931,1,0,0:0:0:0:
336,208,348097,1,0,0:0:0:0:
228,256,348264,1,0,0:0:0:0:
228,256,348597,5,0,0:0:0:0:
188,160,348764,1,0,0:0:0:0:
88,136,348930,1,0,0:0:0:0:
88,136,349264,5,0,0:0:0:0:
176,80,349430,1,0,0:0:0:0:
280,72,349597,1,0,0:0:0:0:
380,100,349764,1,0,0:0:0:0:
456,172,349930,1,0,0:0:0:0:
456,172,350264,5,0,0:0:0:0:
388,252,350430,1,0,0:0:0:0:
288,280,350597,1,0,0:0:0:0:
184,280,350764,1,0,0:0:0:0:
88,236,350930,1,0,0:0:0:0:
256,120,351264,5,0,0:0:0:0:
232,328,351431,1,0,0:0:0:0:
256,120,351597,1,0,0:0:0:0:
332,248,351930,1,0,0:0:0:0:
172,180,352264,5,0,0:0:0:0:
188,284,352430,1,0,0:0:0:0:
276,224,352597,1,0,0:0:0:0:
304,124,352930,1,0,0:0:0:0:
288,20,353096,1,0,0:0:0:0:
200,80,353263,1,0,0:0:0:0:
312,336,353430,5,0,0:0:0:0:
312,336,353597,1,0,0:0:0:0:
380,152,353930,5,0,0:0:0:0:
168,148,354096,1,0,0:0:0:0:
380,152,354263,1,0,0:0:0:0:
80,208,354597,5,0,0:0:0:0:
292,204,354763,1,0,0:0:0:0:
80,208,354930,1,0,0:0:0:0:
180,236,355097,1,0,0:0:0:0:
280,264,355264,1,0,0:0:0:0:
432,208,355597,5,0,0:0:0:0:
220,204,355763,1,0,0:0:0:0:
432,208,355930,1,0,0:0:0:0:
332,236,356097,1,0,0:0:0:0:
232,264,356264,1,0,0:0:0:0:
340,88,356597,5,0,0:0:0:0:
380,292,356764,1,0,0:0:0:0:
380,292,356930,1,0,0:0:0:0:
172,88,357264,5,0,0:0:0:0:
132,292,357431,1,0,0:0:0:0:
132,292,357598,1,0,0:0:0:0:
212,224,357764,1,0,0:0:0:0:
316,212,357930,1,0,0:0:0:0:
412,252,358264,5,0,0:0:0:0:
376,156,358430,1,0,0:0:0:0:
276,124,358597,1,0,0:0:0:0:
168,132,358764,1,0,0:0:0:0:
168,132,358930,1,0,0:0:0:0:
228,304,359264,5,0,0:0:0:0:
312,104,359430,1,0,0:0:0:0:
312,104,359597,1,0,0:0:0:0:
396,296,359930,5,0,0:0:0:0:
160,160,360097,1,0,0:0:0:0:
380,168,360264,1,0,0:0:0:0:
272,256,360430,1,0,0:0:0:0:
280,36,360597,1,0,0:0:0:0:
280,36,360930,1,0,0:0:0:0:
256,192,361430,12,0,364097,0:0:0:0:
