osu file format v14

[General]
AudioFilename: audio.mp3
AudioLeadIn: 0
PreviewTime: 170602
Countdown: 0
SampleSet: Soft
StackLeniency: 0.7
Mode: 0
LetterboxInBreaks: 0
WidescreenStoryboard: 1

[Editor]
Bookmarks: 162935
DistanceSpacing: 0.5
BeatDivisor: 4
GridSize: 4
TimelineZoom: 1.7

[Metadata]
Title:Day By Day (Kotonohouse Remix)
TitleUnicode:Day By Day (Kotonohouse Remix)
Artist:KATAMORI
ArtistUnicode:KATAMORI
Creator:Lazy Cat Soup
Version:Level 5
Source:
Tags:DnB EDM Kawaii Anime House English
BeatmapID:1227423
BeatmapSetID:578260

[Difficulty]
HPDrainRate:5
CircleSize:4
OverallDifficulty:7.5
ApproachRate:9
SliderMultiplier:1.8
SliderTickRate:1

[Events]
//Background and Video events
0,0,"bg.jpg",0,0
//Break Periods
2,86963,96830
2,193630,203497
2,321630,331497
//Storyboard Layer 0 (Background)
//Storyboard Layer 1 (Fail)
//Storyboard Layer 2 (Pass)
//Storyboard Layer 3 (Foreground)
//Storyboard Sound Samples

[TimingPoints]
1431,333.333333333333,4,2,19,100,1,0
1431,-200,4,2,19,20,0,0
12097,-142.857142857143,4,2,19,40,0,0
22764,-125,4,2,19,50,0,0
41764,-125,4,2,19,40,0,0
42430,-125,4,2,19,30,0,0
42764,-400,4,2,19,15,0,0
44097,-100,4,2,19,70,0,0
64764,-100,4,2,19,80,0,0
65430,-166.666666666667,4,2,19,30,0,0
65764,-83.3333333333333,4,2,19,80,0,1
85097,-83.3333333333333,4,2,19,50,0,1
85430,-400,4,2,19,30,0,0
86763,-200,4,2,19,20,0,0
104764,-200,4,2,19,25,0,0
105430,-200,4,2,19,30,0,0
106097,-200,4,2,19,40,0,0
108096,-142.857142857143,4,2,19,60,0,0
108430,-142.857142857143,4,2,19,40,0,0
110097,-142.857142857143,4,2,19,45,0,0
110764,-142.857142857143,4,2,19,50,0,0
112430,-142.857142857143,4,2,19,55,0,0
114764,-142.857142857143,4,2,19,60,0,0
118763,-125,4,2,19,60,0,0
124097,-125,4,2,19,30,0,0
124764,-125,4,2,19,40,0,0
125430,-125,4,2,19,45,0,0
126097,-125,4,2,19,55,0,0
126764,-125,4,2,19,65,0,0
127430,-125,4,2,19,80,0,0
128097,-125,4,2,19,70,0,0
128347,-125,4,2,19,60,0,0
128597,-125,4,2,19,50,0,0
128930,-125,4,2,19,60,0,0
129429,-100,4,2,19,50,0,0
149430,-100,4,2,19,35,0,0
150097,-100,4,2,19,40,0,0
150430,-100,4,2,19,50,0,0
150764,-83.3333333333333,4,2,19,80,0,1
172097,-166.666666666667,4,2,19,40,0,0
172430,-83.3333333333333,4,2,19,100,0,1
192097,-400,4,2,19,25,0,0
193429,-200,4,2,19,20,0,0
212764,-200,4,2,19,30,0,0
214762,-142.857142857143,4,2,19,40,0,0
225428,-125,4,2,19,50,0,0
226764,-125,4,2,19,60,0,0
228097,-125,4,2,19,65,0,0
229430,-125,4,2,19,70,0,0
230764,-125,4,2,19,30,0,0
231430,-125,4,2,19,35,0,0
232097,-125,4,2,19,40,0,0
232764,-125,4,2,19,50,0,0
233430,-125,4,2,19,65,0,0
234097,-125,4,2,19,80,0,0
234764,-125,4,2,19,70,0,0
235014,-125,4,2,19,60,0,0
235264,-125,4,2,19,50,0,0
235430,-125,4,2,19,60,0,0
236095,-100,4,2,19,50,0,0
252097,-100,4,2,19,30,0,0
252430,-100,4,2,19,35,0,0
252764,-100,4,2,19,45,0,0
253097,-100,4,2,19,50,0,0
253430,-100,4,2,19,60,0,0
254097,-100,4,2,19,70,0,0
254764,-100,4,2,19,30,0,0
255097,-100,4,2,19,45,0,0
255430,-100,4,2,19,60,0,0
255764,-100,4,2,19,75,0,0
257428,-90.9090909090909,4,2,19,75,0,0
277430,-90.9090909090909,4,2,19,40,0,0
278097,-90.9090909090909,4,2,19,60,0,0
278428,-166.666666666667,4,2,19,80,0,0
278764,-83.3333333333333,4,2,19,100,0,1
300097,-125,4,2,19,30,0,0
300430,-83.3333333333333,4,2,19,80,0,1
319764,-83.3333333333333,4,2,19,40,0,1
320097,-166.666666666667,4,2,19,15,0,0
321428,-200,4,2,19,20,0,0
342762,-142.857142857143,4,2,19,30,0,0

[Colours]
Combo1 : 255,128,255
Combo2 : 204,128,255
Combo3 : 128,255,255
Combo4 : 255,0,128
Combo5 : 0,128,255
Combo6 : 0,255,128

[HitObjects]
148,288,1431,6,0,P|192:304|240:300,1,90,4|0,0:3|0:0,0:0:0:0:
296,260,1930,2,0,L|276:160,1,90
268,104,2430,1,0,0:0:0:0:
192,40,2764,6,0,P|128:32|88:40,1,90
44,96,3264,2,0,P|60:132|104:152,1,90
176,152,3764,1,0,0:0:0:0:
324,252,4097,6,0,P|272:264|216:256,1,90
188,316,4597,2,0,P|152:288|136:232,1,90
108,180,5097,1,0,0:0:0:0:
188,132,5430,6,0,P|240:120|296:128,1,90
324,68,5930,2,0,P|360:96|376:152,1,90
404,204,6430,1,0,0:0:0:0:
480,200,6764,5,0,0:0:0:0:
368,268,6930,2,0,L|280:308,1,90
196,116,7597,1,0,0:0:0:0:
196,116,7764,1,0,0:0:0:0:
112,240,8097,2,0,L|200:280,1,90
276,312,8597,1,0,0:0:0:0:
316,116,8931,1,0,0:0:0:0:
316,116,9097,1,0,0:0:0:0:
284,240,9430,5,0,0:0:0:0:
284,240,9931,1,0,0:0:0:0:
232,180,10097,2,0,P|236:132|280:100,1,90
340,88,10597,1,0,0:0:0:0:
400,140,10764,2,0,P|400:196|364:228,1,90
320,272,11264,2,0,P|316:320|336:368,1,90
184,252,11764,1,0,0:0:0:0:
184,252,12097,6,0,L|152:120,1,125.999996154785
112,0,12597,2,0,L|244:0,1,125.999996154785
448,88,13264,2,0,L|316:88,1,125.999996154785
64,160,13930,2,0,L|196:160,1,125.999996154785
296,208,14764,5,0,0:0:0:0:
372,296,15264,2,0,L|232:296,1,125.999996154785
36,212,15930,2,0,L|176:212,1,125.999996154785
416,144,16597,2,0,L|276:144,1,125.999996154785
140,104,17430,5,0,0:0:0:0:
284,240,17930,1,0,0:0:0:0:
284,116,18264,1,0,0:0:0:0:
188,276,18597,1,0,0:0:0:0:
356,348,18930,1,0,0:0:0:0:
240,176,19264,1,0,0:0:0:0:
276,300,19597,1,0,0:0:0:0:
432,184,20097,6,0,P|380:168|304:164,1,125.999996154785
180,244,20597,2,0,P|232:260|308:264,2,125.999996154785
112,172,21430,1,0,0:0:0:0:
112,172,21597,1,0,0:0:0:0:
272,144,21930,2,0,P|344:124|408:136,2,125.999996154785
164,180,22764,6,0,P|116:116|128:36,1,144,4|0,0:0|0:0,0:0:0:0:
232,36,23264,1,0,0:0:0:0:
284,140,23430,1,0,0:0:0:0:
396,172,23597,2,0,P|462:128|479:48,1,144
364,72,24097,5,0,0:0:0:0:
284,140,24264,1,0,0:0:0:0:
208,216,24430,1,0,0:0:0:0:
328,272,24597,2,0,L|476:272,1,144
396,140,25097,1,0,0:0:0:0:
472,272,25430,5,0,0:0:0:0:
356,328,25597,1,0,0:0:0:0:
240,236,25930,5,0,0:0:0:0:
124,280,26097,1,0,0:0:0:0:
124,280,26264,1,0,0:0:0:0:
200,72,26597,5,0,0:0:0:0:
328,144,26764,1,0,0:0:0:0:
276,16,26930,1,0,0:0:0:0:
232,152,27097,1,0,0:0:0:0:
356,64,27264,1,0,0:0:0:0:
384,300,27597,5,0,0:0:0:0:
288,192,27764,1,0,0:0:0:0:
292,344,27931,1,0,0:0:0:0:
384,216,28097,1,0,0:0:0:0:
232,268,28264,1,0,0:0:0:0:
232,268,28597,5,0,0:0:0:0:
172,152,28764,1,0,0:0:0:0:
172,152,28930,1,0,0:0:0:0:
48,192,29264,5,0,0:0:0:0:
108,76,29431,1,0,0:0:0:0:
108,76,29597,1,0,0:0:0:0:
284,244,29764,5,0,0:0:0:0:
96,248,29930,1,0,0:0:0:0:
96,248,30264,1,0,0:0:0:0:
192,180,30430,1,0,0:0:0:0:
192,320,30597,1,0,0:0:0:0:
240,116,30764,6,0,P|300:120|324:136,1,72
380,244,31097,2,0,P|356:196|364:168,1,72
428,56,31430,2,0,P|412:100|380:116,1,72
248,244,31764,6,0,P|272:200|312:188,1,72
496,188,32097,2,0,P|456:188|428:168,1,72
312,0,32430,2,0,P|336:36|340:76,1,72
116,136,32930,5,0,0:0:0:0:
116,136,33097,2,0,L|136:240,1,72
248,276,33430,2,0,L|224:112,1,144
336,104,33930,1,0,0:0:0:0:
336,104,34097,6,0,L|360:252,1,144
84,196,34597,5,0,0:0:0:0:
107,111,34763,1,0,0:0:0:0:
194,95,34930,1,0,0:0:0:0:
256,158,35097,1,0,0:0:0:0:
232,242,35263,1,0,0:0:0:0:
476,240,35598,5,0,0:0:0:0:
440,160,35764,1,0,0:0:0:0:
352,151,35931,1,0,0:0:0:0:
296,219,36098,1,0,0:0:0:0:
333,299,36264,1,0,0:0:0:0:
232,52,36597,5,0,0:0:0:0:
172,112,36764,1,0,0:0:0:0:
184,196,36931,1,0,0:0:0:0:
360,224,37264,5,0,0:0:0:0:
436,176,37430,1,0,0:0:0:0:
448,92,37597,2,0,P|408:76|360:76,1,72
276,88,37930,1,0,0:0:0:0:
48,288,38264,6,0,P|88:304|136:304,1,72
220,292,38597,1,0,0:0:0:0:
280,200,38764,2,0,P|232:192|176:200,2,72
344,116,39264,1,0,0:0:0:0:
284,32,39430,2,0,P|328:24|384:32,2,72
200,112,39930,5,0,0:0:0:0:
172,224,40097,2,0,P|224:256|264:252,1,72
372,224,40430,1,0,0:0:0:0:
340,112,40597,2,0,P|308:152|304:188,1,72
308,288,40930,1,0,0:0:0:0:
208,344,41097,2,0,P|152:348|128:344,1,72
128,188,41430,5,0,0:0:0:0:
248,264,41597,1,0,0:0:0:0:
208,100,41764,1,0,0:0:0:0:
44,196,41930,1,0,0:0:0:0:
300,96,42097,1,0,0:0:0:0:
96,96,42264,1,0,0:0:0:0:
252,176,42430,1,0,0:0:0:0:
100,284,42597,1,0,0:0:0:0:
376,180,42764,6,0,B|404:188|416:212|416:212|372:244|400:272|400:272|376:288|380:316,1,168.75
379,307,44097,6,0,P|432:324|496:316,1,90,4|0,0:0|0:0,0:0:0:0:
448,132,44430,1,8,0:0:0:0:
296,108,44597,1,0,0:0:0:0:
296,108,44680,1,0,0:0:0:0:
296,108,44764,2,0,L|276:208,1,90
256,332,45097,5,8,0:0:0:0:
156,176,45264,1,0,0:0:0:0:
60,336,45430,1,2,0:0:0:0:
60,96,45597,1,0,0:0:0:0:
60,96,45680,1,0,0:0:0:0:
60,96,45764,1,8,0:0:0:0:
260,104,45930,1,0,0:0:0:0:
260,104,46014,1,0,0:0:0:0:
260,104,46097,2,0,L|304:60,2,45
156,176,46430,1,8,0:0:0:0:
304,208,46597,1,0,0:0:0:0:
392,104,46764,6,0,P|404:56|396:-8,2,90,2|0|8,0:0|0:0|0:0,0:0:0:0:
344,296,47264,1,0,0:0:0:0:
344,296,47347,1,0,0:0:0:0:
344,296,47430,1,0,0:0:0:0:
192,168,47597,1,0,0:0:0:0:
312,104,47764,2,0,P|324:152|316:216,1,90,8|0,0:0|0:0,0:0:0:0:
84,284,48097,6,0,P|72:216|84:156,1,90,2|0,0:0|0:0,0:0:0:0:
172,248,48430,2,0,P|224:252|280:248,1,90,8|0,0:0|0:0,0:0:0:0:
220,68,48764,1,0,0:0:0:0:
204,84,48847,1,0,0:0:0:0:
196,104,48930,1,0,0:0:0:0:
192,128,49014,1,0,0:0:0:0:
192,152,49097,1,8,0:0:0:0:
356,152,49264,1,0,0:0:0:0:
420,284,49430,6,0,L|316:276,1,90,2|0,0:0|0:0,0:0:0:0:
176,96,49764,2,0,L|296:104,1,90,8|0,0:0|0:0,0:0:0:0:
404,108,50097,1,0,0:0:0:0:
304,304,50264,1,0,0:0:0:0:
212,192,50430,1,8,0:0:0:0:
212,192,50597,1,0,0:0:0:0:
80,192,50764,5,2,0:0:0:0:
288,192,50930,1,0,0:0:0:0:
100,104,51097,1,8,0:0:0:0:
56,300,51264,1,0,0:0:0:0:
216,104,51430,1,0,0:0:0:0:
88,200,51597,1,0,0:0:0:0:
88,200,51680,1,0,0:0:0:0:
88,200,51764,1,8,0:0:0:0:
216,280,51930,1,0,0:0:0:0:
344,96,52097,5,2,0:0:0:0:
272,204,52264,1,0,0:0:0:0:
448,96,52430,1,8,0:0:0:0:
272,204,52597,1,0,0:0:0:0:
460,172,52764,1,0,0:0:0:0:
284,316,52930,1,0,0:0:0:0:
356,232,53097,1,8,0:0:0:0:
424,316,53264,1,0,0:0:0:0:
168,368,53430,5,2,0:0:0:0:
168,212,53597,1,2,0:0:0:0:
80,104,53764,5,8,0:0:0:0:
268,104,53930,1,2,0:0:0:0:
80,104,54097,5,0,0:0:0:0:
8,204,54264,1,0,0:0:0:0:
8,204,54347,1,0,0:0:0:0:
8,204,54430,2,0,P|48:220|96:216,1,90,8|0,0:0|0:0,0:0:0:0:
172,40,54764,6,0,P|164:92|172:140,1,90,2|0,0:0|0:0,0:0:0:0:
208,256,55097,2,0,P|236:221|273:195,1,90,8|0,0:0|0:0,0:0:0:0:
296,196,55347,1,0,0:0:0:0:
317,192,55430,2,0,P|344:188|376:168,2,45
124,256,55764,2,0,P|95:221|58:195,1,90,8|0,0:0|0:0,0:0:0:0:
168,344,56097,5,2,0:0:0:0:
273,195,56264,2,0,B|317:211|317:211|337:259,2,90,0|8|0,0:0|0:0|0:0,0:0:0:0:
364,332,56764,1,0,0:0:0:0:
384,132,56930,1,0,0:0:0:0:
356,132,57014,1,0,0:0:0:0:
336,132,57097,2,0,B|292:116|292:116|272:68,1,90,8|0,0:0|0:0,0:0:0:0:
220,232,57430,6,0,P|168:248|80:216,1,135,2|0,0:0|0:0,0:0:0:0:
92,226,57764,2,0,L|48:144,1,90,10|0,0:0|0:0,0:0:0:0:
152,92,58097,1,0,0:0:0:0:
260,148,58264,2,0,L|215:230,1,90,2|8,0:0|0:0,0:0:0:0:
152,328,58597,1,2,0:0:0:0:
152,92,58764,5,2,0:0:0:0:
316,68,58930,1,2,0:0:0:0:
416,204,59097,1,8,0:0:0:0:
316,68,59264,1,2,0:0:0:0:
296,240,59430,1,0,0:0:0:0:
272,236,59514,1,0,0:0:0:0:
252,232,59597,1,0,0:0:0:0:
232,228,59680,1,0,0:0:0:0:
208,224,59764,1,8,0:0:0:0:
92,200,59930,1,0,0:0:0:0:
188,336,60097,6,0,B|232:336|232:336|245:328|245:328|328:328,1,135,2|0,0:0|0:0,0:0:0:0:
320,328,60430,1,2,0:0:0:0:
100,104,60764,1,0,0:0:0:0:
160,176,60930,1,0,0:0:0:0:
256,56,61097,1,8,0:0:0:0:
352,176,61264,1,0,0:0:0:0:
408,100,61430,1,2,0:0:0:0:
256,268,61597,1,0,0:0:0:0:
256,268,61680,1,0,0:0:0:0:
256,268,61764,1,8,0:0:0:0:
160,176,61930,5,0,0:0:0:0:
352,176,62097,1,0,0:0:0:0:
264,64,62264,1,0,0:0:0:0:
264,64,62347,1,0,0:0:0:0:
264,64,62430,1,8,0:0:0:0:
160,176,62597,1,0,0:0:0:0:
168,104,62764,6,0,P|213:131|237:172,1,90,2|0,0:0|0:0,0:0:0:0:
202,314,63097,2,0,P|160:283|146:225,1,90,8|0,0:0|0:0,0:0:0:0:
328,184,63430,2,0,P|317:235|287:271,1,90
48,244,63763,2,0,P|62:193|112:160,1,90,8|0,0:0|0:0,0:0:0:0:
452,136,64097,5,2,0:0:0:0:
244,120,64264,1,2,0:0:0:0:
452,136,64430,1,2,0:0:0:0:
300,208,64597,2,0,B|240:220|240:220|208:200|208:200|152:208,1,135,8|0,0:0|0:0,0:0:0:0:
172,205,64930,1,0,0:0:0:0:
196,40,65097,2,0,B|228:28|228:28|244:44|244:44|316:32,1,90,8|0,0:0|0:0,0:0:0:0:
368,84,65430,2,0,L|364:180,1,80.9999975280763
364,164,65764,6,0,P|428:148|384:28,1,215.999993408203,4|0,0:0|0:0,0:0:0:0:
200,24,66264,1,0,0:0:0:0:
200,24,66347,1,0,0:0:0:0:
200,24,66430,1,8,0:0:0:0:
272,224,66597,1,0,0:0:0:0:
424,112,66764,1,2,0:0:0:0:
352,312,66930,1,0,0:0:0:0:
352,312,67014,1,0,0:0:0:0:
352,312,67097,1,8,0:0:0:0:
252,136,67264,6,0,B|192:156|192:156|192:272,1,161.999995056153
192,254,67597,1,0,0:0:0:0:
200,364,67764,1,8,0:0:0:0:
216,344,67847,1,0,0:0:0:0:
236,324,67930,1,0,0:0:0:0:
40,164,68097,6,0,B|36:216|36:216|60:276,1,107.999996704102,2|0,0:0|0:0,0:0:0:0:
72,288,68347,1,0,0:0:0:0:
88,308,68430,1,8,0:0:0:0:
176,212,68597,1,2,0:0:0:0:
280,128,68764,1,0,0:0:0:0:
296,152,68847,1,0,0:0:0:0:
312,176,68930,1,0,0:0:0:0:
380,280,69097,2,0,P|316:288|268:280,1,107.999996704102,8|0,0:0|0:0,0:0:0:0:
276,16,69430,5,2,0:0:0:0:
88,240,69597,1,2,0:0:0:0:
304,192,69764,1,8,0:0:0:0:
148,80,69930,1,2,0:0:0:0:
148,80,70264,5,2,0:0:0:0:
232,280,70430,1,8,0:0:0:0:
296,120,70597,1,0,0:0:0:0:
296,120,70680,1,0,0:0:0:0:
296,120,70764,2,0,B|320:64|320:64|364:172,1,161.999995056153,2|0,0:0|0:0,0:0:0:0:
358,157,71097,5,8,0:0:0:0:
384,280,71264,1,0,0:0:0:0:
208,268,71430,2,0,B|232:296|232:296|304:296,1,107.999996704102
372,44,71764,1,8,0:0:0:0:
408,32,71847,1,0,0:0:0:0:
444,28,71930,1,0,0:0:0:0:
500,192,72097,5,2,0:0:0:0:
500,192,72430,1,8,0:0:0:0:
436,312,72597,1,0,0:0:0:0:
436,312,72680,1,0,0:0:0:0:
436,312,72764,1,0,0:0:0:0:
380,88,72930,1,0,0:0:0:0:
380,88,73014,1,0,0:0:0:0:
380,88,73097,1,8,0:0:0:0:
184,168,73264,1,0,0:0:0:0:
408,216,73430,5,2,0:0:0:0:
408,216,73764,1,8,0:0:0:0:
160,84,73930,1,0,0:0:0:0:
132,108,74014,1,0,0:0:0:0:
116,144,74097,1,0,0:0:0:0:
116,180,74180,1,0,0:0:0:0:
128,216,74264,2,0,P|176:256|228:256,2,107.999996704102,0|8|0,0:0|0:0|0:0,0:0:0:0:
64,88,74764,5,2,0:0:0:0:
248,116,74930,1,2,0:0:0:0:
288,288,75097,1,8,0:0:0:0:
324,48,75264,2,0,P|384:68|416:132,1,107.999996704102,2|0,0:0|0:0,0:0:0:0:
432,276,75597,1,0,0:0:0:0:
396,284,75680,1,0,0:0:0:0:
360,292,75764,1,8,0:0:0:0:
324,292,75847,1,0,0:0:0:0:
288,288,75930,1,0,0:0:0:0:
64,176,76097,6,0,P|128:160|224:188,1,161.999995056153,2|0,0:0|0:0,0:0:0:0:
218,184,76430,1,8,0:0:0:0:
296,80,76597,1,0,0:0:0:0:
184,336,76764,1,0,0:0:0:0:
188,104,76930,1,0,0:0:0:0:
188,104,77014,1,0,0:0:0:0:
188,104,77097,1,8,0:0:0:0:
348,304,77264,1,0,0:0:0:0:
364,76,77430,5,2,0:0:0:0:
364,76,77764,1,8,0:0:0:0:
248,192,77930,1,0,0:0:0:0:
248,192,78014,1,0,0:0:0:0:
248,192,78097,1,0,0:0:0:0:
488,192,78264,1,0,0:0:0:0:
268,372,78430,1,8,0:0:0:0:
388,148,78597,1,0,0:0:0:0:
352,368,78764,1,2,0:0:0:0:
352,368,79097,5,8,0:0:0:0:
288,168,79264,1,0,0:0:0:0:
408,328,79430,1,0,0:0:0:0:
172,272,79597,1,0,0:0:0:0:
408,328,79764,1,8,0:0:0:0:
428,104,79930,1,0,0:0:0:0:
260,280,80097,1,2,0:0:0:0:
492,200,80264,1,2,0:0:0:0:
492,200,80347,1,0,0:0:0:0:
492,200,80430,1,8,0:0:0:0:
340,68,80597,5,2,0:0:0:0:
340,68,80930,1,2,0:0:0:0:
228,212,81097,1,8,0:0:0:0:
192,216,81180,1,0,0:0:0:0:
156,204,81264,1,0,0:0:0:0:
132,176,81347,1,0,0:0:0:0:
124,140,81430,6,0,P|136:80|112:28,1,107.999996704102,2|0,0:0|0:0,0:0:0:0:
104,352,81764,2,0,P|168:360|220:344,1,107.999996704102,8|0,0:0|0:0,0:0:0:0:
368,152,82097,2,0,P|344:212|348:288,1,107.999996704102
508,384,82430,2,0,P|516:320|504:240,1,107.999996704102,8|0,0:0|0:0,0:0:0:0:
376,72,82764,2,0,P|312:64|252:72,1,107.999996704102,2|0,0:0|0:0,0:0:0:0:
68,200,83097,2,0,P|132:208|192:200,1,107.999996704102,8|0,0:0|0:0,0:0:0:0:
432,188,83430,2,0,P|368:180|308:188,1,107.999996704102
208,352,83764,2,0,P|148:356|92:340,1,107.999996704102,8|0,0:0|0:0,0:0:0:0:
240,72,84097,5,2,0:0:0:0:
344,308,84264,1,0,0:0:0:0:
344,308,84347,1,0,0:0:0:0:
344,308,84430,1,8,0:0:0:0:
376,68,84597,1,0,0:0:0:0:
228,232,84764,5,0,0:0:0:0:
228,232,84847,1,0,0:0:0:0:
228,232,84930,1,0,0:0:0:0:
432,168,85097,1,8,0:0:0:0:
192,136,85264,1,0,0:0:0:0:
372,256,85430,6,0,B|356:196|368:140|368:140|348:160|304:164,1,180
160,192,97430,6,0,P|216:176|260:180,2,90
96,236,98264,1,0,0:0:0:0:
84,272,98597,6,0,P|144:288|188:280,1,90
228,216,99264,2,0,P|280:208|324:224,1,90
400,248,99930,2,0,P|436:200|400:128,1,135
348,72,100764,5,0,0:0:0:0:
260,68,101097,1,0,0:0:0:0:
184,120,101430,1,0,0:0:0:0:
184,120,101764,1,0,0:0:0:0:
156,204,101930,2,0,P|156:256|172:300,1,90
304,204,102597,2,0,P|312:176|296:64,1,135
168,92,103430,5,0,0:0:0:0:
96,144,103764,1,0,0:0:0:0:
96,144,103930,1,0,0:0:0:0:
168,200,104264,1,0,0:0:0:0:
96,256,104597,1,0,0:0:0:0:
172,308,104930,1,0,0:0:0:0:
172,308,105264,1,0,0:0:0:0:
256,192,105430,12,0,106597,0:0:0:0:
340,316,106764,5,4,0:3:0:0:
328,320,108097,6,0,P|272:328|184:312,1,125.999996154785
144,244,108597,1,0,0:0:0:0:
168,152,108764,2,0,P|220:144|256:160,1,62.9999980773926
300,212,109097,2,0,P|252:224|224:216,1,62.9999980773926
344,152,109430,2,0,P|384:144|416:156,1,62.9999980773926
472,216,109764,5,0,0:0:0:0:
436,304,109930,1,0,0:0:0:0:
356,352,110097,2,0,L|344:264,1,62.9999980773926
228,280,110430,2,0,L|236:196,1,62.9999980773926
380,204,110764,1,0,0:0:0:0:
380,204,111097,6,0,P|368:140|308:108,2,125.999996154785
344,292,111930,1,0,0:0:0:0:
256,328,112097,2,0,L|176:312,1,62.9999980773926
140,232,112430,2,0,L|216:244,1,62.9999980773926
276,184,112764,2,0,L|196:168,1,62.9999980773926
160,88,113097,2,0,L|236:100,1,62.9999980773926
336,124,113430,1,0,0:0:0:0:
336,124,113764,5,0,0:0:0:0:
256,296,114097,1,0,0:0:0:0:
256,296,114264,1,0,0:0:0:0:
224,164,114430,1,0,0:0:0:0:
192,96,114597,1,0,0:0:0:0:
120,76,114764,2,0,P|76:92|56:112,2,62.9999980773926
196,176,115264,5,0,0:0:0:0:
276,248,115430,2,0,P|316:248|344:240,2,62.9999980773926
196,176,115930,1,0,0:0:0:0:
276,104,116097,6,0,P|312:92|348:92,2,62.9999980773926
196,176,116597,1,0,0:0:0:0:
124,256,116764,2,0,P|88:268|52:268,2,62.9999980773926
196,176,117264,1,0,0:0:0:0:
116,104,117430,6,0,P|80:96|40:108,2,62.9999980773926
196,176,117930,1,0,0:0:0:0:
280,244,118097,2,0,P|316:252|356:240,2,62.9999980773926
196,176,118597,1,0,0:0:0:0:
320,88,118764,5,2,0:0:0:0:
340,220,118930,1,0,0:0:0:0:
220,112,119097,1,0,0:0:0:0:
384,144,119264,1,0,0:0:0:0:
232,228,119430,1,2,0:0:0:0:
256,40,119597,1,0,0:0:0:0:
288,200,119764,1,0,0:0:0:0:
132,88,119930,1,0,0:0:0:0:
160,264,120097,5,2,0:0:0:0:
280,136,120264,1,0,0:0:0:0:
88,208,120430,1,0,0:0:0:0:
232,312,120597,1,0,0:0:0:0:
380,220,120764,1,2,0:0:0:0:
176,228,120930,1,0,0:0:0:0:
336,280,121097,1,0,0:0:0:0:
248,44,121264,1,0,0:0:0:0:
208,176,121430,5,2,0:0:0:0:
332,36,121597,1,0,0:0:0:0:
136,152,121764,1,0,0:0:0:0:
336,328,121930,1,0,0:0:0:0:
344,136,122097,1,2,0:0:0:0:
272,260,122264,1,0,0:0:0:0:
428,208,122430,1,0,0:0:0:0:
408,24,122597,1,0,0:0:0:0:
404,280,122764,5,2,0:0:0:0:
264,52,122930,1,0,0:0:0:0:
156,336,123097,1,0,0:0:0:0:
368,160,123264,1,0,0:0:0:0:
144,84,123430,1,2,0:0:0:0:
244,224,123597,1,0,0:0:0:0:
288,0,123764,1,0,0:0:0:0:
68,148,123930,1,0,0:0:0:0:
412,156,124097,5,2,0:0:0:0:
416,148,124180,1,0,0:0:0:0:
416,136,124264,1,0,0:0:0:0:
412,124,124347,1,0,0:0:0:0:
400,124,124430,1,0,0:0:0:0:
392,128,124514,1,0,0:0:0:0:
396,140,124597,1,0,0:0:0:0:
404,144,124680,1,0,0:0:0:0:
416,144,124764,5,2,0:0:0:0:
432,136,124847,1,0,0:0:0:0:
440,120,124930,1,0,0:0:0:0:
436,104,125014,1,0,0:0:0:0:
424,92,125097,1,0,0:0:0:0:
408,84,125180,1,0,0:0:0:0:
392,80,125264,1,0,0:0:0:0:
376,80,125347,1,0,0:0:0:0:
360,84,125430,5,2,0:0:0:0:
340,100,125514,1,0,0:0:0:0:
316,104,125597,1,0,0:0:0:0:
292,96,125680,1,0,0:0:0:0:
272,80,125764,1,0,0:0:0:0:
276,56,125847,1,0,0:0:0:0:
292,36,125930,1,0,0:0:0:0:
316,32,126014,1,0,0:0:0:0:
340,40,126097,5,2,0:0:0:0:
356,68,126180,1,0,0:0:0:0:
364,100,126264,1,0,0:0:0:0:
364,132,126347,1,0,0:0:0:0:
356,164,126430,1,0,0:0:0:0:
340,192,126514,1,0,0:0:0:0:
316,212,126597,1,0,0:0:0:0:
284,224,126680,1,0,0:0:0:0:
252,224,126764,5,2,0:0:0:0:
216,212,126847,1,0,0:0:0:0:
188,184,126930,1,0,0:0:0:0:
168,148,127014,1,0,0:0:0:0:
160,108,127097,1,0,0:0:0:0:
168,68,127180,1,0,0:0:0:0:
192,36,127264,1,0,0:0:0:0:
232,24,127347,1,0,0:0:0:0:
272,24,127430,5,2,0:0:0:0:
312,48,127514,1,0,0:0:0:0:
328,92,127597,1,0,0:0:0:0:
328,140,127680,1,0,0:0:0:0:
308,184,127764,1,0,0:0:0:0:
272,212,127847,1,0,0:0:0:0:
228,220,127930,1,0,0:0:0:0:
180,220,128014,1,0,0:0:0:0:
136,208,128097,6,0,P|116:164|132:96,2,108,4|0|0,0:0|0:0|0:0,0:0:0:0:
200,280,128764,2,0,P|256:292|292:284,1,72,4|0,0:0|0:0,0:0:0:0:
352,244,129097,2,0,P|368:176|320:144,1,108,4|0,0:0|0:0,0:0:0:0:
346,152,129430,5,0,0:0:0:0:
152,88,129764,2,0,L|264:96,1,90
241,94,130014,1,0,0:0:0:0:
241,94,130097,1,2,0:0:0:0:
104,200,130264,1,0,0:0:0:0:
104,200,130347,1,0,0:0:0:0:
104,200,130430,2,0,L|84:92,1,90,2|0,0:0|0:0,0:0:0:0:
176,256,130764,5,2,0:0:0:0:
276,232,130930,1,0,0:0:0:0:
308,132,131097,1,0,0:0:0:0:
204,176,131264,1,0,0:0:0:0:
204,176,131347,1,0,0:0:0:0:
204,176,131430,2,0,B|192:224|192:224|224:292,1,90,2|0,0:0|0:0,0:0:0:0:
360,188,131764,1,2,0:0:0:0:
360,188,131847,2,0,B|372:148|372:148|344:88,1,90
332,68,132097,6,0,B|280:144|280:144|236:120,1,135,2|0,0:0|0:0,0:0:0:0:
242,123,132430,1,0,0:0:0:0:
320,288,132597,1,0,0:0:0:0:
312,180,132764,1,2,0:0:0:0:
156,224,132930,1,0,0:0:0:0:
248,236,133097,1,2,0:0:0:0:
248,236,133180,1,0,0:0:0:0:
152,120,133430,5,2,0:0:0:0:
152,120,133514,1,0,0:0:0:0:
152,120,133597,2,0,L|132:192,1,45
232,96,133764,2,0,L|216:156,1,45
308,68,133930,2,0,L|292:128,1,45
388,44,134097,2,0,L|372:104,1,45,2|0,0:0|0:0,0:0:0:0:
340,224,134264,1,0,0:0:0:0:
340,224,134347,1,0,0:0:0:0:
340,224,134430,2,0,P|392:236|452:224,1,90,2|0,0:0|0:0,0:0:0:0:
296,116,134764,6,0,B|272:136|200:116|200:116|196:180,1,135,4|0,0:0|0:0,0:0:0:0:
197,151,135097,1,0,0:0:0:0:
200,268,135264,2,0,L|176:368,1,90
272,200,135597,2,0,L|304:312,1,90
164,120,135930,2,0,L|132:224,1,90
296,64,136264,2,0,L|332:168,1,90
396,288,136597,1,0,0:0:0:0:
396,288,136930,5,0,0:0:0:0:
396,288,137097,2,0,P|412:232|368:140,1,135
296,160,137430,6,0,P|344:160|456:120,1,135,4|0,0:0|0:0,0:0:0:0:
344,104,137764,2,0,L|192:88,1,135
120,144,138097,2,0,L|92:296,1,135
80,364,138430,1,0,0:0:0:0:
252,240,138597,5,0,0:0:0:0:
252,240,138680,1,0,0:0:0:0:
252,240,138764,1,0,0:0:0:0:
288,128,138930,1,0,0:0:0:0:
288,128,139014,1,0,0:0:0:0:
288,128,139097,1,0,0:0:0:0:
364,248,139264,5,0,0:0:0:0:
364,248,139347,1,0,0:0:0:0:
364,248,139430,2,0,L|404:296,1,45
276,212,139597,2,0,L|192:204,1,45
328,312,139764,2,0,L|344:380,1,45
260,280,139930,2,0,L|216:316,1,45
336,184,140097,6,0,P|344:104|392:52,1,135,2|0,0:0|0:0,0:0:0:0:
444,20,140430,2,0,B|396:8|396:8|324:20,1,90
52,192,140764,2,0,B|100:180|100:180|172:192,1,90,2|0,0:0|0:0,0:0:0:0:
139,186,141014,1,0,0:0:0:0:
139,186,141097,2,0,B|188:208|188:208|248:192,1,90,2|0,0:0|0:0,0:0:0:0:
336,88,141430,6,0,B|284:116|284:116|292:200,1,135,2|0,0:0|0:0,0:0:0:0:
352,256,141764,2,0,L|244:272,1,90
100,260,142097,2,0,L|228:288,1,90,2|0,0:0|0:0,0:0:0:0:
187,279,142347,1,0,0:0:0:0:
187,279,142430,1,2,0:0:0:0:
284,104,142597,5,0,0:0:0:0:
284,104,142680,1,0,0:0:0:0:
284,104,142764,1,2,0:0:0:0:
176,172,142930,1,0,0:0:0:0:
336,196,143097,2,0,L|440:220,1,90
423,216,143347,1,0,0:0:0:0:
423,216,143430,1,2,0:0:0:0:
212,104,143597,2,0,L|108:76,1,90,0|2,0:0|0:0,0:0:0:0:
125,80,143847,1,0,0:0:0:0:
280,284,144097,5,2,0:0:0:0:
404,348,144264,2,0,L|464:384,1,45
432,280,144430,2,0,L|500:288,1,45
428,208,144597,2,0,L|492:184,1,45
404,132,144764,2,0,L|444:88,1,45,2|0,0:0|0:0,0:0:0:0:
396,144,144931,1,0,0:0:0:0:
388,156,145014,1,0,0:0:0:0:
380,168,145098,1,0,0:0:0:0:
372,180,145181,1,0,0:0:0:0:
364,192,145264,1,0,0:0:0:0:
232,132,145430,5,2,0:0:0:0:
280,280,145597,1,0,0:0:0:0:
120,200,145764,1,0,0:0:0:0:
168,300,145930,1,0,0:0:0:0:
312,184,146097,1,2,0:0:0:0:
240,352,146264,1,0,0:0:0:0:
84,204,146430,5,0,0:0:0:0:
296,144,146597,1,0,0:0:0:0:
168,300,146764,1,2,0:0:0:0:
172,124,146930,1,0,0:0:0:0:
304,228,147097,1,0,0:0:0:0:
172,196,147264,5,0,0:0:0:0:
396,192,147430,1,2,0:0:0:0:
308,340,147597,1,0,0:0:0:0:
252,140,147764,1,0,0:0:0:0:
480,140,147930,1,0,0:0:0:0:
268,156,148097,5,2,0:0:0:0:
268,156,148180,1,0,0:0:0:0:
268,156,148264,1,0,0:0:0:0:
268,156,148347,1,0,0:0:0:0:
268,156,148430,2,0,P|300:156|324:164,3,45,2|0|0|0,0:0|0:0|0:0|0:0,0:0:0:0:
236,148,148764,1,2,0:0:0:0:
208,152,148847,1,0,0:0:0:0:
184,160,148930,1,0,0:0:0:0:
160,176,149014,1,0,0:0:0:0:
140,196,149097,6,0,P|140:280|148:324,1,90,2|0,0:0|0:0,0:0:0:0:
144,312,149347,1,0,0:0:0:0:
164,332,149430,1,2,0:0:0:0:
188,340,149514,1,0,0:0:0:0:
216,340,149597,1,2,0:0:0:0:
240,332,149680,1,0,0:0:0:0:
268,324,149764,1,2,0:0:0:0:
296,324,149847,1,0,0:0:0:0:
320,332,149930,1,2,0:0:0:0:
344,348,150014,1,0,0:0:0:0:
356,372,150097,2,0,L|360:264,1,90,2|0,0:0|0:0,0:0:0:0:
156,12,150430,6,0,L|152:120,1,90
460,256,150764,6,0,L|456:144,1,107.999996704102,4|0,0:0|0:0,0:0:0:0:
324,36,151097,1,8,0:0:0:0:
148,284,151264,1,0,0:0:0:0:
200,300,151347,1,0,0:0:0:0:
252,304,151430,1,0,0:0:0:0:
308,300,151514,1,0,0:0:0:0:
360,288,151597,1,2,0:0:0:0:
148,88,151764,2,0,L|124:200,1,107.999996704102,8|0,0:0|0:0,0:0:0:0:
360,288,152097,6,0,L|384:172,1,107.999996704102
400,64,152430,1,8,0:0:0:0:
232,200,152597,1,0,0:0:0:0:
232,200,152680,1,0,0:0:0:0:
232,200,152764,1,0,0:0:0:0:
381,182,152930,1,2,0:0:0:0:
164,80,153097,2,0,P|100:72|40:80,1,107.999996704102,8|0,0:0|0:0,0:0:0:0:
216,336,153430,6,0,P|240:280|244:212,1,107.999996704102
240,180,153680,1,0,0:0:0:0:
260,128,153764,1,8,0:0:0:0:
408,64,153930,1,0,0:0:0:0:
336,244,154097,1,0,0:0:0:0:
200,48,154264,1,2,0:0:0:0:
252,32,154347,1,0,0:0:0:0:
304,48,154430,1,8,0:0:0:0:
332,96,154514,1,0,0:0:0:0:
328,148,154597,1,0,0:0:0:0:
148,352,154764,6,0,P|152:296|188:260,1,107.999996704102
360,260,155097,1,8,0:0:0:0:
272,344,155264,1,2,0:0:0:0:
216,176,155430,1,0,0:0:0:0:
208,140,155514,1,0,0:0:0:0:
208,104,155597,1,2,0:0:0:0:
216,68,155680,1,0,0:0:0:0:
236,36,155764,2,0,P|296:16|352:20,1,107.999996704102,8|0,0:0|0:0,0:0:0:0:
208,260,156097,6,0,P|164:280|20:252,1,161.999995056153,4|0,0:0|0:0,0:0:0:0:
53,271,156430,1,8,0:0:0:0:
352,256,156597,1,0,0:0:0:0:
352,256,156930,1,2,0:0:0:0:
144,176,157097,2,0,P|140:120|160:68,1,107.999996704102,8|0,0:0|0:0,0:0:0:0:
272,124,157430,6,0,P|328:148|356:200,1,107.999996704102
360,212,157680,1,0,0:0:0:0:
384,228,157764,1,8,0:0:0:0:
464,108,157930,1,0,0:0:0:0:
452,96,158014,1,0,0:0:0:0:
436,88,158097,1,0,0:0:0:0:
420,92,158180,1,0,0:0:0:0:
404,100,158264,1,2,0:0:0:0:
208,156,158430,2,0,P|188:88|204:28,1,107.999996704102,8|0,0:0|0:0,0:0:0:0:
476,184,158764,6,0,P|480:244|456:352,1,161.999995056153
459,343,159097,1,8,0:0:0:0:
228,216,159264,1,0,0:0:0:0:
268,204,159347,1,0,0:0:0:0:
312,200,159430,1,2,0:0:0:0:
356,208,159514,1,0,0:0:0:0:
396,224,159597,1,0,0:0:0:0:
152,368,159764,2,0,P|144:304|168:244,1,107.999996704102,8|0,0:0|0:0,0:0:0:0:
344,72,160097,5,2,0:0:0:0:
320,276,160264,1,2,0:0:0:0:
256,124,160430,1,0,0:0:0:0:
156,263,160597,1,2,0:0:0:0:
328,136,160930,5,0,0:0:0:0:
344,132,161014,1,0,0:0:0:0:
360,128,161097,1,8,0:0:0:0:
232,268,161264,1,0,0:0:0:0:
216,272,161347,1,0,0:0:0:0:
200,276,161430,2,0,P|136:240|112:180,2,107.999996704102,4|0|0,0:0|0:0|0:0,0:0:0:0:
352,184,161930,6,0,L|464:136,1,107.999996704102,2|0,0:0|0:0,0:0:0:0:
119,211,162264,2,0,L|-5:199,1,107.999996704102,2|0,0:0|0:0,0:0:0:0:
352,304,162597,2,0,L|464:328,1,107.999996704102,2|0,0:0|0:0,0:0:0:0:
128,360,162930,2,0,L|-16:380,1,107.999996704102,2|0,0:0|0:0,0:0:0:0:
360,204,163264,5,2,0:0:0:0:
360,204,163347,1,0,0:0:0:0:
360,204,163430,1,0,0:0:0:0:
224,80,163597,1,2,0:0:0:0:
224,80,163680,1,0,0:0:0:0:
224,80,163764,1,0,0:0:0:0:
292,284,163930,1,0,0:0:0:0:
368,60,164097,1,2,0:0:0:0:
368,60,164430,5,0,0:0:0:0:
384,260,164597,2,0,L|396:388,1,107.999996704102,2|0,0:0|0:0,0:0:0:0:
280,132,164930,2,0,L|268:8,1,107.999996704102,2|0,0:0|0:0,0:0:0:0:
188,256,165264,2,0,L|160:368,1,107.999996704102,2|0,0:0|0:0,0:0:0:0:
96,132,165597,2,0,L|124:20,1,107.999996704102,2|0,0:0|0:0,0:0:0:0:
296,260,165930,5,2,0:0:0:0:
296,260,166014,1,0,0:0:0:0:
296,260,166097,1,0,0:0:0:0:
232,116,166264,1,2,0:0:0:0:
232,116,166347,1,0,0:0:0:0:
232,116,166430,1,0,0:0:0:0:
392,116,166597,1,0,0:0:0:0:
188,256,166764,1,2,0:0:0:0:
304,80,167097,5,0,0:0:0:0:
328,232,167264,2,0,L|348:348,2,107.999996704102,2|0|0,0:0|0:0|0:0,0:0:0:0:
240,80,167764,1,0,0:0:0:0:
132,240,167930,2,0,L|60:336,1,107.999996704102,2|0,0:0|0:0,0:0:0:0:
328,232,168264,2,0,L|448:204,1,107.999996704102,2|0,0:0|0:0,0:0:0:0:
104,104,168597,2,0,L|12:36,1,107.999996704102,2|0,0:0|0:0,0:0:0:0:
316,116,168930,2,0,L|424:48,2,107.999996704102,2|0|0,0:0|0:0|0:0,0:0:0:0:
172,220,169430,2,0,B|204:264|264:264|264:264|280:212|384:248,1,215.999993408203,2|0,0:0|0:0,0:0:0:0:
464,232,169930,1,2,0:0:0:0:
304,44,170264,5,2,0:0:0:0:
260,76,170347,1,0,0:0:0:0:
248,128,170430,1,0,0:0:0:0:
224,288,170597,1,0,0:0:0:0:
352,96,170764,1,2,0:0:0:0:
384,256,170930,1,2,0:0:0:0:
192,120,171097,1,2,0:0:0:0:
312,204,171264,5,2,0:0:0:0:
352,224,171597,1,2,0:0:0:0:
272,92,171764,1,0,0:0:0:0:
200,288,171930,1,0,0:0:0:0:
400,152,172097,2,0,B|380:136|380:136|356:136|356:136|340:124|340:124|316:124,1,80.9999975280763
328,124,172430,5,4,0:0:0:0:
248,244,172597,1,0,0:0:0:0:
384,284,172764,1,2,0:0:0:0:
408,132,172930,1,2,0:0:0:0:
252,176,173097,1,0,0:0:0:0:
328,320,173264,1,0,0:0:0:0:
348,84,173430,5,2,0:0:0:0:
224,264,173597,1,2,0:0:0:0:
380,192,173764,1,2,0:0:0:0:
144,172,173930,2,0,P|96:144|64:96,2,107.999996704102
256,232,174430,1,2,0:0:0:0:
240,80,174597,1,0,0:0:0:0:
256,232,174764,6,0,P|272:296|300:324,1,107.999996704102,2|0,0:0|0:0,0:0:0:0:
448,336,175097,1,0,0:0:0:0:
404,168,175264,1,0,0:0:0:0:
300,324,175430,2,0,P|232:336|184:320,1,107.999996704102,2|0,0:0|0:0,0:0:0:0:
384,272,175764,1,0,0:0:0:0:
328,124,175930,1,0,0:0:0:0:
512,240,176097,5,2,0:0:0:0:
328,124,176264,2,0,L|216:64,2,107.999996704102,0|0|2,0:0|0:0|0:0,0:0:0:0:
152,224,176764,1,0,0:0:0:0:
340,312,176930,1,0,0:0:0:0:
240,164,177097,5,2,0:0:0:0:
296,240,177264,1,0,0:0:0:0:
308,68,177430,2,0,P|368:64|412:96,1,107.999996704102,2|0,0:0|0:0,0:0:0:0:
312,172,177764,1,0,0:0:0:0:
152,108,177930,1,0,0:0:0:0:
188,236,178097,5,2,0:0:0:0:
448,124,178264,2,0,P|448:168|388:224,1,107.999996704102
200,108,178597,1,0,0:0:0:0:
256,312,178764,1,2,0:0:0:0:
332,120,178930,1,2,0:0:0:0:
120,232,179097,1,0,0:0:0:0:
332,252,179264,2,0,P|384:228|408:180,2,107.999996704102,2|0|0,0:0|0:0|0:0,0:0:0:0:
192,248,179764,1,2,0:0:0:0:
292,48,179931,1,0,0:0:0:0:
452,296,180097,5,2,0:0:0:0:
452,296,180430,1,0,0:0:0:0:
244,244,180597,1,0,0:0:0:0:
392,224,180764,2,0,L|508:216,2,107.999996704102,2|0|0,0:0|0:0|0:0,0:0:0:0:
164,216,181264,1,0,0:0:0:0:
392,144,181430,5,2,0:0:0:0:
312,264,181597,1,2,0:0:0:0:
284,56,181764,1,0,0:0:0:0:
136,176,181930,1,2,0:0:0:0:
136,176,182264,5,2,0:0:0:0:
336,244,182430,1,0,0:0:0:0:
232,348,182597,1,2,0:0:0:0:
136,176,182764,5,2,0:0:0:0:
144,336,182930,1,0,0:0:0:0:
48,236,183097,1,0,0:0:0:0:
232,236,183264,1,0,0:0:0:0:
20,316,183430,1,2,0:0:0:0:
256,328,183597,1,2,0:0:0:0:
72,160,183764,1,0,0:0:0:0:
224,164,183930,1,0,0:0:0:0:
316,228,184097,6,0,L|368:128,1,107.999996704102,2|0,0:0|0:0,0:0:0:0:
152,200,184430,2,0,L|128:88,1,107.999996704102
356,348,184764,2,0,L|400:248,1,107.999996704102,0|2,0:0|0:0,0:0:0:0:
116,328,185097,2,0,L|56:204,1,107.999996704102,2|0,0:0|0:0,0:0:0:0:
464,280,185430,5,2,0:0:0:0:
236,268,185597,1,0,0:0:0:0:
336,316,185764,1,0,0:0:0:0:
248,128,185930,1,0,0:0:0:0:
200,228,186097,1,2,0:0:0:0:
360,80,186264,1,2,0:0:0:0:
400,180,186430,1,0,0:0:0:0:
168,104,186597,1,0,0:0:0:0:
284,284,186764,6,0,P|340:296|392:276,1,107.999996704102,2|2,0:0|0:0,0:0:0:0:
480,220,187097,1,0,0:0:0:0:
268,108,187264,2,0,L|224:224,1,107.999996704102,2|0,0:0|0:0,0:0:0:0:
168,112,187597,1,0,0:0:0:0:
408,128,187764,1,2,0:0:0:0:
264,348,187930,1,0,0:0:0:0:
144,252,188097,1,4,0:0:0:0:
144,252,188430,5,0,0:0:0:0:
356,260,188597,1,2,0:0:0:0:
168,64,188764,1,2,0:0:0:0:
272,184,188930,1,0,0:0:0:0:
388,80,189097,1,0,0:0:0:0:
144,164,189264,1,0,0:0:0:0:
300,272,189430,5,2,0:0:0:0:
236,28,189597,1,0,0:0:0:0:
92,216,189764,1,2,0:0:0:0:
296,104,189930,1,2,0:0:0:0:
236,236,190097,1,0,0:0:0:0:
116,44,190263,1,0,0:0:0:0:
204,112,190430,1,2,0:0:0:0:
36,168,190597,1,0,0:0:0:0:
204,112,190764,5,0,0:0:0:0:
236,92,190847,1,0,0:0:0:0:
272,88,190930,1,0,0:0:0:0:
312,88,191014,1,0,0:0:0:0:
348,96,191097,1,0,0:0:0:0:
376,120,191180,1,0,0:0:0:0:
388,156,191264,1,0,0:0:0:0:
388,192,191347,1,0,0:0:0:0:
380,228,191430,5,0,0:0:0:0:
356,256,191514,1,0,0:0:0:0:
320,268,191597,1,0,0:0:0:0:
284,268,191680,1,0,0:0:0:0:
248,260,191764,1,0,0:0:0:0:
216,240,191847,1,0,0:0:0:0:
196,208,191930,1,0,0:0:0:0:
196,168,192014,1,0,0:0:0:0:
216,132,192097,6,0,B|248:116|276:132|276:132|308:116|340:132|340:132|368:116|396:132,1,180
200,236,204097,6,0,P|292:256|380:232,1,180
304,172,204930,1,0,0:0:0:0:
304,172,205264,2,0,L|264:72,1,90
144,48,205930,2,0,L|184:140,1,90
240,256,206597,2,0,P|248:216|332:188,1,135
328,312,207430,2,0,P|300:328|224:336,1,90
176,280,208097,6,0,B|152:240|152:240|196:240|196:240|172:216|184:144,1,180
416,76,208930,1,0,0:0:0:0:
416,76,209264,2,0,P|332:68|272:76,1,135
92,260,210097,6,0,P|144:252|196:256,1,90
304,296,210597,2,0,P|316:260|312:196,1,90
188,80,211264,2,0,P|224:96|280:88,1,90
416,12,211930,1,0,0:0:0:0:
256,192,212097,12,0,213264,0:0:0:0:
256,192,213430,5,4,0:3:0:0:
256,192,214764,6,0,L|396:184,1,125.999996154785
216,284,215430,2,0,L|76:276,1,125.999996154785
192,60,216097,2,0,L|200:192,1,125.999996154785
320,324,216764,2,0,L|312:192,1,125.999996154785
304,72,217430,1,0,0:0:0:0:
304,72,217764,6,0,P|376:92|440:80,2,125.999996154785
184,156,218764,2,0,P|112:136|48:148,2,125.999996154785
304,304,219764,2,0,P|376:324|440:312,2,125.999996154785
240,132,220764,6,0,L|248:288,1,125.999996154785
108,96,221430,2,0,L|72:248,1,125.999996154785
268,40,222097,2,0,L|312:176,1,125.999996154785
144,0,222764,2,0,L|56:116,1,125.999996154785
356,304,223430,6,0,L|508:292,1,125.999996154785
164,224,224097,2,0,L|12:212,1,125.999996154785
352,120,224764,2,0,L|476:104,1,125.999996154785
216,256,225430,5,2,0:0:0:0:
300,168,225597,1,0,0:0:0:0:
184,136,225764,1,0,0:0:0:0:
336,236,225930,1,0,0:0:0:0:
268,100,226097,1,2,0:0:0:0:
232,188,226264,1,0,0:0:0:0:
344,112,226430,1,0,0:0:0:0:
200,68,226597,1,0,0:0:0:0:
276,304,226764,5,2,0:0:0:0:
388,192,226930,1,0,0:0:0:0:
168,272,227097,1,0,0:0:0:0:
356,300,227264,1,0,0:0:0:0:
312,48,227430,1,2,0:0:0:0:
276,236,227597,1,0,0:0:0:0:
400,104,227764,1,0,0:0:0:0:
160,192,227930,1,0,0:0:0:0:
416,260,228097,5,2,0:0:0:0:
208,356,228264,1,0,0:0:0:0:
328,192,228430,1,0,0:0:0:0:
348,372,228597,1,0,0:0:0:0:
220,216,228764,1,2,0:0:0:0:
140,384,228930,1,0,0:0:0:0:
132,80,229097,1,0,0:0:0:0:
336,184,229264,1,0,0:0:0:0:
176,256,229430,5,2,0:0:0:0:
420,184,229597,1,0,0:0:0:0:
280,376,229764,1,0,0:0:0:0:
336,88,229930,1,0,0:0:0:0:
448,276,230097,1,2,0:0:0:0:
496,64,230264,1,0,0:0:0:0:
272,188,230430,1,0,0:0:0:0:
344,356,230597,1,0,0:0:0:0:
180,184,230764,5,2,0:0:0:0:
176,176,230847,1,0,0:0:0:0:
176,164,230931,1,0,0:0:0:0:
180,152,231014,1,0,0:0:0:0:
192,152,231097,1,0,0:0:0:0:
200,156,231181,1,0,0:0:0:0:
196,168,231264,1,0,0:0:0:0:
188,172,231347,1,0,0:0:0:0:
176,172,231431,5,2,0:0:0:0:
160,164,231514,1,0,0:0:0:0:
152,148,231597,1,0,0:0:0:0:
156,132,231681,1,0,0:0:0:0:
168,120,231764,1,0,0:0:0:0:
184,112,231847,1,0,0:0:0:0:
200,108,231931,1,0,0:0:0:0:
216,108,232014,1,0,0:0:0:0:
232,112,232097,5,2,0:0:0:0:
252,128,232181,1,0,0:0:0:0:
276,132,232264,1,0,0:0:0:0:
300,124,232347,1,0,0:0:0:0:
320,108,232431,1,0,0:0:0:0:
316,84,232514,1,0,0:0:0:0:
300,64,232597,1,0,0:0:0:0:
276,60,232681,1,0,0:0:0:0:
252,68,232764,5,2,0:0:0:0:
236,96,232847,1,0,0:0:0:0:
228,128,232931,1,0,0:0:0:0:
228,160,233014,1,0,0:0:0:0:
236,192,233097,1,0,0:0:0:0:
252,220,233181,1,0,0:0:0:0:
276,240,233264,1,0,0:0:0:0:
308,252,233347,1,0,0:0:0:0:
340,252,233431,5,2,0:0:0:0:
376,240,233514,1,0,0:0:0:0:
404,212,233597,1,0,0:0:0:0:
424,176,233681,1,0,0:0:0:0:
432,136,233764,1,0,0:0:0:0:
424,96,233847,1,0,0:0:0:0:
400,64,233931,1,0,0:0:0:0:
360,52,234014,1,0,0:0:0:0:
320,52,234097,5,2,0:0:0:0:
280,76,234181,1,0,0:0:0:0:
264,120,234264,1,0,0:0:0:0:
264,168,234347,1,0,0:0:0:0:
284,212,234431,1,0,0:0:0:0:
320,240,234514,1,0,0:0:0:0:
364,248,234597,1,0,0:0:0:0:
412,248,234681,1,0,0:0:0:0:
456,236,234764,6,0,P|476:192|460:124,2,108,4|0|0,0:0|0:0|0:0,0:0:0:0:
392,308,235431,2,0,P|336:320|300:312,1,72,4|0,0:0|0:0,0:0:0:0:
240,272,235764,2,0,P|224:204|272:172,1,108,4|0,0:0|0:0,0:0:0:0:
246,180,236097,1,0,0:0:0:0:
372,188,236430,5,0,0:0:0:0:
432,52,236597,1,0,0:0:0:0:
315,55,236764,1,2,0:0:0:0:
315,55,236847,1,0,0:0:0:0:
315,55,236930,2,0,L|204:52,1,90,0|2,0:0|0:0,0:0:0:0:
92,156,237264,5,0,0:0:0:0:
92,156,237347,1,0,0:0:0:0:
92,156,237430,2,0,L|196:160,1,90,2|0,0:0|0:0,0:0:0:0:
204,160,237680,1,0,0:0:0:0:
224,172,237764,2,0,B|248:216|248:216|228:288,1,90
196,344,238097,2,0,L|368:344,1,135,2|0,0:0|0:0,0:0:0:0:
331,344,238430,1,2,0:0:0:0:
412,268,238597,1,0,0:0:0:0:
344,132,238764,5,2,0:0:0:0:
344,132,239097,2,0,B|288:160|288:160|208:124,1,135
152,96,239430,2,0,L|126:193,1,90
128,196,239680,1,0,0:0:0:0:
124,208,239764,1,2,0:0:0:0:
288,304,239930,5,0,0:0:0:0:
296,296,240014,1,0,0:0:0:0:
304,288,240097,2,0,L|344:244,1,45,2|0,0:0|0:0,0:0:0:0:
308,168,240264,2,0,L|264:224,1,45
188,200,240430,2,0,L|228:156,1,45
192,84,240597,2,0,L|148:140,1,45
76,108,240764,2,0,L|116:64,1,45,2|0,0:0|0:0,0:0:0:0:
196,0,240930,1,0,0:0:0:0:
196,0,241014,1,0,0:0:0:0:
196,0,241097,1,2,0:0:0:0:
260,112,241264,5,0,0:0:0:0:
260,112,241347,1,0,0:0:0:0:
260,112,241430,2,0,P|336:100|376:112,1,90,4|0,0:0|0:0,0:0:0:0:
420,216,241764,2,0,P|364:236|304:228,1,90
96,180,242097,2,0,P|172:168|212:180,1,90
256,284,242431,2,0,P|200:304|140:296,1,90
404,196,242764,6,0,L|368:304,1,90
152,196,243097,2,0,L|180:88,1,90
348,300,243430,2,0,L|240:304,1,90
308,96,243764,2,0,L|416:92,1,90
216,244,244097,6,0,P|156:204|148:112,1,135,2|0,0:0|0:0,0:0:0:0:
139,146,244430,1,0,0:0:0:0:
416,96,244764,2,0,P|380:124|360:224,1,135,2|0,0:0|0:0,0:0:0:0:
356,207,245097,1,0,0:0:0:0:
248,100,245264,1,0,0:0:0:0:
248,100,245347,1,0,0:0:0:0:
248,100,245430,1,2,0:0:0:0:
312,296,245597,5,0,0:0:0:0:
312,296,245680,1,0,0:0:0:0:
312,296,245764,1,2,0:0:0:0:
152,228,245930,1,0,0:0:0:0:
144,220,246014,1,0,0:0:0:0:
136,212,246097,2,0,P|160:168|256:156,1,135,2|0,0:0|0:0,0:0:0:0:
280,156,246430,2,0,L|268:276,1,90,2|0,0:0|0:0,0:0:0:0:
372,80,246764,6,0,B|400:136|400:136|376:224,1,135,2|0,0:0|0:0,0:0:0:0:
380,205,247097,2,0,L|280:176,1,90
104,120,247430,2,0,L|200:152,1,90,2|0,0:0|0:0,0:0:0:0:
220,160,247680,1,0,0:0:0:0:
220,160,247764,1,2,0:0:0:0:
144,264,247930,5,0,0:0:0:0:
136,244,248014,1,0,0:0:0:0:
128,224,248097,1,2,0:0:0:0:
250,53,248263,5,0,0:0:0:0:
258,73,248347,1,0,0:0:0:0:
266,93,248430,2,0,L|302:209,2,90,0|0|2,0:0|0:0|0:0,0:0:0:0:
152,184,248930,1,0,0:0:0:0:
236,288,249097,5,2,0:0:0:0:
236,288,249180,1,0,0:0:0:0:
284,184,249347,1,0,0:0:0:0:
284,184,249430,2,0,L|328:56,1,135,2|0,0:0|0:0,0:0:0:0:
413,82,249764,2,0,L|309:50,1,90
128,84,250097,2,0,L|232:116,2,90,0|0|2,0:0|0:0|0:0,0:0:0:0:
116,104,250514,5,0,0:0:0:0:
104,124,250597,1,0,0:0:0:0:
92,144,250680,1,0,0:0:0:0:
80,164,250764,2,0,L|40:224,1,45,2|0,0:0|0:0,0:0:0:0:
132,228,250930,2,0,L|156:288,1,45
80,292,251097,2,0,L|40:352,1,45
136,340,251264,2,0,L|160:400,1,45
232,240,251430,5,2,0:0:0:0:
252,232,251514,1,0,0:0:0:0:
272,224,251597,1,0,0:0:0:0:
292,216,251680,1,0,0:0:0:0:
312,208,251764,2,0,P|360:200|432:204,1,90,2|0,0:0|0:0,0:0:0:0:
216,160,252097,5,2,0:0:0:0:
280,28,252264,1,0,0:0:0:0:
280,232,252430,1,2,0:0:0:0:
212,80,252597,1,0,0:0:0:0:
376,240,252764,1,2,0:0:0:0:
380,108,252930,1,0,0:0:0:0:
196,296,253097,1,2,0:0:0:0:
196,160,253264,1,0,0:0:0:0:
288,108,253430,5,2,0:0:0:0:
420,108,253597,1,0,0:0:0:0:
260,232,253764,1,2,0:0:0:0:
456,232,253930,1,0,0:0:0:0:
232,72,254097,1,2,0:0:0:0:
476,72,254264,1,0,0:0:0:0:
232,232,254430,1,2,0:0:0:0:
476,232,254597,1,0,0:0:0:0:
368,256,254764,6,0,L|428:288,3,45,2|0|0|0,0:0|0:0|0:0|0:0,0:0:0:0:
352,248,255097,1,2,0:0:0:0:
332,236,255180,1,0,0:0:0:0:
312,224,255264,1,0,0:0:0:0:
292,212,255347,1,0,0:0:0:0:
272,200,255430,5,2,0:0:0:0:
280,180,255514,1,0,0:0:0:0:
288,160,255597,1,0,0:0:0:0:
296,140,255680,1,0,0:0:0:0:
304,120,255764,5,2,0:0:0:0:
292,104,255847,1,0,0:0:0:0:
280,88,255930,1,0,0:0:0:0:
268,72,256014,1,0,0:0:0:0:
256,56,256097,1,2,0:0:0:0:
256,56,256764,6,0,P|196:68|148:160,1,135
228,136,257097,2,0,P|256:188|352:184,1,135
396,152,257430,6,0,B|344:172|344:172|320:288,1,148.50000453186,4|0,0:0|0:0,0:0:0:0:
312,336,257764,1,0,0:0:0:0:
132,216,257930,1,0,0:0:0:0:
204,312,258097,1,0,0:0:0:0:
240,200,258264,2,0,L|280:96,1,99.0000030212403
408,152,258597,5,0,0:0:0:0:
364,272,258764,2,0,P|304:280|252:260,1,99.0000030212403
184,128,259097,2,0,P|248:120|288:136,1,99.0000030212403
100,248,259430,2,0,B|72:192|72:192|76:88,1,148.50000453186
75,106,259764,1,0,0:0:0:0:
160,32,259930,5,0,0:0:0:0:
160,32,260014,1,0,0:0:0:0:
160,32,260097,2,0,L|264:72,1,99.0000030212403,4|0,0:0|0:0,0:0:0:0:
388,168,260430,2,0,L|280:132,1,99.0000030212403
176,200,260764,2,0,L|280:240,1,99.0000030212403
404,332,261097,2,0,L|296:296,1,99.0000030212403
196,332,261430,5,0,0:0:0:0:
256,156,261597,1,0,0:0:0:0:
256,156,261764,1,0,0:0:0:0:
336,200,261930,2,0,P|396:208|448:196,1,99.0000030212403
176,200,262264,2,0,P|116:208|64:196,2,99.0000030212403
256,88,262764,2,0,B|284:64|284:64|300:44|300:44|348:64|328:132,1,148.50000453186,4|0,0:0|0:0,0:0:0:0:
331,115,263097,5,0,0:0:0:0:
296,252,263264,1,0,0:0:0:0:
444,216,263430,1,0,0:0:0:0:
416,352,263597,2,0,L|364:244,1,99.0000030212403
304,56,263930,1,0,0:0:0:0:
232,152,264097,1,0,0:0:0:0:
136,96,264264,1,0,0:0:0:0:
36,160,264430,1,0,0:0:0:0:
88,268,264597,2,0,B|144:248|144:248|240:264,1,148.50000453186
231,262,264930,5,0,0:0:0:0:
360,96,265097,1,0,0:0:0:0:
360,96,265430,2,0,L|280:24,1,99.0000030212403,4|0,0:0|0:0,0:0:0:0:
132,184,265764,2,0,L|212:112,1,99.0000030212403
336,272,266097,2,0,L|324:160,1,99.0000030212403
176,344,266430,2,0,L|188:232,1,99.0000030212403
288,100,266764,5,0,0:0:0:0:
336,272,266930,1,0,0:0:0:0:
436,176,267097,1,0,0:0:0:0:
186,245,267264,1,0,0:0:0:0:
186,245,267597,5,0,0:0:0:0:
388,232,267764,1,0,0:0:0:0:
176,100,267930,1,0,0:0:0:0:
352,148,268097,2,0,P|412:128|340:56,1,198.000006042481,4|0,0:0|0:0,0:0:0:0:
176,100,268597,1,0,0:0:0:0:
128,252,268764,2,0,P|152:316|224:240,1,198.000006042481
232,164,269264,5,0,0:0:0:0:
380,240,269430,1,0,0:0:0:0:
392,124,269597,1,0,0:0:0:0:
324,328,269764,1,0,0:0:0:0:
320,172,269930,2,0,P|324:92|336:32,2,99.0000030212403
152,320,270430,2,0,P|232:316|292:304,1,99.0000030212403
428,224,270764,6,0,P|348:228|288:240,1,99.0000030212403,4|0,0:0|0:0,0:0:0:0:
84,160,271097,2,0,P|164:156|224:144,1,99.0000030212403
428,68,271430,2,0,P|348:72|288:84,2,99.0000030212403
468,196,271930,1,0,0:0:0:0:
264,288,272097,5,0,0:0:0:0:
468,196,272264,1,0,0:0:0:0:
300,196,272430,1,0,0:0:0:0:
200,60,272597,2,0,P|272:44|352:76,1,148.50000453186
340,67,272930,1,0,0:0:0:0:
236,160,273097,2,0,P|172:168|124:160,1,99.0000030212403
40,288,273430,6,0,P|100:296|148:288,1,99.0000030212403,4|0,0:0|0:0,0:0:0:0:
264,204,273764,1,0,0:0:0:0:
204,68,273930,1,0,0:0:0:0:
344,16,274097,2,0,P|384:56|396:124,1,99.0000030212403
344,248,274430,1,0,0:0:0:0:
480,308,274597,1,0,0:0:0:0:
388,168,274764,2,0,P|304:168|248:192,1,99.0000030212403
124,216,275097,6,0,P|196:220|240:212,2,99.0000030212403
44,68,275597,1,0,0:0:0:0:
124,216,275764,1,0,0:0:0:0:
204,112,275930,1,0,0:0:0:0:
332,64,276097,5,0,0:0:0:0:
368,76,276180,1,0,0:0:0:0:
396,104,276264,1,0,0:0:0:0:
416,140,276347,1,0,0:0:0:0:
420,180,276430,1,0,0:0:0:0:
412,220,276514,1,0,0:0:0:0:
384,248,276597,1,0,0:0:0:0:
348,260,276680,1,0,0:0:0:0:
308,260,276764,5,0,0:0:0:0:
272,244,276847,1,0,0:0:0:0:
256,208,276930,1,0,0:0:0:0:
268,168,277014,1,0,0:0:0:0:
276,128,277097,1,0,0:0:0:0:
272,88,277180,1,0,0:0:0:0:
256,52,277264,1,0,0:0:0:0:
224,28,277347,1,0,0:0:0:0:
184,24,277430,6,0,L|116:24,8,49.5000015106202,2|0|0|0|0|0|0|0|2,0:0|0:0|0:0|0:0|0:0|0:0|0:0|0:0|0:0,0:0:0:0:
232,24,278180,1,0,0:0:0:0:
280,32,278264,1,0,0:0:0:0:
320,60,278347,1,0,0:0:0:0:
352,100,278430,2,0,B|364:132|364:132|352:144|352:144|364:168|364:168|352:188,1,80.9999975280763
362,170,278764,6,0,P|280:160|244:172,1,107.999996704102,4|0,0:0|0:0,0:0:0:0:
312,280,279097,1,0,0:0:0:0:
176,148,279264,1,0,0:0:0:0:
116,340,279430,2,0,P|184:344|236:332,1,107.999996704102,2|0,0:0|0:0,0:0:0:0:
176,148,279764,1,0,0:0:0:0:
60,224,279930,1,0,0:0:0:0:
344,160,280097,6,0,P|360:104|332:44,1,107.999996704102,2|0,0:0|0:0,0:0:0:0:
264,232,280430,1,0,0:0:0:0:
416,196,280597,1,0,0:0:0:0:
124,196,280764,1,0,0:0:0:0:
108,232,280847,1,0,0:0:0:0:
104,268,280930,1,2,0:0:0:0:
108,304,281014,1,0,0:0:0:0:
124,340,281097,2,0,P|188:328|236:340,1,107.999996704102,2|0,0:0|0:0,0:0:0:0:
320,352,281430,5,2,0:0:0:0:
256,192,281597,1,0,0:0:0:0:
229,337,281764,1,0,0:0:0:0:
396,168,281930,1,0,0:0:0:0:
396,168,282014,1,0,0:0:0:0:
396,168,282097,1,2,0:0:0:0:
192,184,282264,1,0,0:0:0:0:
352,208,282430,1,0,0:0:0:0:
144,224,282597,1,0,0:0:0:0:
236,328,282764,5,2,0:0:0:0:
220,120,282930,1,0,0:0:0:0:
220,120,283014,1,0,0:0:0:0:
220,120,283097,1,2,0:0:0:0:
160,224,283264,1,2,0:0:0:0:
352,112,283430,1,0,0:0:0:0:
420,228,283597,1,0,0:0:0:0:
420,228,283680,1,0,0:0:0:0:
420,228,283764,1,2,0:0:0:0:
264,100,283930,1,2,0:0:0:0:
124,228,284097,6,0,P|180:192|232:192,1,107.999996704102,2|0,0:0|0:0,0:0:0:0:
120,96,284430,1,0,0:0:0:0:
196,272,284597,1,0,0:0:0:0:
240,104,284764,1,2,0:0:0:0:
240,340,284930,1,0,0:0:0:0:
372,208,285097,1,0,0:0:0:0:
280,56,285264,1,0,0:0:0:0:
280,56,285347,1,0,0:0:0:0:
280,56,285430,6,0,P|292:120|272:176,1,107.999996704102,2|0,0:0|0:0,0:0:0:0:
152,104,285764,1,2,0:0:0:0:
384,100,285930,1,2,0:0:0:0:
224,240,286097,1,0,0:0:0:0:
152,104,286264,1,0,0:0:0:0:
80,296,286430,2,0,P|152:304|196:300,1,107.999996704102,2|0,0:0|0:0,0:0:0:0:
416,224,286764,6,0,P|328:224|288:240,1,107.999996704102,2|0,0:0|0:0,0:0:0:0:
187,301,287098,1,0,0:0:0:0:
248,96,287264,1,0,0:0:0:0:
36,224,287430,6,0,P|124:224|164:240,1,107.999996704102,2|0,0:0|0:0,0:0:0:0:
312,268,287764,1,0,0:0:0:0:
204,96,287930,1,0,0:0:0:0:
216,348,288097,5,2,0:0:0:0:
142,229,288264,1,0,0:0:0:0:
356,232,288430,1,0,0:0:0:0:
284,320,288597,1,2,0:0:0:0:
284,320,288930,1,2,0:0:0:0:
328,88,289096,1,0,0:0:0:0:
400,212,289263,1,2,0:0:0:0:
172,144,289430,6,0,P|156:196|176:264,1,107.999996704102,2|0,0:0|0:0,0:0:0:0:
336,192,289764,1,0,0:0:0:0:
252,300,289930,1,0,0:0:0:0:
292,324,290014,1,0,0:0:0:0:
340,328,290097,1,2,0:0:0:0:
388,316,290180,1,0,0:0:0:0:
424,284,290264,1,0,0:0:0:0:
332,116,290430,1,0,0:0:0:0:
484,48,290597,1,0,0:0:0:0:
376,232,290764,6,0,P|328:256|284:220,1,107.999996704102,2|0,0:0|0:0,0:0:0:0:
244,100,291097,1,0,0:0:0:0:
404,60,291264,1,0,0:0:0:0:
456,68,291347,1,0,0:0:0:0:
492,108,291430,1,2,0:0:0:0:
492,164,291514,1,0,0:0:0:0:
456,204,291597,1,0,0:0:0:0:
248,148,291764,1,0,0:0:0:0:
292,8,291930,1,0,0:0:0:0:
328,160,292097,5,2,0:0:0:0:
240,80,292264,1,0,0:0:0:0:
240,80,292347,1,0,0:0:0:0:
240,80,292430,1,0,0:0:0:0:
116,120,292597,1,0,0:0:0:0:
360,280,292764,5,2,0:0:0:0:
272,200,292931,1,0,0:0:0:0:
272,200,293014,1,0,0:0:0:0:
272,200,293097,1,0,0:0:0:0:
148,240,293264,1,0,0:0:0:0:
440,244,293430,5,2,0:0:0:0:
248,356,293597,1,2,0:0:0:0:
380,352,293764,1,0,0:0:0:0:
376,144,293930,1,2,0:0:0:0:
368,128,294014,1,0,0:0:0:0:
360,116,294097,1,0,0:0:0:0:
344,108,294180,1,0,0:0:0:0:
328,108,294264,1,0,0:0:0:0:
344,264,294430,1,2,0:0:0:0:
184,96,294597,1,0,0:0:0:0:
220,380,294764,5,2,0:0:0:0:
220,380,295097,1,0,0:0:0:0:
220,148,295264,1,0,0:0:0:0:
340,240,295430,1,0,0:0:0:0:
152,292,295597,1,0,0:0:0:0:
152,292,295680,1,0,0:0:0:0:
152,292,295764,1,0,0:0:0:0:
152,56,295930,1,0,0:0:0:0:
240,224,296097,5,2,0:0:0:0:
116,172,296264,1,0,0:0:0:0:
116,172,296347,1,0,0:0:0:0:
116,172,296430,1,0,0:0:0:0:
408,168,296597,1,2,0:0:0:0:
280,224,296764,1,0,0:0:0:0:
268,24,296930,2,0,P|300:80|320:140,1,107.999996704102,2|0,0:0|0:0,0:0:0:0:
200,112,297264,1,0,0:0:0:0:
376,276,297430,5,2,0:0:0:0:
376,276,297764,1,0,0:0:0:0:
336,104,297930,1,0,0:0:0:0:
296,232,298097,1,2,0:0:0:0:
416,144,298264,1,0,0:0:0:0:
216,204,298430,1,0,0:0:0:0:
416,144,298596,1,0,0:0:0:0:
136,160,298763,5,2,0:0:0:0:
280,336,298930,1,0,0:0:0:0:
32,268,299097,5,2,0:0:0:0:
116,40,299264,2,0,P|192:32|256:48,1,107.999996704102,8|0,0:0|0:0,0:0:0:0:
256,44,299514,1,0,0:0:0:0:
280,56,299597,1,0,0:0:0:0:
104,216,299764,2,0,P|108:140|144:92,1,107.999996704102,8|0,0:0|0:0,0:0:0:0:
176,272,300097,2,0,B|208:252|208:252|228:268|228:268|260:256|260:256|272:264|288:268,1,108
269,261,300430,6,0,B|304:260|320:228|320:228|316:176,1,107.999996704102,4|2,0:0|0:0,0:0:0:0:
300,68,300764,1,0,0:0:0:0:
420,172,300930,1,0,0:0:0:0:
440,188,301014,1,0,0:0:0:0:
460,204,301097,1,8,0:0:0:0:
232,160,301264,1,0,0:0:0:0:
288,324,301430,2,0,L|312:216,1,107.999996704102,2|0,0:0|0:0,0:0:0:0:
336,72,301764,5,0,0:0:0:0:
284,56,301847,1,0,0:0:0:0:
232,56,301930,1,2,0:0:0:0:
180,68,302014,1,0,0:0:0:0:
140,104,302097,1,0,0:0:0:0:
284,160,302264,6,0,P|352:192|376:232,2,107.999996704102,0|8|0,0:0|0:0|0:0,0:0:0:0:
104,312,302764,2,0,P|40:296|-4:236,2,107.999996704102,2|0|8,0:0|0:0|0:0,0:0:0:0:
156,296,303180,1,0,0:0:0:0:
212,292,303264,1,0,0:0:0:0:
264,308,303347,1,0,0:0:0:0:
316,316,303430,1,0,0:0:0:0:
336,148,303597,5,2,0:0:0:0:
192,176,303764,2,0,P|116:192|68:236,1,107.999996704102,8|0,0:0|0:0,0:0:0:0:
172,44,304097,2,0,P|208:104|248:104,1,107.999996704102,2|0,0:0|0:0,0:0:0:0:
288,80,304347,1,0,0:0:0:0:
340,68,304430,2,0,P|400:64|416:72,1,53.9999983520508
320,208,304597,2,0,P|276:208|248:196,1,53.9999983520508,2|0,0:0|0:0,0:0:0:0:
180,156,304764,5,0,0:0:0:0:
168,208,304847,1,0,0:0:0:0:
176,260,304930,1,0,0:0:0:0:
216,296,305014,1,0,0:0:0:0:
268,304,305097,2,0,P|332:296|384:308,1,107.999996704102,8|0,0:0|0:0,0:0:0:0:
472,348,305430,5,4,0:0:0:0:
468,336,305764,2,0,L|444:208,1,107.999996704102,0|2,0:0|0:0,0:0:0:0:
424,60,306097,1,0,0:0:0:0:
400,72,306180,1,0,0:0:0:0:
376,88,306264,1,2,0:0:0:0:
248,252,306430,1,8,0:0:0:0:
224,236,306514,1,0,0:0:0:0:
200,220,306597,1,0,0:0:0:0:
100,68,306764,6,0,P|176:96|228:136,1,107.999996704102,2|0,0:0|0:0,0:0:0:0:
312,88,307097,1,0,0:0:0:0:
332,272,307264,1,2,0:0:0:0:
332,272,307597,1,0,0:0:0:0:
200,168,307764,1,8,0:0:0:0:
408,140,307930,1,0,0:0:0:0:
288,48,308097,2,0,P|228:52|156:84,1,107.999996704102,4|0,0:0|0:0,0:0:0:0:
160,80,308347,1,0,0:0:0:0:
140,100,308430,1,8,0:0:0:0:
132,208,308597,5,0,0:0:0:0:
136,236,308680,1,0,0:0:0:0:
140,264,308764,1,2,0:0:0:0:
144,292,308847,1,0,0:0:0:0:
148,320,308930,1,0,0:0:0:0:
256,224,309097,1,2,0:0:0:0:
296,84,309264,5,0,0:0:0:0:
348,72,309347,1,0,0:0:0:0:
400,88,309430,2,0,B|424:132|424:132|416:200,1,107.999996704102,2|0,0:0|0:0,0:0:0:0:
220,348,309764,2,0,B|196:304|196:304|204:236,1,107.999996704102,8|0,0:0|0:0,0:0:0:0:
216,196,310014,1,0,0:0:0:0:
244,152,310097,2,0,P|236:120|208:104,1,53.9999983520508
120,64,310264,5,0,0:0:0:0:
84,104,310347,1,0,0:0:0:0:
68,156,310430,1,8,0:0:0:0:
64,212,310514,1,0,0:0:0:0:
76,264,310597,2,0,P|104:320|148:348,1,107.999996704102,0|2,0:0|0:0,0:0:0:0:
304,96,311097,5,0,0:0:0:0:
304,96,311264,2,0,L|180:76,1,107.999996704102,2|0,0:0|0:0,0:0:0:0:
284,220,311597,2,0,L|416:188,1,107.999996704102,2|0,0:0|0:0,0:0:0:0:
160,288,311930,2,0,L|44:248,1,107.999996704102,2|0,0:0|0:0,0:0:0:0:
252,364,312264,2,0,L|364:360,1,107.999996704102,2|0,0:0|0:0,0:0:0:0:
432,272,312597,5,2,0:0:0:0:
432,272,312680,1,0,0:0:0:0:
432,272,312764,1,0,0:0:0:0:
316,172,312930,1,2,0:0:0:0:
288,180,313014,1,0,0:0:0:0:
264,196,313097,1,0,0:0:0:0:
244,216,313180,1,0,0:0:0:0:
228,240,313264,1,0,0:0:0:0:
220,264,313347,1,0,0:0:0:0:
220,292,313430,1,2,0:0:0:0:
104,144,313764,5,0,0:0:0:0:
104,144,313930,2,0,L|112:268,1,107.999996704102,2|0,0:0|0:0,0:0:0:0:
408,144,314264,2,0,L|400:268,1,107.999996704102,2|0,0:0|0:0,0:0:0:0:
196,48,314597,2,0,L|200:176,1,107.999996704102,2|0,0:0|0:0,0:0:0:0:
316,48,314930,2,0,L|312:176,1,107.999996704102,2|0,0:0|0:0,0:0:0:0:
372,252,315264,5,2,0:0:0:0:
372,252,315347,1,0,0:0:0:0:
372,252,315430,1,0,0:0:0:0:
220,312,315597,1,2,0:0:0:0:
200,296,315680,1,0,0:0:0:0:
192,272,315764,1,0,0:0:0:0:
196,244,315847,1,0,0:0:0:0:
208,220,315930,1,0,0:0:0:0:
228,204,316014,1,0,0:0:0:0:
252,196,316097,1,2,0:0:0:0:
400,96,316430,5,0,0:0:0:0:
400,96,316597,2,0,L|256:92,1,107.999996704102,2|0,0:0|0:0,0:0:0:0:
92,172,316930,2,0,L|236:176,1,107.999996704102,2|0,0:0|0:0,0:0:0:0:
412,264,317264,2,0,L|268:260,1,107.999996704102,2|0,0:0|0:0,0:0:0:0:
104,336,317597,2,0,L|248:340,1,107.999996704102,2|0,0:0|0:0,0:0:0:0:
256,192,317930,5,2,0:0:0:0:
356,316,318097,1,0,0:0:0:0:
120,188,318264,5,2,0:0:0:0:
352,108,318430,1,0,0:0:0:0:
220,280,318597,5,0,0:0:0:0:
264,48,318764,1,2,0:0:0:0:
324,216,318930,5,0,0:0:0:0:
140,136,319097,1,0,0:0:0:0:
348,120,319264,1,2,0:0:0:0:
220,252,319430,5,0,0:0:0:0:
160,76,319597,1,2,0:0:0:0:
324,216,319764,1,0,0:0:0:0:
116,176,319930,5,0,0:0:0:0:
424,244,320097,2,0,B|380:280|380:280|400:332|400:332|324:368|324:368|248:332|248:332|264:280|264:280|228:252,1,377.999988464356
230,253,321430,1,4,0:3:0:0:
144,104,332097,6,0,P|200:88|280:112,1,135
324,184,332930,1,0,0:0:0:0:
400,232,333264,2,0,L|440:140,1,90
356,32,333930,2,0,L|312:132,1,90
212,340,334764,6,0,L|200:188,1,135
192,120,335597,1,0,0:0:0:0:
332,264,335930,2,0,L|428:240,1,90
244,228,336597,2,0,L|148:200,1,90
157,202,337430,5,0,0:0:0:0:
157,202,337930,1,0,0:0:0:0:
256,64,338264,1,0,0:0:0:0:
280,192,338597,1,0,0:0:0:0:
364,220,338930,1,0,0:0:0:0:
452,192,339264,1,0,0:0:0:0:
488,108,339597,1,0,0:0:0:0:
355,182,340097,5,0,0:0:0:0:
355,182,340597,1,0,0:0:0:0:
256,320,340931,1,0,0:0:0:0:
232,192,341264,1,0,0:0:0:0:
148,164,341597,1,0,0:0:0:0:
60,192,341931,1,0,0:0:0:0:
24,276,342264,1,0,0:0:0:0:
224,308,342764,5,0,0:0:0:0:
280,224,342930,2,0,L|308:184,2,31.4999990386963
224,308,343264,1,0,0:0:0:0:
300,332,343430,1,0,0:0:0:0:
372,296,343597,1,0,0:0:0:0:
372,296,343930,5,0,0:0:0:0:
316,236,344096,1,0,0:0:0:0:
304,156,344263,1,0,0:0:0:0:
328,76,344430,1,0,0:0:0:0:
388,20,344596,1,0,0:0:0:0:
388,20,344930,5,0,0:0:0:0:
308,36,345096,1,0,0:0:0:0:
228,40,345263,1,0,0:0:0:0:
148,20,345430,1,0,0:0:0:0:
168,192,345597,1,0,0:0:0:0:
168,192,345930,5,0,0:0:0:0:
236,148,346097,1,0,0:0:0:0:
308,188,346264,1,0,0:0:0:0:
308,188,346597,5,0,0:0:0:0:
260,256,346764,1,0,0:0:0:0:
304,188,346930,1,0,0:0:0:0:
260,256,347097,1,0,0:0:0:0:
308,188,347264,1,0,0:0:0:0:
308,188,347597,5,0,0:0:0:0:
380,152,347764,1,0,0:0:0:0:
460,168,347931,1,0,0:0:0:0:
508,236,348097,1,0,0:0:0:0:
500,316,348264,1,0,0:0:0:0:
500,316,348597,5,0,0:0:0:0:
424,284,348764,1,0,0:0:0:0:
348,316,348931,1,0,0:0:0:0:
384,204,349264,5,0,0:0:0:0:
308,172,349431,1,0,0:0:0:0:
232,204,349598,1,0,0:0:0:0:
196,276,349764,1,0,0:0:0:0:
120,304,349930,1,0,0:0:0:0:
120,304,350264,5,0,0:0:0:0:
196,276,350431,1,0,0:0:0:0:
224,200,350597,1,0,0:0:0:0:
204,120,350764,1,0,0:0:0:0:
240,48,350930,1,0,0:0:0:0:
332,252,351264,5,0,0:0:0:0:
312,172,351431,1,0,0:0:0:0:
348,100,351597,1,0,0:0:0:0:
444,296,351930,5,0,0:0:0:0:
424,216,352097,1,0,0:0:0:0:
460,144,352263,1,0,0:0:0:0:
380,156,352430,1,0,0:0:0:0:
300,140,352597,1,0,0:0:0:0:
300,140,352930,5,0,0:0:0:0:
228,100,353096,1,0,0:0:0:0:
148,112,353263,1,0,0:0:0:0:
168,292,353430,1,0,0:0:0:0:
168,292,353596,1,0,0:0:0:0:
228,80,353930,5,0,0:0:0:0:
328,144,354097,1,0,0:0:0:0:
328,144,354264,1,0,0:0:0:0:
360,192,354597,5,0,0:0:0:0:
260,264,354764,1,0,0:0:0:0:
260,264,354931,1,0,0:0:0:0:
260,264,355097,1,0,0:0:0:0:
260,264,355264,1,0,0:0:0:0:
204,120,355597,5,0,0:0:0:0:
204,120,355763,1,0,0:0:0:0:
204,120,355930,1,0,0:0:0:0:
204,120,356097,1,0,0:0:0:0:
288,236,356264,1,0,0:0:0:0:
320,68,356597,5,0,0:0:0:0:
264,160,356764,1,0,0:0:0:0:
264,160,356930,1,0,0:0:0:0:
264,160,357264,5,0,0:0:0:0:
380,224,357430,1,0,0:0:0:0:
380,224,357597,1,0,0:0:0:0:
380,224,357764,1,0,0:0:0:0:
380,224,357930,1,0,0:0:0:0:
120,284,358264,5,0,0:0:0:0:
116,204,358430,1,0,0:0:0:0:
112,124,358597,1,0,0:0:0:0:
112,40,358764,1,0,0:0:0:0:
112,40,358930,1,0,0:0:0:0:
112,40,359264,5,0,0:0:0:0:
200,132,359430,1,0,0:0:0:0:
200,132,359597,1,0,0:0:0:0:
288,56,359930,5,0,0:0:0:0:
384,176,360097,1,0,0:0:0:0:
384,176,360264,1,0,0:0:0:0:
384,176,360430,1,0,0:0:0:0:
384,176,360597,1,0,0:0:0:0:
384,176,360930,1,0,0:0:0:0:
256,192,361430,12,0,364097,0:0:0:0:
