osu file format v5

[General]
AudioFilename: Distorted Pain_Full.mp3
AudioLeadIn: 0
PreviewTime: -1
Countdown: 0
SampleSet: Normal
StackLeniency: 0.7
Mode: 0
LetterboxInBreaks: 1
EditorBookmarks: 42100,114850,127600,200350,237100,297100

[Metadata]
Title:Distorted Pain
Artist:KAREN
Creator:Derp
Version:Hard
Source:Gore Screaming Show
Tags:Distorted Pain KAREN Gore Screaming Show OP Japanese Visual Novel H Game

[Difficulty]
HPDrainRate:6
CircleSize:5
OverallDifficulty:5
SliderMultiplier:1.4
SliderTickRate:1

[Events]
//Background and Video events
1,0,"Distorted Pain.avi"
//Break Periods
//Storyboard Layer 0 (Background)
//Storyboard Layer 1 (Failing)
//Storyboard Layer 2 (Passing)
//Storyboard Layer 3 (Foreground)
//Storyboard Sound Samples
//Background Colour Transformations
3,100,0,0,0

[TimingPoints]
24100,375,4,1,0,100,1
66100,375,4,2,0,100,1
79600,375,4,1,0,100,1

[HitObjects]
64,64,42100,1,0
128,128,42381,1,0
192,64,42662,1,0
224,128,42850,1,0
288,64,43600,1,0
352,128,43881,1,0
416,64,44162,1,0
448,128,44350,1,0
384,192,44631,1,0
448,256,44912,1,0
448,320,45100,2,0,B|288:352|96:288,1,350
64,224,46225,1,0
96,128,46600,2,0,B|384:96|384:352|224:320,1,420
128,320,48100,5,0
64,256,48381,1,0
128,192,48662,1,0
96,128,48850,1,0
320,64,49600,1,0
384,128,49881,1,0
416,192,50162,1,0
448,256,50350,1,0
384,320,50631,2,0,B|320:352|256:320,1,105
224,288,51100,2,0,B|416:128|160:64|64:224|160:320,1,420
32,256,52600,2,0,B|32:96|288:96,1,420
256,32,54100,5,0
224,96,54381,1,0
256,160,54662,1,0
224,224,54850,1,0
32,352,55600,1,0
64,288,55881,1,0
32,224,56162,1,0
64,160,56350,1,0
64,64,56631,1,0
160,64,56912,1,0
224,64,57100,2,0,B|448:64|448:192|256:192,1,350
256,128,58225,1,0
160,96,58600,2,0,B|32:96|32:352|288:352,1,420
416,352,60100,5,0
384,288,60381,1,0
416,224,60662,1,0
448,160,60850,1,0
320,352,61600,1,0
288,288,61881,1,0
320,224,62162,1,0
352,160,62350,1,0
384,96,62631,1,0
320,32,62912,1,0
256,32,63100,2,0,B|32:32|32:256,1,350
32,320,64225,1,0
144,320,64600,2,0,B|456:280|328:40,1,420
216,32,66100,6,0,B|0:0|32:224,1,315
32,288,67225,1,0
32,352,67412,2,0,B|256:352,1,210
352,352,68350,2,0,B|512:352,1,140
480,224,69100,2,0,B|512:0|320:32,1,280
224,32,70225,1,0
160,32,70412,2,0,B|128:192|352:96|384:256,1,350
448,320,72100,6,0,B|320:384|160:320,1,280
96,256,73225,1,0
64,192,73412,2,0,B|0:32|128:32,1,210
224,64,74350,1,0
320,32,74725,1,0
416,64,75100,2,0,B|512:224|224:160,1,280
128,160,76225,1,0
96,224,76412,2,0,C|448:256|160:288|448:320,1,910
192,336,79600,5,0
128,280,79881,1,0
88,208,80162,1,0
80,152,80350,2,0,B|80:16|152:128,1,140
192,224,81100,1,0
240,288,81381,1,0
312,328,81662,1,0
368,320,81850,1,0
432,264,82131,2,0,B|496:224|432:176,1,105
440,120,82600,2,0,B|312:8|152:48,1,280
104,64,83631,1,0
56,136,83912,1,0
40,192,84100,1,0
104,240,84381,1,0
176,200,84662,1,0
216,160,84850,1,0
32,32,85600,5,0
112,32,85881,1,0
192,32,86162,1,0
248,32,86350,1,0
480,32,87100,1,0
392,32,87381,1,0
304,32,87662,1,0
248,32,87850,1,0
40,136,88600,1,0
120,136,88881,1,0
200,136,89162,1,0
256,136,89350,1,0
336,136,89631,1,0
416,136,89912,1,0
416,192,90100,1,0
416,272,90381,1,0
328,272,90662,1,0
272,272,90850,1,0
128,104,91600,5,0
208,104,91881,1,0
288,104,92162,1,0
320,144,92350,1,0
456,320,93100,2,0,B|384:232,1,105
304,240,93662,2,0,B,1,70
152,240,94131,2,0,B|40:240,1,105
48,184,94600,2,0,B|24:72|184:0|328:0|464:80|440:192,1,560
360,184,96381,1,0
272,184,96662,1,0
216,184,96850,1,0
