osu file format v13

[General]
AudioFilename: Kara Guilty.mp3
AudioLeadIn: 0
PreviewTime: 55445
Countdown: 1
SampleSet: Normal
StackLeniency: 0.7
Mode: 0
LetterboxInBreaks: 1
WidescreenStoryboard: 0

[Editor]
Bookmarks: 206249
DistanceSpacing: 1.8
BeatDivisor: 4
GridSize: 4
TimelineZoom: 1

[Metadata]
Title:Guilty
TitleUnicode:길티
Artist:KARA Seung Yeon
ArtistUnicode:카라 한승연
Creator:K1dPoker
Version:Hard
Source:Kara Collection
Tags:kpop k-pop
BeatmapID:566476
BeatmapSetID:245846

[Difficulty]
HPDrainRate:7
CircleSize:4
OverallDifficulty:8
ApproachRate:8
SliderMultiplier:2
SliderTickRate:2

[Events]
//Background and Video events
0,0,"bg.jpg",0,0
Video,0,"KARA Seung Yeon - Guilty.avi"
//Break Periods
2,77342,85499
2,150199,158356
//Storyboard Layer 0 (Background)
//Storyboard Layer 1 (Fail)
//Storyboard Layer 2 (Pass)
//Storyboard Layer 3 (Foreground)
//Storyboard Sound Samples

[TimingPoints]
535,535.714285714286,4,1,0,40,1,0
56249,-100,4,1,0,60,0,1
77142,-100,4,1,0,40,0,0
129106,-100,4,1,0,60,0,1
149999,-100,4,1,0,40,0,0
167677,-100,4,1,0,75,0,1
197142,-100,4,1,0,40,0,0

[Colours]
Combo1 : 217,0,108
Combo2 : 128,0,128
Combo3 : 151,0,75
Combo4 : 174,0,174

[HitObjects]
256,108,535,6,0,P|304:92|340:56,2,100,0|0|0,0:0|0:0|0:0,0:0:0:0:
144,64,1338,2,0,P|64:120|64:216,1,200
116,324,2142,1,0,0:0:0:0:
332,224,2677,2,0,P|288:196|240:196,1,100
256,316,3213,1,0,0:0:0:0:
372,344,3481,2,0,P|456:296|456:200,1,200
376,112,4285,1,0,0:0:0:0:
152,192,4820,1,0,0:0:0:0:
36,156,5088,1,0,0:0:0:0:
36,36,5356,2,0,P|84:28|132:44,1,100
256,252,6160,1,0,0:0:0:0:
360,192,6427,1,0,0:0:0:0:
476,224,6695,2,0,P|476:276|448:312,1,100
332,344,7231,1,0,0:0:0:0:
256,252,7499,2,0,P|208:264|160:252,1,100
44,44,8302,1,0,0:0:0:0:
92,152,8570,1,0,0:0:0:0:
200,100,8838,2,0,P|248:84|296:88,1,100
336,200,9374,2,0,P|380:176|408:132,1,100
448,248,9910,2,0,L|428:348,1,100
308,344,10445,1,0,0:0:0:0:
204,344,10713,1,0,0:0:0:0:
256,236,10981,2,0,B|280:188|232:188|256:140,1,100
304,32,11517,2,0,P|256:16|208:32,1,100,0|0,0:0|0:0,0:0:0:0:
256,140,12052,1,0,0:0:0:0:
144,184,12320,2,0,P|56:144|36:48,1,200
256,140,13392,1,0,0:0:0:0:
368,184,13660,1,0,0:0:0:0:
480,140,13927,2,0,P|428:56|332:48,1,200
256,140,14731,1,0,0:0:0:0:
256,260,14999,1,0,0:0:0:0:
172,348,15267,2,0,P|120:336|88:304,1,100
144,200,15802,1,0,0:0:0:0:
28,164,16070,2,0,P|76:148|112:112,1,100
348,156,16874,1,0,0:0:0:0:
288,260,17142,1,0,0:0:0:0:
360,356,17410,2,0,P|396:320|408:272,1,100
288,260,17945,2,0,L|200:212,1,100
296,136,18481,2,0,P|260:100|244:52,1,100
124,56,19017,1,0,0:0:0:0:
32,132,19285,1,0,0:0:0:0:
32,252,19552,2,0,P|80:252|124:280,1,100
48,372,20088,2,0,P|144:372|216:300,1,200
300,76,21160,1,0,0:0:0:0:
216,160,21427,1,0,0:0:0:0:
256,272,21695,1,0,0:0:0:0:
160,348,21963,1,0,0:0:0:0:
128,348,22097,1,0,0:0:0:0:
100,336,22231,1,0,0:0:0:0:
40,232,22499,1,0,0:0:0:0:
104,132,22767,1,0,0:0:0:0:
104,100,22901,1,0,0:0:0:0:
92,72,23035,2,0,P|128:40|180:36,1,100
256,128,23570,1,0,0:0:0:0:
352,348,24106,1,0,0:0:0:0:
384,348,24240,1,0,0:0:0:0:
412,336,24374,1,0,0:0:0:0:
472,232,24642,1,0,0:0:0:0:
408,132,24910,1,0,0:0:0:0:
408,100,25044,1,0,0:0:0:0:
420,72,25178,2,0,P|384:40|332:36,1,100
256,128,25713,1,0,0:0:0:0:
88,296,26249,2,0,L|52:332,2,50,0|0|0,0:0|0:0|0:0,0:0:0:0:
152,192,26785,1,0,0:0:0:0:
88,88,27052,2,0,L|52:52,2,50,0|0|0,0:0|0:0|0:0,0:0:0:0:
304,192,27856,1,0,0:0:0:0:
64,192,28392,1,0,0:0:0:0:
96,192,28526,1,0,0:0:0:0:
128,192,28660,1,0,0:0:0:0:
216,276,28927,1,0,0:0:0:0:
304,356,29195,1,0,0:0:0:0:
332,352,29329,1,0,0:0:0:0:
360,356,29463,2,0,P|436:296|436:200,1,200
316,184,30267,1,0,0:0:0:0:
196,200,30535,2,0,P|120:140|120:44,1,200
232,88,31338,1,0,0:0:0:0:
344,44,31606,2,0,B|384:44|388:92|428:92,2,100,0|0|0,0:0|0:0|0:0,0:0:0:0:
280,148,32410,1,0,0:0:0:0:
232,256,32677,2,0,P|204:296|160:320,1,100
276,344,33213,2,0,L|376:332,2,100,0|0|0,0:0|0:0|0:0,0:0:0:0:
332,236,34017,1,0,0:0:0:0:
416,148,34285,1,0,0:0:0:0:
300,120,34552,2,0,B|236:104|236:104|212:72,1,100
132,164,35088,2,0,L|72:84,1,100
16,192,35624,2,0,P|36:240|36:288,2,100,0|0|0,0:0|0:0|0:0,0:0:0:0:
132,164,36427,1,0,0:0:0:0:
208,256,36695,1,0,0:0:0:0:
256,144,36963,2,0,P|304:132|352:144,1,100
304,256,37499,1,0,0:0:0:0:
416,304,37767,2,0,P|336:356|256:304,1,200
256,184,38570,1,0,0:0:0:0:
288,68,38838,1,0,0:0:0:0:
172,32,39106,2,0,P|124:32|124:80,1,100
168,184,39642,1,0,0:0:0:0:
48,168,39910,2,0,B|40:252|112:292|112:292|64:312,1,200
180,352,40713,1,0,0:0:0:0:
296,380,40981,1,0,0:0:0:0:
260,264,41249,2,0,L|360:284,1,100
432,188,41785,2,0,L|332:168,1,100
260,72,42321,1,0,0:0:0:0:
380,56,42588,1,0,0:0:0:0:
336,168,42856,1,0,0:0:0:0:
216,188,43123,1,0,0:0:0:0:
144,92,43392,2,0,P|108:128|96:176,1,100
20,268,43927,1,0,0:0:0:0:
20,268,44195,2,0,P|64:292|112:292,1,100,0|0,0:0|0:0,0:0:0:0:
96,172,44731,2,0,P|188:184|232:276,1,200
112,292,45535,1,0,0:0:0:0:
96,172,45802,1,0,0:0:0:0:
196,104,46070,1,0,0:0:0:0:
280,192,46338,2,0,B|360:192|360:88|440:88,1,200
464,208,47142,1,0,0:0:0:0:
456,328,47410,1,0,0:0:0:0:
356,264,47677,1,0,0:0:0:0:
324,264,47811,1,0,0:0:0:0:
296,276,47945,1,0,0:0:0:0:
192,340,48213,1,0,0:0:0:0:
72,340,48481,2,0,L|64:288,1,50
60,260,48749,2,0,P|96:224|108:176,1,100
112,56,49285,1,0,0:0:0:0:
284,220,49820,1,0,0:0:0:0:
296,232,49954,1,0,0:0:0:0:
308,244,50088,1,0,0:0:0:0:
396,328,50356,1,0,0:0:0:0:
480,240,50624,1,0,0:0:0:0:
480,240,50758,1,0,0:0:0:0:
480,240,50892,2,0,P|480:144|408:72,1,200
300,116,51695,1,0,0:0:0:0:
124,156,51963,2,0,P|96:112|96:64,1,100
224,192,52499,1,0,0:0:0:0:
224,232,52633,1,0,0:0:0:0:
204,268,52767,1,0,0:0:0:0:
300,340,53035,2,0,L|400:316,1,100
352,140,53570,2,0,L|328:240,1,100
256,192,54106,12,0,55177,0:0:0:0:
288,284,55445,6,0,P|196:256|164:164,1,200
60,108,56249,2,0,P|108:88|136:48,1,100
256,52,56785,1,0,0:0:0:0:
316,220,57052,2,0,P|296:172|256:144,1,100
200,252,57588,1,0,0:0:0:0:
316,220,57856,1,0,0:0:0:0:
396,308,58124,1,0,0:0:0:0:
476,220,58392,2,0,P|476:124|404:52,1,200
228,64,59195,2,0,P|276:56|316:24,1,100
328,144,59731,1,0,0:0:0:0:
376,256,59999,1,0,0:0:0:0:
256,240,60267,2,0,L|240:340,1,100
140,272,60802,2,0,P|124:224|88:188,1,100
16,92,61338,2,0,L|116:72,1,100
212,144,61874,1,0,0:0:0:0:
256,32,62142,1,0,0:0:0:0:
300,144,62410,2,0,P|348:132|384:96,1,100
256,228,62945,2,0,B|280:276|232:276|256:324,1,100
212,144,63481,2,0,P|164:156|128:192,1,100
68,296,64017,1,0,0:0:0:0:
68,264,64285,1,0,0:0:0:0:
68,236,64552,1,0,0:0:0:0:
184,264,64820,2,0,P|252:332|348:316,1,200
444,244,65624,2,0,L|468:344,1,100
348,316,66160,1,0,0:0:0:0:
332,196,66427,1,0,0:0:0:0:
428,124,66695,1,0,0:0:0:0:
256,172,66963,2,0,P|256:120|280:80,1,100
292,68,67365,1,0,0:0:0:0:
292,68,67499,1,0,0:0:0:0:
176,100,67767,2,0,P|128:120|76:124,1,100
20,20,68302,1,0,0:0:0:0:
80,124,68570,1,0,0:0:0:0:
20,228,68838,2,0,P|40:276|80:304,1,100
256,276,69374,2,0,P|236:228|196:200,1,100
372,160,69910,2,0,P|420:140|448:100,1,100
340,44,70445,1,0,0:0:0:0:
256,128,70713,1,0,0:0:0:0:
208,236,70981,2,0,P|164:212|144:168,1,100
56,328,71517,2,0,L|40:228,1,100
40,108,72052,1,0,0:0:0:0:
144,168,72320,1,0,0:0:0:0:
40,108,72588,1,0,0:0:0:0:
148,52,72856,1,0,0:0:0:0:
252,112,73124,1,0,0:0:0:0:
264,116,73258,1,0,0:0:0:0:
280,116,73392,2,0,P|328:112|372:84,1,100
288,0,73927,1,0,0:0:0:0:
372,84,74195,2,0,P|440:152|408:240,1,200
312,316,74999,1,0,0:0:0:0:
200,272,75267,1,0,0:0:0:0:
256,192,75535,12,0,77142,0:0:0:0:
352,124,86249,5,0,0:0:0:0:
256,192,86517,1,0,0:0:0:0:
136,192,86785,2,0,P|92:168|72:124,1,100,0|0,0:0|0:0,0:0:0:0:
304,68,87588,1,0,0:0:0:0:
184,84,87856,1,0,0:0:0:0:
300,116,88124,2,0,L|400:104,1,100
484,192,88660,1,0,0:0:0:0:
484,220,88793,1,0,0:0:0:0:
476,248,88927,2,0,P|452:292|408:320,1,100
176,272,89731,1,0,0:0:0:0:
268,352,89999,1,0,0:0:0:0:
292,236,90267,2,0,P|276:188|292:140,1,100
400,92,90802,2,0,P|416:140|400:188,1,100
292,140,91338,2,0,P|276:92|292:44,1,100
180,100,91874,1,0,0:0:0:0:
68,52,92142,1,0,0:0:0:0:
28,164,92410,2,0,L|44:264,1,100
132,344,92945,2,0,P|176:320|224:312,1,100
224,311,93481,1,0,0:0:0:0:
464,336,94017,1,0,0:0:0:0:
380,248,94285,1,0,0:0:0:0:
424,136,94552,1,0,0:0:0:0:
304,152,94820,1,0,0:0:0:0:
276,148,94954,1,0,0:0:0:0:
252,132,95088,1,0,0:0:0:0:
164,52,95356,1,0,0:0:0:0:
44,52,95624,2,0,L|44:104,1,50
44,132,95892,2,0,P|80:168|96:216,1,100
96,332,96427,1,0,0:0:0:0:
288,188,96963,1,0,0:0:0:0:
316,188,97097,1,0,0:0:0:0:
344,188,97231,1,0,0:0:0:0:
424,280,97499,1,0,0:0:0:0:
320,340,97767,2,0,L|356:376,2,50,0|0|0,0:0|0:0|0:0,0:0:0:0:
152,168,98570,1,0,0:0:0:0:
392,136,99106,1,0,0:0:0:0:
392,168,99240,1,0,0:0:0:0:
380,196,99374,1,0,0:0:0:0:
260,196,99642,2,0,P|236:240|236:288,1,100
236,288,100043,1,0,0:0:0:0:
236,288,100177,1,0,0:0:0:0:
336,352,100445,1,0,0:0:0:0:
336,352,100713,1,0,0:0:0:0:
96,348,101249,1,0,0:0:0:0:
96,348,101383,1,0,0:0:0:0:
96,348,101517,2,0,P|60:312|48:264,1,100
48,144,102052,1,0,0:0:0:0:
60,156,102186,1,0,0:0:0:0:
72,164,102320,2,0,P|168:176|236:108,1,200
440,220,103392,2,0,P|344:208|276:276,1,200
184,352,104195,1,0,0:0:0:0:
184,352,104463,2,0,P|168:304|140:264,2,100,0|0|0,0:0|0:0|0:0,0:0:0:0:
64,356,105267,1,0,0:0:0:0:
20,244,105535,2,0,L|36:140,1,100
136,212,106070,2,0,L|188:120,1,100
185,124,106606,1,0,0:0:0:0:
256,220,106874,1,0,0:0:0:0:
376,220,107142,1,0,0:0:0:0:
440,120,107410,2,0,P|420:72|380:40,1,100
304,132,107945,2,0,P|256:148|208:132,2,100,0|0|0,0:0|0:0|0:0,0:0:0:0:
256,244,108749,1,0,0:0:0:0:
188,344,109017,1,0,0:0:0:0:
68,324,109285,1,0,0:0:0:0:
24,212,109552,2,0,P|60:176|76:124,1,100
24,20,110088,1,0,0:0:0:0:
144,32,110356,1,0,0:0:0:0:
196,140,110624,2,0,P|264:208|360:192,1,200
360,72,111427,1,0,0:0:0:0:
464,132,111695,1,0,0:0:0:0:
464,132,111963,2,0,L|472:232,1,100
480,352,112499,1,0,0:0:0:0:
372,296,112767,1,0,0:0:0:0:
256,332,113035,2,0,B|172:332|172:236|88:236,1,200
76,356,113838,1,0,0:0:0:0:
172,284,114106,2,0,L|188:236,1,50
168,180,114374,2,0,L|212:148,1,50
232,96,114642,2,0,L|288:96,2,50,0|0|0,0:0|0:0|0:0,0:0:0:0:
112,96,115177,1,0,0:0:0:0:
112,96,115445,1,0,0:0:0:0:
28,180,115713,2,0,P|48:272|140:304,1,200
256,268,116517,1,0,0:0:0:0:
372,304,116785,2,0,P|464:272|484:180,1,200
400,96,117588,1,0,0:0:0:0:
324,188,117856,1,0,0:0:0:0:
212,148,118124,2,0,L|180:52,1,100
96,136,118660,2,0,P|84:188|56:224,1,100
40,344,119195,2,0,P|140:344|208:276,1,200
256,168,119999,1,0,0:0:0:0:
196,64,120267,1,0,0:0:0:0:
316,64,120535,1,0,0:0:0:0:
316,64,120668,1,0,0:0:0:0:
316,64,120802,1,0,0:0:0:0:
256,168,121070,1,0,0:0:0:0:
372,192,121338,2,0,L|424:184,1,50
448,168,121606,2,0,P|440:216|452:268,1,100
376,360,122142,1,0,0:0:0:0:
184,216,122677,2,0,L|132:224,2,50,0|0|0,0:0|0:0|0:0,0:0:0:0:
256,120,123213,1,0,0:0:0:0:
256,240,123481,1,0,0:0:0:0:
256,272,123615,1,0,0:0:0:0:
256,300,123749,2,0,P|336:352|416:300,1,200
472,196,124552,1,0,0:0:0:0:
356,172,124820,2,0,P|316:132|304:88,1,100
144,172,125356,1,0,0:0:0:0:
144,212,125490,1,0,0:0:0:0:
164,248,125624,1,0,0:0:0:0:
244,340,125892,2,0,L|148:368,1,100
280,244,126427,2,0,L|376:216,1,100
256,192,126963,12,0,128035,0:0:0:0:
184,288,128302,5,0,0:0:0:0:
256,192,128570,1,0,0:0:0:0:
256,72,128838,1,0,0:0:0:0:
84,112,129106,2,0,P|100:160|136:192,1,100
256,192,129642,1,0,0:0:0:0:
256,304,129910,2,0,P|288:340|336:356,1,100
456,356,130445,2,0,L|432:256,1,100
332,192,130981,1,0,0:0:0:0:
440,140,131249,2,0,P|372:72|276:88,1,200
208,252,132052,2,0,P|256:232|284:192,1,100
176,136,132588,1,0,0:0:0:0:
92,52,132856,1,0,0:0:0:0:
36,156,133124,2,0,P|72:192|96:236,1,100
72,352,133660,2,0,P|120:364|168:352,1,100
288,352,134195,2,0,P|280:304|248:264,1,100
144,204,134731,1,0,0:0:0:0:
244,136,134999,1,0,0:0:0:0:
268,20,135267,1,0,0:0:0:0:
356,176,135535,2,0,P|400:148|420:104,1,100
244,136,136070,2,0,P|200:164|180:208,2,100,0|0|0,0:0|0:0|0:0,0:0:0:0:
356,176,136874,1,0,0:0:0:0:
388,292,137142,1,0,0:0:0:0:
360,176,137410,1,0,0:0:0:0:
384,292,137677,2,0,B|320:300|320:300|288:320,1,100
172,348,138213,2,0,P|76:332|36:244,1,200
80,136,139017,1,0,0:0:0:0:
156,228,139285,1,0,0:0:0:0:
256,160,139552,1,0,0:0:0:0:
256,280,139820,2,0,P|348:244|376:152,1,200
460,68,140624,2,0,L|472:168,1,100
484,288,141160,1,0,0:0:0:0:
316,348,141427,1,0,0:0:0:0:
196,212,141695,1,0,0:0:0:0:
308,172,141963,2,0,P|332:128|332:76,1,100
220,36,142499,1,0,0:0:0:0:
100,172,142767,2,0,P|148:152|180:112,1,100
256,208,143302,2,0,L|272:308,1,100
388,276,143838,1,0,0:0:0:0:
364,160,144106,2,0,P|292:96|192:108,2,200,0|0|0,0:0|0:0|0:0,0:0:0:0:
256,208,145445,1,0,0:0:0:0:
180,304,145713,1,0,0:0:0:0:
136,192,145981,1,0,0:0:0:0:
60,284,146249,2,0,P|36:240|36:192,1,100
88,84,146785,1,0,0:0:0:0:
136,192,147052,2,0,P|236:192|304:124,1,200
380,32,147856,2,0,P|392:80|420:124,1,100,0|0,0:0|0:0,0:0:0:0:
256,192,148392,12,0,149999,0:0:0:0:
104,192,159106,6,0,P|136:232|180:248,1,100
256,156,159642,1,0,0:0:0:0:
331,248,159910,1,0,0:0:0:0:
331,248,160043,1,0,0:0:0:0:
331,248,160177,2,0,P|376:232|408:192,1,100
484,96,160713,2,0,L|384:76,1,100
224,160,161249,1,0,0:0:0:0:
68,68,161517,1,0,0:0:0:0:
156,224,161785,1,0,0:0:0:0:
56,160,162052,1,0,0:0:0:0:
40,184,162186,1,0,0:0:0:0:
40,212,162320,1,0,0:0:0:0:
88,324,162588,1,0,0:0:0:0:
256,256,162856,2,0,L|220:352,1,100
340,344,163392,2,0,P|368:300|408:272,1,100
496,192,163927,1,0,0:0:0:0:
406,112,164195,1,0,0:0:0:0:
406,112,164329,1,0,0:0:0:0:
406,112,164463,1,0,0:0:0:0:
316,192,164731,1,0,0:0:0:0:
204,144,164999,2,0,P|192:192|204:240,1,100
256,192,165535,12,0,166606,0:0:0:0:
176,284,166874,6,0,P|256:336|336:284,1,200
256,124,167677,2,0,L|256:224,1,100
364,172,168213,1,0,0:0:0:0:
184,172,168481,2,0,P|136:156|108:116,1,100
72,0,169017,1,0,0:0:0:0:
0,88,169285,1,0,0:0:0:0:
36,204,169552,1,0,0:0:0:0:
212,240,169820,2,0,P|160:320|64:320,1,200
240,352,170624,2,0,L|340:340,1,100
460,328,171160,1,0,0:0:0:0:
388,232,171427,1,0,0:0:0:0:
272,208,171695,2,0,P|308:172|320:124,1,100
200,112,172231,2,0,P|180:64|140:32,1,100
84,140,172767,2,0,P|52:180|40:228,1,100
36,348,173302,1,0,0:0:0:0:
156,348,173570,1,0,0:0:0:0:
256,280,173838,1,0,0:0:0:0:
376,144,174106,2,0,L|392:244,1,100
240,144,174642,1,0,0:0:0:0:
240,144,174910,2,0,L|224:44,1,100,0|0,0:0|0:0,0:0:0:0:
104,48,175445,1,0,0:0:0:0:
104,168,175713,1,0,0:0:0:0:
96,48,175981,1,0,0:0:0:0:
112,168,176249,2,0,P|112:216|84:260,1,100
16,356,176785,2,0,P|112:376|192:316,1,200
256,220,177588,1,0,0:0:0:0:
256,100,177856,1,0,0:0:0:0:
256,100,178124,1,0,0:0:0:0:
356,32,178392,2,0,P|448:64|476:156,1,200
392,316,179195,2,0,P|384:264|400:220,1,100
476,128,179731,1,0,0:0:0:0:
356,112,179999,1,0,0:0:0:0:
264,192,180267,2,0,P|216:212|168:204,2,100,0|0|0,0:0|0:0|0:0,0:0:0:0:
204,88,181070,1,0,0:0:0:0:
100,152,181338,2,0,P|80:104|88:56,1,100,0|0,0:0|0:0,0:0:0:0:
204,88,181874,2,0,L|304:88,1,100
364,192,182410,1,0,0:0:0:0:
344,308,182677,2,0,B|296:308|256:348|256:348|216:308|164:308,2,200,0|0|0,0:0|0:0|0:0,0:0:0:0:
256,228,184017,1,0,0:0:0:0:
256,48,184285,1,0,0:0:0:0:
256,76,184418,1,0,0:0:0:0:
256,108,184552,1,0,0:0:0:0:
152,168,184820,2,0,L|52:192,1,100
56,312,185356,1,0,0:0:0:0:
152,240,185624,2,0,P|188:276|236:288,1,100
356,292,186160,1,0,0:0:0:0:
356,292,186293,1,0,0:0:0:0:
356,292,186427,1,0,0:0:0:0:
452,220,186695,1,0,0:0:0:0:
436,340,186963,2,0,P|480:316|504:272,1,100
388,240,187499,1,0,0:0:0:0:
224,160,187767,2,0,P|260:68|352:44,1,200
344,164,188570,1,0,0:0:0:0:
444,228,188838,1,0,0:0:0:0:
340,288,189106,2,0,P|248:252|224:160,1,200
172,52,189910,2,0,P|156:100|124:136,1,100
16,192,190445,1,0,0:0:0:0:
132,224,190713,1,0,0:0:0:0:
16,248,190981,1,0,0:0:0:0:
132,276,191249,2,0,P|184:276|228:296,1,100
240,304,191651,1,0,0:0:0:0:
240,304,191785,1,0,0:0:0:0:
412,352,192052,2,0,P|392:308|392:256,1,100
420,80,192588,1,0,0:0:0:0:
256,156,192856,1,0,0:0:0:0:
92,80,193124,1,0,0:0:0:0:
16,172,193392,2,0,P|60:196|108:196,1,100
228,176,193927,1,0,0:0:0:0:
320,256,194195,2,0,P|416:232|460:148,1,200
296,68,194999,2,0,P|312:116|352:148,1,100
256,192,195535,12,0,197142,0:0:0:0:
