osu file format v14

[General]
AudioFilename: mp3mp3mp3mp3mp3mp3.mp3
AudioLeadIn: 0
PreviewTime: 48611
Countdown: 0
SampleSet: Soft
StackLeniency: 0.7
Mode: 0
LetterboxInBreaks: 0
WidescreenStoryboard: 0

[Editor]
Bookmarks: 98311
DistanceSpacing: 1
BeatDivisor: 2
GridSize: 4
TimelineZoom: 1

[Metadata]
Title:Summer Boy
TitleUnicode:サマーボーイ
Artist:KANON NAKAGAWA starring Nao Toyama
ArtistUnicode:中川かのん starring 東山奈央
Creator:No Dap
Version:Normal
Source:神のみぞ知るセカイ
Tags:colors character song natsuiro surprise 東山奈央 toyama touyama nao kaminomi zo shiru sekai the world god only knows cut short ver
BeatmapID:615847
BeatmapSetID:270797

[Difficulty]
HPDrainRate:3
CircleSize:3.3
OverallDifficulty:3
ApproachRate:4.5
SliderMultiplier:1.1
SliderTickRate:1

[Events]
//Background and Video events
0,0,"SpectatorIsKindBAT.png",0,0
//Break Periods
//Storyboard Layer 0 (Background)
//Storyboard Layer 1 (Fail)
//Storyboard Layer 2 (Pass)
//Storyboard Layer 3 (Foreground)
//Storyboard Sound Samples

[TimingPoints]
5511,400,4,2,1,60,1,0
48311,-100,4,2,3,60,0,0
48711,-100,4,2,1,70,0,1
73111,-100,4,2,1,70,0,0
74311,-100,4,2,1,30,0,0
75911,-100,4,2,1,70,0,0
77511,-100,4,2,1,60,0,0
93511,-100,4,2,1,5,0,0

[Colours]
Combo1 : 201,201,146
Combo2 : 0,255,0
Combo3 : 85,200,255
Combo4 : 128,128,255

[HitObjects]
112,144,5511,6,0,P|163:131|264:124,1,110,4|8,0:0|0:0,0:0:0:0:
272,104,6111,1,2,0:0:0:0:
272,104,6311,2,0,P|340:120|404:88,1,110,2|8,0:0|0:0,0:0:0:0:
412,68,6911,2,0,L|432:260,1,165,2|8,0:0|0:0,0:0:0:0:
372,328,7911,2,0,P|317:324|262:317,1,110,2|10,0:0|0:0,0:0:0:0:
192,232,8711,6,0,P|116:256|96:288,1,110,2|8,0:0|0:0,0:0:0:0:
88,332,9311,1,2,0:0:0:0:
88,332,9511,2,0,L|12:304,2,55,2|0|8,0:0|0:0|0:0,0:0:0:0:
139,351,10111,2,0,P|220:352|280:298,1,165,2|8,0:0|0:0,0:0:0:0:
316,256,10911,1,2,0:0:0:0:
316,256,11111,2,0,P|376:256|448:264,1,110,2|10,0:0|0:0,0:0:0:0:
464,160,11911,6,0,P|404:160|336:152,1,110,2|8,0:0|0:0,0:0:0:0:
300,172,12511,1,2,0:0:0:0:
300,172,12711,2,0,P|246:158|188:160,1,110,2|8,0:0|0:0,0:0:0:0:
156,200,13311,2,0,P|120:152|8:176,1,165,2|10,0:0|0:0,0:0:0:0:
27,267,14311,2,0,P|44:320|49:375,1,110,2|10,0:0|0:0,0:0:0:0:
148,328,15111,6,0,L|136:264,1,55,10|10,0:0|0:0,0:0:0:0:
216,196,15711,2,0,L|226:250,1,55,10|10,0:0|0:0,0:0:0:0:
328,296,16311,2,0,L|317:241,1,55,10|10,0:0|0:0,0:0:0:0:
444,91,17511,2,0,P|389:99|334:96,1,110,2|8,0:0|0:0,0:0:0:0:
236,52,18311,6,0,L|228:116,1,55,10|10,0:0|0:0,0:0:0:0:
136,164,18911,2,0,L|142:109,1,55,10|10,0:0|0:0,0:0:0:0:
68,32,19511,2,0,L|61:86,1,55,10|10,0:0|0:0,0:0:0:0:
185,262,21511,5,4,0:0:0:0:
185,262,21711,2,0,L|168:196,2,55,0|8|2,0:0|0:0|0:0,0:0:0:0:
228,296,22311,2,0,P|280:276|364:280,1,110,0|8,0:0|0:0,0:0:0:0:
436,320,23111,2,0,P|431:265|430:210,1,110,2|8,0:0|0:0,0:0:0:0:
448,156,23711,1,2,0:0:0:0:
380,72,24111,2,0,L|304:76,1,55,2|8,0:0|0:0,0:0:0:0:
288,116,24511,1,0,0:0:0:0:
288,116,24711,6,0,P|216:96|136:112,1,110,2|8,0:0|0:0,0:0:0:0:
140,136,25311,1,2,0:0:0:0:
140,136,25511,2,0,P|148:200|152:264,1,110,2|8,0:0|0:0,0:0:0:0:
111,348,26311,2,0,P|166:340|221:335,1,110,2|8,0:0|0:0,0:0:0:0:
276,340,26911,1,2,0:0:0:0:
368,280,27311,2,0,L|384:344,1,55,2|10,0:0|0:0,0:0:0:0:
464,264,27911,5,2,0:0:0:0:
464,264,28111,2,0,L|480:324,2,55,0|8|2,0:0|0:0|0:0,0:0:0:0:
488,216,28711,2,0,P|432:208|376:180,1,110,0|8,0:0|0:0,0:0:0:0:
296,120,29511,2,0,P|246:140|223:189,1,110,2|8,0:0|0:0,0:0:0:0:
240,244,30111,1,2,0:0:0:0:
160,320,30511,2,0,L|173:373,2,55,2|8|2,0:0|0:0|0:0,0:0:0:0:
120,280,31111,6,0,P|82:241|71:187,1,110,2|8,0:0|0:0,0:0:0:0:
104,140,31711,1,2,0:0:0:0:
104,140,31911,2,0,L|232:132,1,110,2|8,0:0|0:0,0:0:0:0:
268,128,32511,1,2,0:0:0:0:
324,124,32711,5,2,0:0:0:0:
256,324,33311,1,10,0:0:0:0:
456,248,33911,1,10,0:0:0:0:
384,164,34311,6,0,P|328:164|252:148,1,110,4|2,0:0|0:0,0:0:0:0:
188,84,35111,2,0,P|124:128|112:172,1,110,2|8,0:0|0:0,0:0:0:0:
124,208,35711,1,0,0:0:0:0:
124,208,35911,1,2,0:0:0:0:
180,304,36311,2,0,P|125:303|70:309,2,110,2|2|8,0:0|0:0|0:0,0:0:0:0:
280,356,37511,6,0,P|328:300|332:244,1,110,2|2,0:0|0:0,0:0:0:0:
276,172,38311,2,0,P|332:168|400:160,1,110,2|8,0:0|0:0,0:0:0:0:
440,156,38911,1,0,0:0:0:0:
440,156,39111,1,2,0:0:0:0:
444,264,39511,2,0,P|420:320|376:344,2,110,2|2|8,0:0|0:0|0:0,0:0:0:0:
400,232,40511,1,8,0:0:0:0:
400,231,40711,6,0,P|345:232|290:229,1,110,4|8,0:0|0:0,0:0:0:0:
232,136,41511,2,0,P|286:135|341:138,1,110,2|8,0:0|0:0,0:0:0:0:
432,76,42311,1,4,0:0:0:0:
364,280,42911,1,4,0:0:0:0:
268,228,43311,1,8,0:0:0:0:
268,228,43511,2,0,L|176:244,1,55,8|8,0:0|0:0,0:0:0:0:
184,284,43911,6,0,P|131:266|77:265,1,110,4|0,0:0|0:0,0:0:0:0:
12,176,44711,2,0,P|66:174|118:157,1,110,8|4,0:3|0:3,0:0:0:0:
168,56,45511,2,0,B|204:64|204:64|248:48|300:72,1,110,0|4,0:0|0:0,0:0:0:0:
348,148,46311,2,0,B|312:140|312:140|268:156|240:141,1,110,0|4,0:0|0:0,0:0:0:0:
152,204,47111,1,4,0:0:0:0:
152,204,48311,5,8,0:0:0:0:
219,288,48711,6,0,P|274:279|329:278,1,110,4|8,0:0|0:0,0:0:0:0:
420,344,49511,2,0,P|412:288|415:234,1,110,2|8,0:0|0:0,0:0:0:0:
440,184,50111,1,2,0:0:0:0:
440,184,50311,2,0,P|443:129|435:74,1,110,2|10,0:0|0:0,0:0:0:0:
324,72,51111,2,0,P|269:72|214:67,1,110,0|8,0:0|0:0,0:0:0:0:
164,44,51711,1,2,0:0:0:0:
116,68,51911,6,0,L|124:196,1,110,2|10,0:0|0:0,0:0:0:0:
204,252,52711,2,0,L|210:142,1,110,2|10,0:0|0:0,0:0:0:0:
256,108,53311,1,2,0:0:0:0:
256,108,53511,2,0,P|352:112|392:92,1,110,2|8,0:0|0:0,0:0:0:0:
400,64,54111,2,0,L|424:200,1,110,2|2,0:0|0:0,0:0:0:0:
428,228,54711,1,8,0:0:0:0:
364,315,55111,6,0,P|309:316|254:310,1,110,4|8,0:0|0:0,0:0:0:0:
212,276,55711,1,2,0:0:0:0:
212,276,55911,2,0,P|208:224|200:144,1,110,2|8,0:0|0:0,0:0:0:0:
232,120,56511,1,2,0:0:0:0:
232,120,56711,2,0,P|284:104|339:98,1,110,2|8,0:0|0:0,0:0:0:0:
444,67,57511,2,0,P|425:119|412:173,1,110,2|8,0:0|0:0,0:0:0:0:
432,224,58111,1,2,0:0:0:0:
432,224,58311,6,0,B|404:224|376:212|376:212|340:224|300:216,1,110,2|10,0:0|0:0,0:0:0:0:
324,327,59111,2,0,B|296:327|268:315|268:315|232:327|216:322,1,110,2|10,0:0|0:0,0:0:0:0:
172,292,59711,1,2,0:0:0:0:
172,292,59911,2,0,L|160:220,2,55,0|2|10,0:0|0:0|0:0,0:0:0:0:
144,339,60511,2,0,P|64:344|12:283,1,165,2|4,0:0|0:3,0:0:0:0:
88,204,61511,6,0,P|88:120|68:64,1,110,4|8,0:0|0:0,0:0:0:0:
40,60,62111,2,0,P|94:56|149:48,1,110,8|2,0:0|0:0,0:0:0:0:
192,80,62711,2,0,L|252:60,1,55,8|2,0:0|0:0,0:0:0:0:
292,32,63111,2,0,P|356:40|388:88,1,110,0|10,0:0|0:0,0:0:0:0:
384,128,63711,1,8,0:0:0:0:
384,128,63911,2,0,L|408:256,1,110,2|10,0:0|0:0,0:0:0:0:
344,328,64711,6,0,P|309:285|266:250,1,110,4|8,0:0|0:0,0:0:0:0:
216,276,65311,2,0,P|160:284|92:280,1,110,8|2,0:0|0:0,0:0:0:0:
56,300,65911,1,8,0:0:0:0:
26,253,66111,2,0,L|21:124,1,110,4|0,0:0|0:0,0:0:0:0:
30,88,66711,2,0,P|104:67|150:95,1,110,10|2,0:0|0:0,0:0:0:0:
226,134,67511,1,10,0:0:0:0:
278,154,67711,1,2,0:0:0:0:
327,129,67911,6,0,P|402:133|456:126,1,110,4|10,0:0|0:0,0:0:0:0:
409,237,68711,2,0,P|356:254|302:261,1,110,2|10,0:0|0:0,0:0:0:0:
208,320,69511,2,0,L|220:373,2,55,4|8|8,0:0|0:0|0:0,0:0:0:0:
168,280,70111,2,0,P|132:236|124:160,1,110,4|8,0:0|0:0,0:0:0:0:
136,132,70711,1,8,0:0:0:0:
176,92,70911,1,2,0:0:0:0:
232,100,71111,6,0,P|304:104|344:84,1,110,4|8,0:0|0:0,0:0:0:0:
371,48,71711,2,0,P|426:55|472:83,1,110,2|2,0:0|0:0,0:0:0:0:
484,136,72311,2,0,L|496:208,1,55,8|4,0:0|0:0,0:0:0:0:
412,264,72911,2,0,L|400:204,1,55,4|4,0:0|0:0,0:0:0:0:
256,192,74311,12,4,75911,0:0:0:0:
79,132,77511,6,0,P|133:124|188:123,1,110,4|8,0:0|0:0,0:0:0:0:
232,156,78111,1,2,0:0:0:0:
232,156,78311,2,0,P|281:133|340:120,1,110,2|8,0:0|0:0,0:0:0:0:
389,126,78911,2,0,P|461:186|413:262,1,165,2|8,0:0|0:0,0:0:0:0:
344,284,79911,2,0,P|289:277|234:278,1,110,2|10,0:0|0:0,0:0:0:0:
152,352,80711,6,0,P|148:297|140:242,1,110,2|8,0:0|0:0,0:0:0:0:
104,200,81311,1,2,0:0:0:0:
104,200,81511,2,0,P|158:188|210:170,1,110,2|8,0:0|0:0,0:0:0:0:
252,136,82111,2,0,B|296:124|328:144|328:144|348:100|393:89,1,165,2|8,0:0|0:0,0:0:0:0:
444,104,82911,1,2,0:0:0:0:
444,104,83111,2,0,P|461:157|465:211,1,110,2|10,0:0|0:0,0:0:0:0:
368,264,83911,6,0,P|350:211|346:157,1,110,2|8,0:0|0:0,0:0:0:0:
364,104,84511,1,2,0:0:0:0:
364,104,84711,2,0,P|309:104|254:99,1,110,2|10,0:0|0:0,0:0:0:0:
200,84,85311,2,0,P|116:92|84:192,1,165,2|10,0:0|0:0,0:0:0:0:
104,208,86111,1,2,0:0:0:0:
104,208,86311,2,0,P|159:209|214:202,1,110,2|10,0:0|0:0,0:0:0:0:
308,148,87111,6,0,L|320:220,1,55,10|10,0:0|0:0,0:0:0:0:
420,244,87711,2,0,L|410:189,1,55,10|10,0:0|0:0,0:0:0:0:
492,112,88311,2,0,L|501:166,1,55,10|10,0:0|0:0,0:0:0:0:
360,316,89511,2,0,P|305:306|251:300,1,110,2|8,0:0|0:0,0:0:0:0:
152,348,90311,6,0,L|140:294,1,55,10|10,0:0|0:0,0:0:0:0:
56,224,90911,2,0,L|67:170,1,55,10|10,0:0|0:0,0:0:0:0:
136,84,91511,2,0,L|168:224,1,110,10|10,0:0|0:0,0:0:0:0:
256,192,93511,12,0,98311,0:0:0:0:
