osu file format v14

[General]
AudioFilename: mp3mp3mp3mp3mp3mp3.mp3
AudioLeadIn: 0
PreviewTime: 48611
Countdown: 0
SampleSet: Soft
StackLeniency: 0.7
Mode: 0
LetterboxInBreaks: 0
WidescreenStoryboard: 0

[Editor]
DistanceSpacing: 0.5
BeatDivisor: 4
GridSize: 4
TimelineZoom: 1

[Metadata]
Title:Summer Boy
TitleUnicode:サマーボーイ
Artist:KANON NAKAGAWA starring Nao Toyama
ArtistUnicode:中川かのん starring 東山奈央
Creator:No Dap
Version:Insane
Source:神のみぞ知るセカイ
Tags:colors character song natsuiro surprise 東山奈央 toyama touyama nao kaminomi zo shiru sekai the world god only knows cut short ver
BeatmapID:615845
BeatmapSetID:270797

[Difficulty]
HPDrainRate:7
CircleSize:4
OverallDifficulty:7
ApproachRate:8
SliderMultiplier:1.5
SliderTickRate:1

[Events]
//Background and Video events
0,0,"SpectatorIsKindBAT.png",0,0
//Break Periods
//Storyboard Layer 0 (Background)
//Storyboard Layer 1 (Fail)
//Storyboard Layer 2 (Pass)
//Storyboard Layer 3 (Foreground)
//Storyboard Sound Samples

[TimingPoints]
5511,400,4,2,1,60,1,0
20111,-133.333333333333,4,2,1,60,0,0
21511,-100,4,2,1,60,0,0
34311,-117.647058823529,4,2,1,60,0,0
40711,-100,4,2,1,60,0,0
42711,-100,4,2,1,20,0,0
42911,-100,4,2,1,60,0,0
43911,-117.647058823529,4,2,1,60,0,0
45511,-117.647058823529,4,2,1,35,0,0
45911,-86.9565217391304,4,2,1,60,0,0
46111,-117.647058823529,4,2,1,35,0,0
46711,-86.9565217391304,4,2,1,60,0,0
46911,-100,4,2,1,35,0,0
47111,-100,4,2,1,60,0,0
48111,-100,4,2,1,30,0,0
48311,-100,4,2,3,60,0,0
48711,-100,4,2,1,70,0,1
73111,-100,4,2,1,70,0,0
74311,-133.333333333333,4,2,1,30,0,0
75911,-100,4,2,1,70,0,0
77311,-100,4,2,1,60,0,0
93611,-100,4,2,1,5,0,0

[Colours]
Combo1 : 201,201,146
Combo2 : 0,255,0
Combo3 : 85,200,255
Combo4 : 128,128,255

[HitObjects]
72,272,5511,6,0,P|149:274|205:219,1,150,4|8,0:0|0:0,0:0:0:0:
268,320,6111,1,2,0:0:0:0:
268,320,6311,2,0,P|304:312|356:304,1,75,2|0,0:0|0:0,0:0:0:0:
384,200,6711,2,0,P|348:208|296:216,1,75,8|2,0:0|0:0,0:0:0:0:
396,112,7111,6,0,P|456:152|460:244,1,150,0|8,0:0|0:0,0:0:0:0:
368,336,7711,1,2,0:0:0:0:
256,296,7911,1,2,0:0:0:0:
320,184,8111,2,0,L|328:160,2,25,2|2|2,0:0|0:0|0:0,0:0:0:0:
312,192,8311,2,0,P|260:184|212:168,1,75,10|2,0:0|0:0,0:0:0:0:
155,86,8711,6,0,P|113:174|63:190,1,150,2|8,0:0|0:0,0:0:0:0:
144,280,9311,1,2,0:0:0:0:
229,202,9511,2,0,P|232:164|235:127,1,75,2|0,0:0|0:0,0:0:0:0:
311,55,9911,1,8,0:0:0:0:
424,184,10111,1,2,0:0:0:0:
424,184,10311,6,0,P|388:254|402:331,1,150,0|8,0:0|0:0,0:0:0:0:
492,272,10911,1,2,0:0:0:0:
493,135,11111,2,0,P|489:98|479:62,1,75,2|0,0:0|0:0,0:0:0:0:
424,184,11511,2,0,L|336:160,1,75,10|0,0:0|0:0,0:0:0:0:
492,272,11911,6,0,P|413:296|337:252,1,150,2|8,0:0|0:0,0:0:0:0:
288,139,12511,1,2,0:0:0:0:
288,139,12611,1,0,0:0:0:0:
288,139,12711,1,2,0:0:0:0:
214,209,12911,1,0,0:0:0:0:
244,44,13111,1,8,0:0:0:0:
359,82,13311,1,2,0:0:0:0:
244,44,13511,6,0,P|204:56|156:76,1,75
96,207,13911,2,0,P|134:196|171:181,1,75,10|2,0:0|0:0,0:0:0:0:
240,198,14211,1,2,0:0:0:0:
240,198,14311,2,0,B|268:238|268:238|280:310|212:330,1,150,2|10,0:0|0:0,0:0:0:0:
388,152,15111,5,10,0:0:0:0:
348,268,15311,1,10,0:0:0:0:
136,216,15711,5,10,0:0:0:0:
208,356,15911,1,10,0:0:0:0:
232,104,16311,5,10,0:0:0:0:
248,272,16511,1,10,0:0:0:0:
248,272,16911,5,2,0:0:0:0:
316,324,17111,2,0,L|408:324,1,75,2|0,0:0|0:0,0:0:0:0:
324,240,17511,1,2,0:0:0:0:
240,360,17711,1,2,0:0:0:0:
164,300,17911,2,0,L|72:292,1,75,8|2,0:0|0:0,0:0:0:0:
168,204,18311,5,10,0:0:0:0:
240,360,18511,1,10,0:0:0:0:
248,104,18911,5,10,0:0:0:0:
212,280,19111,1,10,0:0:0:0:
168,44,19511,5,10,0:0:0:0:
248,212,19711,1,10,0:0:0:0:
240,360,20111,6,0,P|208:360|168:356,2,56.2500021457673,2|0|0,0:0|0:0|0:0,0:0:0:0:
313,302,20711,1,2,0:0:0:0:
212,280,20911,2,0,P|168:216|216:140,1,168.750006437302,2|4,0:0|0:0,0:0:0:0:
292,200,21711,5,0,0:0:0:0:
382,146,21911,2,0,P|421:142|462:130,1,75,8|2,0:0|0:0,0:0:0:0:
280,40,22311,2,0,P|272:76|268:113,1,75
408,224,22711,1,8,0:0:0:0:
352,72,22911,1,2,0:0:0:0:
292,200,23111,6,0,P|192:212|132:188,1,150,2|8,0:0|0:0,0:0:0:0:
88,60,23711,1,2,0:0:0:0:
72,40,24111,2,0,P|57:74|46:109,1,75,2|8,0:0|0:0,0:0:0:0:
68,264,24511,1,0,0:0:0:0:
180,224,24711,6,0,P|252:212|324:264,1,150,2|8,0:0|0:0,0:0:0:0:
236,304,25311,1,2,0:0:0:0:
156,360,25511,2,0,P|144:286|140:210,1,150,2|8,0:0|0:0,0:0:0:0:
68,264,26111,1,2,0:0:0:0:
236,304,26311,6,0,L|340:308,1,75,2|0,0:0|0:0,0:0:0:0:
256,196,26711,1,8,0:0:0:0:
164,248,26911,1,2,0:0:0:0:
164,248,27011,1,2,0:0:0:0:
164,248,27111,1,2,0:0:0:0:
128,104,27311,1,0,0:0:0:0:
64,196,27511,2,0,P|52:256|48:296,1,75,10|2,0:0|0:0,0:0:0:0:
96,364,27911,5,2,0:0:0:0:
164,248,28111,1,0,0:0:0:0:
244,312,28311,2,0,P|292:256|304:232,1,75,8|2,0:0|0:0,0:0:0:0:
248,124,28711,2,0,P|236:159|231:196,1,75,0|2,0:0|0:0,0:0:0:0:
340,192,29111,1,8,0:0:0:0:
248,124,29311,1,2,0:0:0:0:
363,272,29511,6,0,P|419:227|409:156,1,150,2|8,0:0|0:0,0:0:0:0:
263,226,30111,2,0,L|256:272,2,37.5,2|2|2,0:0|0:0|0:0,0:0:0:0:
164,124,30511,2,0,P|200:116|240:104,1,75,2|8,0:0|0:0,0:0:0:0:
102,35,30911,1,2,0:0:0:0:
36,172,31111,6,0,B|42:223|80:248|80:248|58:274|68:303,1,150,2|8,0:0|0:0,0:0:0:0:
168,320,31711,1,2,0:0:0:0:
260,212,31911,2,0,P|194:176|120:178,1,150,2|8,0:0|0:0,0:0:0:0:
248,304,32511,1,2,0:0:0:0:
333,143,32711,5,2,0:0:0:0:
260,212,32911,1,0,0:0:0:0:
211,120,33111,1,0,0:0:0:0:
344,268,33311,1,10,0:0:0:0:
324,27,33911,1,10,0:0:0:0:
192,151,34311,6,0,P|128:152|60:136,1,127.50000243187,4|0,0:0|0:0,0:0:0:0:
28,240,34911,1,2,0:0:0:0:
28,240,35111,2,0,L|39:302,1,63.7500012159348,2|0,0:0|0:0,0:0:0:0:
128,360,35511,2,0,L|139:297,1,63.7500012159348,8|0,0:0|0:0,0:0:0:0:
252,208,35911,6,0,P|236:272|260:352,1,127.50000243187,2|0,0:0|0:0,0:0:0:0:
368,344,36511,1,2,0:0:0:0:
436,284,36711,2,0,P|360:260|304:276,1,127.50000243187,2|8,0:0|0:0,0:0:0:0:
95,160,37511,6,0,P|159:154|222:143,1,127.50000243187,2|0,0:0|0:0,0:0:0:0:
221,143,38111,1,2,0:0:0:0:
312,32,38311,2,0,L|280:108,1,63.7500012159348,2|0,0:0|0:0,0:0:0:0:
372,96,38711,1,8,0:0:0:0:
212,52,38911,1,0,0:0:0:0:
304,168,39111,6,0,P|308:240|260:264,1,127.50000243187,2|0,0:0|0:0,0:0:0:0:
180,240,39711,1,2,0:0:0:0:
124,340,39911,2,0,P|188:332|252:336,1,127.50000243187,2|8,0:0|0:0,0:0:0:0:
273,343,40411,1,8,0:0:0:0:
296,345,40511,1,8,0:0:0:0:
320,340,40611,1,8,0:0:0:0:
344,328,40711,6,0,L|360:248,1,75,4|0,0:0|0:0,0:0:0:0:
248,152,41111,2,0,L|260:228,1,75,8|0,0:0|0:0,0:0:0:0:
296,56,41511,1,2,0:0:0:0:
160,172,41711,1,0,0:0:0:0:
184,52,41911,1,8,0:0:0:0:
336,208,42111,1,8,0:0:0:0:
336,208,42211,1,8,0:0:0:0:
336,208,42311,6,0,P|350:267|280:317,1,150,4|0,0:0|0:0,0:0:0:0:
204,208,42911,2,0,L|188:81,1,112.5,4|0,0:0|0:0,0:0:0:0:
184,52,43311,1,8,0:0:0:0:
340,76,43511,1,8,0:0:0:0:
288,184,43711,1,8,0:0:0:0:
360,292,43911,6,0,P|412:248|412:176,1,127.50000243187,4|0,0:0|0:0,0:0:0:0:
496,100,44511,1,8,0:3:0:0:
496,100,44611,1,8,0:3:0:0:
496,100,44711,1,8,0:3:0:0:
360,144,44911,1,8,0:3:0:0:
492,212,45111,2,0,P|480:300|484:332,1,95.6250018239022,4|0,0:3|0:0,0:0:0:0:
492,348,45511,6,0,P|428:332|372:332,1,95.6250018239022
364,356,45911,2,0,L|344:248,1,86.2500016450882,4|0,0:0|0:0,0:0:0:0:
184,112,46311,2,0,P|202:155|202:203,1,95.6250018239022
184,240,46711,2,0,L|92:228,1,86.2500016450882,4|0,0:0|0:0,0:0:0:0:
248,344,47111,1,4,0:0:0:0:
312,108,48111,6,0,L|320:76,4,18.75,2|0|0|0|8,0:0|0:0|0:0|0:0|0:0,0:0:0:0:
100,228,48711,6,0,P|168:220|200:184,1,112.5,4|0,0:0|0:0,0:0:0:0:
207,160,49111,2,0,P|245:164|281:173,1,75,8|0,0:0|0:0,0:0:0:0:
372,300,49511,1,2,0:0:0:0:
284,268,49711,1,0,0:0:0:0:
444,216,49911,1,8,0:0:0:0:
348,136,50111,1,2,0:0:0:0:
372,300,50311,6,0,L|384:380,1,75,2|0,0:0|0:0,0:0:0:0:
187,340,50711,2,0,P|217:272|196:202,1,150,10|0,0:0|0:0,0:0:0:0:
128,104,51311,1,2,0:0:0:0:
88,224,51511,1,8,0:0:0:0:
224,124,51711,1,2,0:0:0:0:
28,176,51911,6,0,P|8:132|4:56,1,112.5,2|0,0:0|0:0,0:0:0:0:
8,40,52311,1,10,0:0:0:0:
128,104,52511,1,2,0:0:0:0:
0,248,52711,2,0,P|76:284|124:260,1,112.5,2|0,0:0|0:0,0:0:0:0:
124,264,53111,1,10,0:0:0:0:
224,156,53311,1,2,0:0:0:0:
128,104,53511,5,2,0:0:0:0:
232,288,53711,1,0,0:0:0:0:
328,136,53911,1,8,0:0:0:0:
224,156,54111,2,0,P|196:185|168:224,1,75,2|0,0:0|0:0,0:0:0:0:
334,232,54511,1,2,0:0:0:0:
363,63,54711,1,8,0:0:0:0:
232,56,54911,1,8,0:0:0:0:
232,56,55011,1,8,0:0:0:0:
231,56,55111,6,0,P|179:75|124:66,1,112.5,4|0,0:0|0:0,0:0:0:0:
92,40,55511,1,8,0:0:0:0:
136,192,55711,1,2,0:0:0:0:
136,192,55811,1,2,0:0:0:0:
136,192,55911,1,2,0:0:0:0:
16,144,56111,1,2,0:0:0:0:
40,296,56311,2,0,P|49:259|56:220,1,75,8|2,0:0|0:0,0:0:0:0:
184,80,56711,6,0,P|196:116|204:152,1,75,2|0,0:0|0:0,0:0:0:0:
164,328,57111,1,8,0:0:0:0:
280,232,57311,1,2,0:0:0:0:
280,232,57411,1,2,0:0:0:0:
280,232,57511,1,2,0:0:0:0:
187,248,57711,1,2,0:0:0:0:
288,342,57911,1,8,0:0:0:0:
369,214,58111,1,2,0:0:0:0:
236,84,58311,6,0,P|233:140|249:194,1,112.5,2|0,0:0|0:0,0:0:0:0:
280,232,58711,1,10,0:0:0:0:
328,132,58911,1,2,0:0:0:0:
120,228,59111,2,0,P|152:288|196:320,1,112.5,2|0,0:0|0:0,0:0:0:0:
228,332,59511,1,10,0:0:0:0:
172,152,59711,1,2,0:0:0:0:
280,232,59911,5,0,0:0:0:0:
172,152,60111,1,2,0:0:0:0:
169,291,60311,1,10,0:0:0:0:
308,152,60511,2,2,P|368:144|440:200,1,150,2|4,0:0|0:3,0:0:0:0:
452,224,61011,1,4,0:3:0:0:
452,224,61111,1,4,0:3:0:0:
324,344,61311,1,0,0:0:0:0:
324,344,61411,1,0,0:0:0:0:
324,344,61511,6,0,L|316:244,1,75,4|0,0:0|0:0,0:0:0:0:
308,152,61911,1,8,0:0:0:0:
220,252,62111,1,8,0:0:0:0:
144,180,62311,2,0,P|174:158|210:148,1,75,0|2,0:0|0:0,0:0:0:0:
88,336,62711,1,8,0:0:0:0:
88,336,62911,6,0,P|76:272|64:184,1,150,2|0,0:0|0:0,0:0:0:0:
132,80,63511,1,10,0:0:0:0:
20,56,63711,1,8,0:0:0:0:
160,204,63911,2,0,P|196:184|222:162,1,75,2|0,0:0|0:0,0:0:0:0:
348,60,64311,2,0,P|341:108|342:134,1,75,10|0,0:0|0:0,0:0:0:0:
404,256,64711,5,4,0:0:0:0:
440,160,64911,1,0,0:0:0:0:
464,328,65111,1,8,0:0:0:0:
504,240,65311,1,8,0:0:0:0:
384,340,65511,2,0,P|344:340|309:331,1,75,0|2,0:0|0:0,0:0:0:0:
220,240,65911,1,8,0:0:0:0:
340,124,66111,6,0,P|371:190|356:262,1,150,4|0,0:0|0:0,0:0:0:0:
256,96,66711,2,0,P|260:56|268:20,1,75,10|8,0:0|0:0,0:0:0:0:
280,204,67111,2,0,P|224:212|192:208,1,75,2|0,0:0|0:0,0:0:0:0:
112,104,67511,1,10,0:0:0:0:
124,272,67711,1,2,0:0:0:0:
124,272,67811,1,2,0:0:0:0:
124,272,67911,6,0,L|132:372,1,75,4|0,0:0|0:0,0:0:0:0:
4,280,68311,2,0,L|9:205,1,75,10|0,0:0|0:0,0:0:0:0:
48,56,68711,1,2,0:0:0:0:
216,184,68911,1,0,0:0:0:0:
180,56,69111,1,10,0:0:0:0:
108,184,69311,1,8,0:0:0:0:
108,184,69411,1,8,0:0:0:0:
107,184,69511,6,0,P|97:220|89:256,1,75,4|8,0:0|0:0,0:0:0:0:
168,376,69911,1,8,0:0:0:0:
288,240,70111,2,0,B|236:224|188:252|188:252|212:304,1,150,4|8,0:0|0:0,0:0:0:0:
340,320,70711,2,0,P|376:276|384:232,1,75,8|2,0:0|0:0,0:0:0:0:
380,220,71011,1,2,0:0:0:0:
380,220,71111,6,0,L|460:200,1,75,4|0,0:0|0:0,0:0:0:0:
288,128,71511,1,8,0:0:0:0:
208,252,71711,1,2,0:0:0:0:
208,252,71811,1,2,0:0:0:0:
208,252,71911,2,0,P|200:320|204:356,1,75,2|2,0:0|0:0,0:0:0:0:
100,184,72311,1,8,0:0:0:0:
227,53,72511,1,4,0:0:0:0:
126,309,72911,5,4,0:0:0:0:
371,274,73111,1,4,0:0:0:0:
256,40,74311,6,0,P|246:80|243:171,1,112.500004291535,2|0,0:0|0:0,0:0:0:0:
304,296,74911,2,0,P|264:264|192:252,1,112.500004291535,2|0,0:0|0:0,0:0:0:0:
80,308,75511,1,2,0:0:0:0:
137,125,75911,5,10,0:0:0:0:
184,335,76111,1,10,0:0:0:0:
112,232,77311,5,8,0:0:0:0:
112,232,77411,1,8,0:0:0:0:
112,232,77511,2,0,P|184:240|264:224,1,150,4|8,0:0|0:0,0:0:0:0:
340,160,78111,1,2,0:0:0:0:
252,71,78311,2,0,P|244:108|240:146,1,75,2|0,0:0|0:0,0:0:0:0:
324,32,78711,1,8,0:0:0:0:
168,112,78911,6,0,P|96:105|50:48,1,150,2|0,0:0|0:0,0:0:0:0:
168,112,79511,1,8,0:0:0:0:
120,240,79711,1,2,0:0:0:0:
20,144,79911,1,2,0:0:0:0:
16,268,80111,2,0,L|8:296,2,25,2|2|2,0:0|0:0|0:0,0:0:0:0:
36,244,80311,2,0,L|40:156,1,75,10|2,0:0|0:0,0:0:0:0:
80,344,80711,6,0,P|148:316|256:316,1,150,2|8,0:0|0:0,0:0:0:0:
312,240,81311,1,2,0:0:0:0:
232,111,81511,2,0,P|235:149|242:186,1,75,2|0,0:0|0:0,0:0:0:0:
340,128,81911,1,8,0:0:0:0:
236,263,82111,6,0,P|156:264|84:256,1,150,2|0,0:0|0:0,0:0:0:0:
108,88,82711,1,8,0:0:0:0:
32,188,82911,1,2,0:0:0:0:
128,284,83111,2,0,L|136:368,1,75,2|0,0:0|0:0,0:0:0:0:
208,172,83511,2,0,L|215:97,1,75,10|0,0:0|0:0,0:0:0:0:
224,288,83911,6,0,P|288:252|365:261,1,150,2|8,0:0|0:0,0:0:0:0:
308,356,84511,1,2,0:0:0:0:
344,168,84711,1,2,0:0:0:0:
456,320,84911,1,2,0:0:0:0:
456,320,85011,1,2,0:0:0:0:
456,320,85111,1,10,0:0:0:0:
372,244,85311,6,0,P|412:212|520:224,1,150,2|0,0:0|0:0,0:0:0:0:
352,328,85911,2,0,P|314:324|278:314,1,75,10|2,0:0|0:0,0:0:0:0:
252,272,86211,1,2,0:0:0:0:
252,272,86311,1,2,0:0:0:0:
280,160,86511,1,0,0:0:0:0:
196,344,86711,1,10,0:0:0:0:
34,222,87111,5,10,0:0:0:0:
104,372,87311,1,10,0:0:0:0:
136,108,87711,5,10,0:0:0:0:
56,304,87911,1,10,0:0:0:0:
40,80,88311,5,10,0:0:0:0:
132,288,88511,1,10,0:0:0:0:
264,200,88911,5,2,0:0:0:0:
328,272,89111,2,0,P|376:265|416:256,1,75,2|0,0:0|0:0,0:0:0:0:
353,174,89511,1,2,0:0:0:0:
319,356,89711,1,2,0:0:0:0:
221,297,89911,2,0,P|211:260|206:223,1,75,8|2,0:0|0:0,0:0:0:0:
195,100,90311,5,10,0:0:0:0:
104,288,90511,1,10,0:0:0:0:
120,40,90911,5,10,0:0:0:0:
184,268,91111,1,10,0:0:0:0:
421,120,91511,5,10,0:0:0:0:
63,200,91911,1,10,0:0:0:0:
256,192,93511,5,4,0:0:0:0:
256,192,93611,12,0,98311,0:0:0:0:
