osu file format v14

[General]
AudioFilename: mp3mp3mp3mp3mp3mp3.mp3
AudioLeadIn: 0
PreviewTime: 48611
Countdown: 0
SampleSet: Soft
StackLeniency: 0.7
Mode: 0
LetterboxInBreaks: 0
WidescreenStoryboard: 0

[Editor]
DistanceSpacing: 1.4
BeatDivisor: 4
GridSize: 4
TimelineZoom: 1

[Metadata]
Title:Summer Boy
TitleUnicode:サマーボーイ
Artist:KANON NAKAGAWA starring Nao Toyama
ArtistUnicode:中川かのん starring 東山奈央
Creator:No Dap
Version:Hard
Source:神のみぞ知るセカイ
Tags:colors character song natsuiro surprise 東山奈央 toyama touyama nao kaminomi zo shiru sekai the world god only knows cut short ver
BeatmapID:616547
BeatmapSetID:270797

[Difficulty]
HPDrainRate:6
CircleSize:4
OverallDifficulty:6
ApproachRate:7.3
SliderMultiplier:1.3
SliderTickRate:1

[Events]
//Background and Video events
0,0,"SpectatorIsKindBAT.png",0,0
//Break Periods
//Storyboard Layer 0 (Background)
//Storyboard Layer 1 (Fail)
//Storyboard Layer 2 (Pass)
//Storyboard Layer 3 (Foreground)
//Storyboard Sound Samples

[TimingPoints]
5511,400,4,2,1,60,1,0
20111,-133.333333333333,4,2,1,60,0,0
21511,-100,4,2,1,60,0,0
34311,-117.647058823529,4,2,1,60,0,0
40711,-100,4,2,1,60,0,0
42711,-100,4,2,1,20,0,0
42911,-100,4,2,1,60,0,0
43911,-117.647058823529,4,2,1,60,0,0
45511,-117.647058823529,4,2,1,35,0,0
45911,-117.647058823529,4,2,1,60,0,0
46311,-117.647058823529,4,2,1,35,0,0
46711,-117.647058823529,4,2,1,60,0,0
47111,-100,4,2,1,60,0,0
48111,-100,4,2,1,30,0,0
48311,-100,4,2,3,60,0,0
48711,-100,4,2,1,70,0,1
73111,-100,4,2,1,70,0,0
74311,-133.333333333333,4,2,1,30,0,0
75911,-100,4,2,1,70,0,0
77311,-100,4,2,1,60,0,0
93611,-100,4,2,1,5,0,0

[Colours]
Combo1 : 201,201,146
Combo2 : 0,255,0
Combo3 : 85,200,255
Combo4 : 128,128,255

[HitObjects]
336,195,5511,6,0,P|271:200|206:193,1,130,4|8,0:0|0:0,0:0:0:0:
148,128,6111,1,2,0:0:0:0:
104,200,6311,2,0,P|92:230|87:262,1,65,2|0,0:0|0:0,0:0:0:0:
110,358,6711,1,8,0:0:0:0:
16,312,6911,6,0,P|8:247|24:184,1,130,2|0,0:0|0:0,0:0:0:0:
64,116,7511,1,8,0:0:0:0:
144,96,7711,1,2,0:0:0:0:
204,156,7911,2,0,P|236:155|268:150,1,65,2|2,0:0|0:0,0:0:0:0:
348,126,8311,2,0,P|380:126|412:131,1,65,10|0,0:0|0:0,0:0:0:0:
434,266,8711,6,0,P|371:264|337:212,1,130,2|8,0:0|0:0,0:0:0:0:
256,264,9311,1,2,0:0:0:0:
256,264,9511,2,0,P|252:296|248:340,1,65,2|0,0:0|0:0,0:0:0:0:
151,325,9911,1,8,0:0:0:0:
184,244,10111,6,0,P|184:180|180:112,1,130,2|0,0:0|0:0,0:0:0:0:
176,32,10711,1,8,0:0:0:0:
112,84,10911,1,2,0:0:0:0:
252,72,11111,2,0,L|320:68,1,65,2|0,0:0|0:0,0:0:0:0:
317,157,11511,2,0,L|381:145,1,65,10|0,0:0|0:0,0:0:0:0:
472,71,11911,6,0,P|455:134|461:198,1,130,2|8,0:0|0:0,0:0:0:0:
478,301,12511,1,2,0:0:0:0:
398,262,12711,2,0,L|322:270,1,65,2|0,0:0|0:0,0:0:0:0:
247,264,13111,1,8,0:0:0:0:
200,340,13311,6,0,B|208:260|208:260|192:200,1,130,2|0,0:0|0:0,0:0:0:0:
201,120,13911,1,10,0:0:0:0:
292,176,14111,1,2,0:0:0:0:
292,176,14211,1,2,0:0:0:0:
292,176,14311,2,0,P|355:166|398:119,1,130,2|10,0:0|0:0,0:0:0:0:
308,44,15111,5,10,0:0:0:0:
308,44,15311,1,10,0:0:0:0:
140,116,15711,5,10,0:0:0:0:
140,116,15911,1,10,0:0:0:0:
208,284,16311,5,10,0:0:0:0:
208,284,16511,1,10,0:0:0:0:
376,212,16911,6,0,L|460:196,2,65,2|2|0,0:0|0:0|0:0,0:0:0:0:
296,143,17511,2,0,P|287:112|281:80,1,65,2|2,0:0|0:0,0:0:0:0:
384,76,17911,2,0,P|380:108|373:140,1,65,8|2,0:0|0:0,0:0:0:0:
292,224,18311,5,10,0:0:0:0:
292,224,18511,1,10,0:0:0:0:
144,120,18911,5,10,0:0:0:0:
144,120,19111,1,10,0:0:0:0:
120,300,19511,5,10,0:0:0:0:
120,300,19711,1,10,0:0:0:0:
28,196,20111,6,0,L|24:136,2,48.750001859665,2|0|0,0:0|0:0|0:0,0:0:0:0:
40,280,20711,1,2,0:0:0:0:
108,224,20911,2,0,P|156:228|192:320,1,146.250005578995,2|4,0:0|0:0,0:0:0:0:
276,272,21711,5,0,0:0:0:0:
276,272,21911,2,0,L|364:264,1,65,8|2,0:0|0:0,0:0:0:0:
396,328,22311,2,0,P|420:284|424:260,1,65,0|0,0:0|0:0,0:0:0:0:
500,292,22711,2,0,P|498:241|490:219,1,65,8|2,0:0|0:0,0:0:0:0:
435,160,23111,6,0,P|371:164|306:157,1,130,2|8,0:0|0:0,0:0:0:0:
224,96,23711,1,2,0:0:0:0:
224,96,24111,2,0,P|216:127|212:159,1,65,2|8,0:0|0:0,0:0:0:0:
232,256,24511,1,2,0:0:0:0:
152,208,24711,6,0,P|89:197|39:236,1,130,2|8,0:0|0:0,0:0:0:0:
48,340,25311,1,2,0:0:0:0:
108,276,25511,2,0,B|124:208|88:208|100:147,1,130,2|8,0:0|0:0,0:0:0:0:
156,72,26111,1,2,0:0:0:0:
64,72,26311,6,0,L|1:81,2,65,2|0|8,0:0|0:0|0:0,0:0:0:0:
156,72,26911,2,0,L|172:32,2,32.5,2|0|0,0:0|0:0|0:0,0:0:0:0:
96,144,27311,1,0,0:0:0:0:
156,204,27511,2,0,P|188:201|232:196,1,65,10|2,0:0|0:0,0:0:0:0:
263,130,27911,6,0,P|302:180|288:241,1,130,2|8,0:0|0:0,0:0:0:0:
216,280,28511,1,2,0:0:0:0:
144,240,28711,2,0,P|114:226|82:219,1,65,0|2,0:0|0:0,0:0:0:0:
140,324,29111,2,0,P|110:336|82:354,1,65,8|2,0:0|0:0,0:0:0:0:
216,279,29511,6,0,B|226:243|226:243|233:201|209:149,1,130,2|8,0:0|0:0,0:0:0:0:
148,72,30111,1,2,0:0:0:0:
148,72,30511,2,0,L|236:64,1,65,2|8,0:0|0:0,0:0:0:0:
304,56,30911,1,2,0:0:0:0:
328,136,31111,6,0,B|377:116|384:68|384:68|404:80|428:76,1,130,2|8,0:0|0:0,0:0:0:0:
420,0,31711,1,2,0:0:0:0:
440,103,31911,2,0,P|443:154|447:233,1,130,2|8,0:0|0:0,0:0:0:0:
437,357,32511,1,2,0:0:0:0:
495,295,32711,5,2,0:0:0:0:
244,260,33311,1,10,0:0:0:0:
404,64,33911,1,10,0:0:0:0:
304,140,34311,6,0,P|244:140|184:120,1,110.50000210762,4|0,0:0|0:0,0:0:0:0:
136,188,34911,1,2,0:0:0:0:
136,188,35111,2,0,P|84:168|16:184,1,110.50000210762,2|8,0:0|0:0,0:0:0:0:
140,328,35911,6,0,B|188:328|216:300|216:300|236:324,1,110.50000210762,2|0,0:0|0:0,0:0:0:0:
308,352,36511,1,2,0:0:0:0:
308,352,36711,2,0,P|364:348|432:336,1,110.50000210762,2|8,0:0|0:0,0:0:0:0:
416,172,37511,6,0,P|368:216|368:264,1,110.50000210762,2|0,0:0|0:0,0:0:0:0:
448,248,38111,1,2,0:0:0:0:
424,328,38311,2,0,B|388:308|336:304|336:304|320:314,1,110.50000210762,2|8,0:0|0:0,0:0:0:0:
167,195,39111,6,0,P|222:198|275:182,1,110.50000210762,2|0,0:0|0:0,0:0:0:0:
324,108,39711,1,2,0:0:0:0:
324,108,39911,2,0,L|404:100,1,55.2500010538101,2|0,0:0|0:0,0:0:0:0:
464,150,40311,2,0,L|480:102,3,27.6250005269051,8|8|8|8,0:0|0:0|0:0|0:0,0:0:0:0:
441,178,40711,6,0,L|453:250,1,65,4|0,0:0|0:0,0:0:0:0:
373,323,41111,2,0,L|362:258,1,65,8|0,0:0|0:0,0:0:0:0:
280,201,41511,2,0,L|272:233|264:265,1,65,2|0,0:0|0:0,0:0:0:0:
347,137,41911,1,8,0:0:0:0:
256,104,42111,1,8,0:0:0:0:
256,104,42211,1,8,0:0:0:0:
256,104,42311,6,0,P|192:116|116:88,1,130,4|0,0:0|0:0,0:0:0:0:
28,24,42911,2,0,P|44:84|44:160,1,130,4|8,0:0|0:0,0:0:0:0:
48,296,43511,1,8,0:0:0:0:
0,220,43711,1,8,0:0:0:0:
114,243,43911,6,0,P|170:243|225:237,1,110.50000210762,4|0,0:0|0:0,0:0:0:0:
279,163,44511,1,8,0:3:0:0:
279,163,44611,1,8,0:3:0:0:
279,163,44711,1,4,0:0:0:0:
351,227,44911,1,8,0:3:0:0:
439,199,45111,1,4,0:3:0:0:
456,60,45511,6,0,B|432:56|432:56|408:64|408:64|380:52|340:56,1,110.50000210762,0|4,0:0|0:0,0:0:0:0:
149,85,46311,2,0,B|173:89|173:89|197:81|197:81|225:93|265:89,1,110.50000210762,0|4,0:0|0:0,0:0:0:0:
320,192,47111,1,4,0:0:0:0:
72,280,48111,6,0,L|64:328,2,32.5,2|0|8,0:0|0:0|0:0,0:0:0:0:
144,108,48711,6,0,P|140:172|153:236,1,130,4|8,0:0|0:0,0:0:0:0:
208,304,49311,1,0,0:0:0:0:
208,304,49511,1,2,0:0:0:0:
276,247,49711,2,0,P|307:239|340:236,1,65,0|8,0:0|0:0,0:0:0:0:
286,352,50111,1,2,0:0:0:0:
208,304,50311,6,0,P|200:272|198:239,1,65,2|0,0:0|0:0,0:0:0:0:
256,148,50711,2,0,P|216:184|124:172,1,130,10|0,0:0|0:0,0:0:0:0:
80,120,51311,1,2,0:0:0:0:
28,192,51511,2,0,P|20:244|16:272,1,65,8|2,0:0|0:0,0:0:0:0:
60,348,51911,6,0,P|116:312|188:320,1,130,2|10,0:0|0:0,0:0:0:0:
204,228,52511,1,2,0:0:0:0:
276,328,52711,2,0,P|312:332|392:284,1,130,2|10,0:0|0:0,0:0:0:0:
384,200,53311,1,2,0:0:0:0:
300,188,53511,6,0,L|316:268,1,65,2|0,0:0|0:0,0:0:0:0:
352,120,53911,1,8,0:0:0:0:
352,120,54111,2,0,P|296:140|208:116,1,130,2|2,0:0|0:0,0:0:0:0:
160,36,54711,1,8,0:0:0:0:
36,228,55111,6,0,P|97:208|161:212,1,130,4|8,0:0|0:0,0:0:0:0:
214,276,55711,1,2,0:0:0:0:
211,361,55911,1,2,0:0:0:0:
288,320,56111,2,0,P|318:313|364:308,1,65,2|8,0:0|0:0,0:0:0:0:
432,340,56511,1,2,0:0:0:0:
500,256,56711,6,0,P|462:255|404:252,1,65,2|0,0:0|0:0,0:0:0:0:
352,216,57111,2,0,P|328:184|360:84,1,130,8|2,0:0|0:0,0:0:0:0:
431,155,57711,2,0,P|464:149|496:144,1,65,2|8,0:0|0:0,0:0:0:0:
441,254,58111,1,2,0:0:0:0:
352,216,58311,6,0,P|285:211|220:212,1,130,2|10,0:0|0:0,0:0:0:0:
172,287,58911,1,2,0:0:0:0:
110,370,59111,2,0,B|83:336|83:336|76:287|100:246,1,130,2|10,0:0|0:0,0:0:0:0:
139,171,59711,1,2,0:0:0:0:
32,191,59911,5,0,0:0:0:0:
80,113,60111,2,0,P|85:81|85:49,1,65,2|10,0:0|0:0,0:0:0:0:
32,191,60511,2,0,L|20:251,2,32.5,2|0|0,0:0|0:0|0:0,0:0:0:0:
112,250,60911,2,0,L|120:306,2,32.5,8|8|8,0:3|0:3|0:3,0:0:0:0:
224,104,61511,6,0,P|227:139|229:177,1,65,4|0,0:0|0:0,0:0:0:0:
212,264,61911,2,0,P|243:256|275:251,1,65,8|8,0:0|0:0,0:0:0:0:
340,192,62311,1,0,0:0:0:0:
404,248,62511,2,0,P|411:279|415:311,1,65,2|8,0:0|0:0,0:0:0:0:
344,356,62911,6,0,P|280:352|214:344,1,130,2|0,0:0|0:0,0:0:0:0:
144,296,63511,1,10,0:0:0:0:
144,296,63711,1,8,0:0:0:0:
84,364,63911,2,0,P|56:308|84:228,1,130,2|10,0:0|0:0,0:0:0:0:
140,120,64711,6,0,P|173:117|219:111,1,65,4|0,0:0|0:0,0:0:0:0:
272,56,65111,1,8,0:0:0:0:
344,104,65311,1,8,0:0:0:0:
424,72,65511,2,0,P|464:60|488:56,1,65,0|2,0:0|0:0,0:0:0:0:
464,148,65911,1,8,0:0:0:0:
380,192,66111,6,0,P|316:197|264:160,1,130,4|0,0:0|0:0,0:0:0:0:
248,68,66711,1,10,0:0:0:0:
176,116,66911,1,8,0:0:0:0:
89,87,67111,2,0,B|107:123|111:180|111:180|93:214,1,130,2|10,0:0|0:0,0:0:0:0:
64,304,67711,1,2,0:0:0:0:
64,304,67811,1,2,0:0:0:0:
63,304,67911,6,0,P|95:297|128:294,1,65,4|0,0:0|0:0,0:0:0:0:
224,304,68311,2,0,P|224:344|220:372,1,65,10|0,0:0|0:0,0:0:0:0:
184,232,68711,2,0,P|192:188|200:156,1,65,2|0,0:0|0:0,0:0:0:0:
228,52,69111,1,10,0:0:0:0:
272,144,69311,1,8,0:0:0:0:
148,104,69511,6,0,P|115:103|83:106,1,65,4|8,0:0|0:0,0:0:0:0:
32,184,69911,1,8,0:0:0:0:
92,260,70111,2,0,P|160:240|232:240,1,130,4|8,0:0|0:0,0:0:0:0:
296,248,70711,1,8,0:0:0:0:
271,330,70911,1,2,0:0:0:0:
296,248,71111,6,0,P|295:215|290:183,1,65,4|0,0:0|0:0,0:0:0:0:
231,128,71511,1,8,0:0:0:0:
188,212,71711,2,0,B|148:188|140:148|140:148|116:160|80:152,1,130,2|2,0:0|0:0,0:0:0:0:
104,72,72311,1,8,0:0:0:0:
208,40,72511,6,0,P|200:106|192:192,1,130,4|4,0:0|0:0,0:0:0:0:
104,72,73111,1,4,0:0:0:0:
296,156,74311,6,0,P|316:108|412:124,2,146.250005578995,2|2|2,0:0|0:0|0:0,0:0:0:0:
224,268,75911,5,10,0:0:0:0:
296,360,76111,1,10,0:0:0:0:
72,192,77311,5,8,0:0:0:0:
72,192,77411,1,8,0:0:0:0:
72,192,77511,2,0,P|128:220|200:180,1,130,4|8,0:0|0:0,0:0:0:0:
260,240,78111,1,2,0:0:0:0:
268,152,78311,2,0,P|269:115|272:72,1,65,2|0,0:0|0:0,0:0:0:0:
356,128,78711,1,8,0:0:0:0:
416,208,78911,6,0,B|448:264|416:312|416:312|397:306,1,130,2|0,0:0|0:0,0:0:0:0:
328,252,79511,1,8,0:0:0:0:
276,316,79711,1,2,0:0:0:0:
208,264,79911,1,2,0:0:0:0:
152,332,80111,1,2,0:0:0:0:
152,332,80311,2,0,P|122:323|90:316,1,65,10|2,0:0|0:0,0:0:0:0:
0,352,80711,6,0,P|40:312|40:228,1,130,2|8,0:0|0:0,0:0:0:0:
4,164,81311,1,2,0:0:0:0:
88,132,81511,2,0,P|84:92|72:64,1,65,2|0,0:0|0:0,0:0:0:0:
4,164,81911,1,8,0:0:0:0:
76,220,82111,6,0,P|144:228|204:192,1,130,2|0,0:0|0:0,0:0:0:0:
236,120,82711,1,8,0:0:0:0:
300,188,82911,1,2,0:0:0:0:
236,120,83111,2,0,P|232:80|232:44,1,65,2|0,0:0|0:0,0:0:0:0:
156,161,83511,2,0,P|148:193|147:225,1,65,10|0,0:0|0:0,0:0:0:0:
196,296,83911,6,0,P|128:268|64:284,1,130,2|8,0:0|0:0,0:0:0:0:
16,344,84511,1,2,0:0:0:0:
60,260,84711,2,0,P|60:227|57:195,1,65,2|2,0:0|0:0,0:0:0:0:
24,100,85111,1,10,0:0:0:0:
136,152,85311,6,0,P|200:156|272:144,1,130,2|0,0:0|0:0,0:0:0:0:
324,80,85911,1,10,0:0:0:0:
371,168,86111,1,2,0:0:0:0:
371,168,86211,1,2,0:0:0:0:
371,168,86311,2,0,L|379:256,1,65,2|0,0:0|0:0,0:0:0:0:
456,138,86711,2,0,L|462:73,1,65,10|0,0:0|0:0,0:0:0:0:
324,80,87111,5,10,0:0:0:0:
324,80,87311,1,10,0:0:0:0:
204,216,87711,5,10,0:0:0:0:
204,216,87911,1,10,0:0:0:0:
108,64,88311,5,10,0:0:0:0:
108,64,88511,1,10,0:0:0:0:
32,228,88911,6,0,L|24:304,2,65,2|2|0,0:0|0:0|0:0,0:0:0:0:
88,160,89511,1,2,0:0:0:0:
152,208,89711,1,2,0:0:0:0:
208,152,89911,2,0,P|237:137|268:127,1,65,8|2,0:0|0:0,0:0:0:0:
376,176,90311,5,10,0:0:0:0:
376,176,90511,1,10,0:0:0:0:
296,340,90911,5,10,0:0:0:0:
296,340,91111,1,10,0:0:0:0:
208,152,91511,6,0,L|216:284,1,130,10|10,0:0|0:0,0:0:0:0:
256,192,93511,5,4,0:0:0:0:
256,192,93611,12,0,98311,0:0:0:0:
