osu file format v14

[General]
AudioFilename: mp3mp3mp3mp3mp3mp3.mp3
AudioLeadIn: 0
PreviewTime: 48611
Countdown: 0
SampleSet: Soft
StackLeniency: 0.7
Mode: 0
LetterboxInBreaks: 0
WidescreenStoryboard: 0

[Editor]
Bookmarks: 98311
DistanceSpacing: 1
BeatDivisor: 2
GridSize: 4
TimelineZoom: 1

[Metadata]
Title:Summer Boy
TitleUnicode:サマーボーイ
Artist:KANON NAKAGAWA starring Nao Toyama
ArtistUnicode:中川かのん starring 東山奈央
Creator:No Dap
Version:Easy
Source:神のみぞ知るセカイ
Tags:colors character song natsuiro surprise 東山奈央 toyama touyama nao kaminomi zo shiru sekai the world god only knows cut short ver
BeatmapID:615843
BeatmapSetID:270797

[Difficulty]
HPDrainRate:2
CircleSize:3
OverallDifficulty:2
ApproachRate:2.5
SliderMultiplier:0.9
SliderTickRate:1

[Events]
//Background and Video events
0,0,"SpectatorIsKindBAT.png",0,0
//Break Periods
//Storyboard Layer 0 (Background)
//Storyboard Layer 1 (Fail)
//Storyboard Layer 2 (Pass)
//Storyboard Layer 3 (Foreground)
//Storyboard Sound Samples

[TimingPoints]
5511,400,4,2,1,60,1,0
7511,-100,4,2,2,60,0,0
7711,-100,4,2,1,60,0,0
9911,-100,4,2,2,60,0,0
10111,-100,4,2,1,60,0,0
13111,-100,4,2,2,60,0,0
13311,-100,4,2,1,60,0,0
21911,-100,4,2,2,60,0,0
22111,-100,4,2,1,60,0,0
23511,-100,4,2,2,60,0,0
23711,-100,4,2,1,60,0,0
25111,-100,4,2,2,60,0,0
25311,-100,4,2,1,60,0,0
26711,-100,4,2,2,60,0,0
26911,-100,4,2,1,60,0,0
29911,-100,4,2,2,60,0,0
30111,-100,4,2,1,60,0,0
31511,-100,4,2,2,60,0,0
31711,-100,4,2,1,60,0,0
48311,-100,4,2,3,60,0,0
48711,-100,4,2,1,70,0,1
49111,-100,4,2,2,70,0,1
49311,-100,4,2,1,70,0,1
50711,-100,4,2,2,70,0,1
50911,-100,4,2,1,70,0,1
53911,-100,4,2,2,70,0,1
54111,-100,4,2,1,70,0,1
55511,-100,4,2,2,70,0,1
55711,-100,4,2,1,70,0,1
57111,-100,4,2,2,70,0,1
57311,-100,4,2,1,70,0,1
60311,-100,4,2,2,70,0,1
60511,-100,4,2,1,70,0,1
61911,-100,4,2,2,70,0,1
62111,-100,4,2,1,70,0,1
68311,-100,4,2,2,70,0,1
68511,-100,4,2,1,70,0,1
69911,-100,4,2,2,70,0,1
70111,-100,4,2,1,70,0,1
71511,-100,4,2,2,70,0,1
71711,-100,4,2,1,70,0,1
72311,-100,4,2,2,70,0,1
72511,-100,4,2,1,70,0,1
73111,-100,4,2,1,70,0,0
74311,-100,4,2,1,30,0,0
75911,-100,4,2,1,70,0,0
77511,-100,4,2,1,60,0,0
79511,-100,4,2,2,60,0,0
79711,-100,4,2,1,60,0,0
81911,-100,4,2,2,60,0,0
82111,-100,4,2,1,60,0,0
85111,-100,4,2,2,60,0,0
85311,-100,4,2,1,60,0,0
93511,-100,4,2,1,5,0,0

[Colours]
Combo1 : 201,201,146
Combo2 : 0,255,0
Combo3 : 85,200,255
Combo4 : 128,128,255

[HitObjects]
64,100,5511,6,0,P|68:150|72:204,1,90,4|8,0:0|0:0,0:0:0:0:
124,263,6311,2,0,P|167:253|212:250,1,90,2|8,0:0|0:0,0:0:0:0:
288,304,7111,2,0,P|336:252|340:168,2,135,0|2|10,0:0|0:0|0:0,0:0:0:0:
209,260,8711,6,0,P|202:221|197:152,1,90,2|8,0:0|0:0,0:0:0:0:
194,80,9511,2,0,B|215:75|243:87|243:87|275:59|323:63,2,135,2|2|8,0:0|0:0|0:0,0:0:0:0:
114,123,11111,2,0,P|110:81|98:21,1,90,2|10,0:0|0:0,0:0:0:0:
24,80,11911,6,0,P|8:122|7:179,1,90,2|8,0:0|0:0,0:0:0:0:
14,256,12711,2,0,P|79:233|147:227,2,135,2|2|10,0:0|0:0|0:0,0:0:0:0:
59,333,14311,2,0,P|107:318|150:313,1,90,2|10,0:0|0:0,0:0:0:0:
232,288,15111,6,0,P|280:272|372:296,2,135,10|10|10,0:0|0:0|0:0,0:0:0:0:
356,65,18311,6,0,P|308:81|216:57,2,135,10|10|10,0:0|0:0|0:0,0:0:0:0:
211,100,21511,6,0,P|295:115|314:197,1,180,4|0,0:0|0:0,0:0:0:0:
376,264,22711,1,8,0:0:0:0:
440,200,23111,2,0,P|453:133|472:69,2,135,2|2|8,0:0|0:0|0:0,0:0:0:0:
448,288,24711,6,0,P|356:292|264:280,1,180,2|2,0:0|0:0,0:0:0:0:
216,208,25911,1,8,0:0:0:0:
164,280,26311,2,0,P|84:300|24:248,2,135,2|2|10,0:0|0:0|0:0,0:0:0:0:
216,208,27911,6,0,P|217:154|216:92,1,90,2|8,0:0|0:0,0:0:0:0:
156,52,28711,2,0,P|108:56|60:72,1,90,0|8,0:0|0:0,0:0:0:0:
36,152,29511,2,0,B|20:188|40:228|40:228|12:272|16:312,2,135,2|2|8,0:0|0:0|0:0,0:0:0:0:
120,180,31111,6,0,B|172:188|208:160|208:160|272:164|288:224,1,180,2|2,0:0|0:0,0:0:0:0:
288,292,32311,1,8,0:0:0:0:
364,244,32711,2,0,P|384:200|384:100,2,135,2|10|10,0:0|0:0|0:0,0:0:0:0:
288,292,34311,6,0,B|222:324|170:266|170:266|30:288,1,270,4|8,0:0|0:0,0:0:0:0:
20,200,35911,2,0,B|160:177|160:177|191:106|296:118,1,270,2|8,0:0|0:0,0:0:0:0:
344,156,37511,6,0,P|400:276|288:324,1,270,2|8,0:0|0:0,0:0:0:0:
210,327,39111,2,0,P|107:262|168:156,1,270,2|8,0:0|0:0,0:0:0:0:
256,135,40711,6,0,P|254:91|250:46,1,90,4|8,0:0|0:0,0:0:0:0:
160,64,41511,2,0,P|115:63|71:73,1,90,2|8,0:0|0:0,0:0:0:0:
32,152,42311,2,0,P|33:241|55:316,2,135,4|4|8,0:0|0:0|0:0,0:0:0:0:
104,100,43911,6,0,P|60:68|8:68,2,90,4|0|8,0:0|0:0|0:3,0:0:0:0:
136,184,45111,1,4,0:3:0:0:
196,116,45511,2,0,B|224:116|224:116|256:104|256:104|288:104,1,90,0|4,0:0|0:0,0:0:0:0:
304,192,46311,2,0,B|276:192|276:192|244:204|244:204|216:204,2,90,0|4|4,0:0|0:0|0:0,0:0:0:0:
448,64,48311,5,8,0:0:0:0:
364,98,48711,6,0,P|288:186|300:254,1,180,4|2,0:0|0:0,0:0:0:0:
345,316,49911,1,8,0:0:0:0:
261,349,50311,2,0,P|166:352|41:345,1,180,2|0,0:0|0:0,0:0:0:0:
17,285,51511,1,8,0:0:0:0:
78,219,51911,6,0,P|74:174|68:129,1,90,2|10,0:0|0:0,0:0:0:0:
157,117,52711,2,0,P|160:161|166:206,1,90,2|10,0:0|0:0,0:0:0:0:
248,248,53511,2,0,P|313:232|392:252,2,135,2|2|8,0:0|0:0|0:0,0:0:0:0:
184,312,55111,6,0,P|112:288|76:184,1,180,4|2,0:0|0:0,0:0:0:0:
120,120,56311,1,8,0:0:0:0:
195,168,56711,2,0,P|285:168|374:153,1,180,2|2,0:0|0:0,0:0:0:0:
420,76,57911,1,8,0:0:0:0:
472,148,58311,6,0,B|482:203|482:203|484:260,1,90,2|10,0:0|0:0,0:0:0:0:
408,288,59111,2,0,B|397:232|397:232|396:176,1,90,2|10,0:0|0:0,0:0:0:0:
340,128,59911,2,0,P|264:100|188:104,2,135,0|2|4,0:0|0:0|0:3,0:0:0:0:
352,216,61511,6,0,P|403:198|507:176,2,135,4|8|8,0:0|0:0|0:0,0:0:0:0:
296,288,63111,1,0,0:0:0:0:
220,240,63511,2,0,P|208:196|192:144,2,90,10|2|10,0:0|0:0|0:0,0:0:0:0:
164,308,64711,6,0,P|104:308|48:283,1,90,4|8,0:0|0:0,0:0:0:0:
28,222,65511,2,0,L|18:55,2,135,2|4|10,0:0|0:0|0:0,0:0:0:0:
75,299,67111,2,0,P|119:310|164:308,1,90,2|10,0:0|0:0,0:0:0:0:
252,300,67911,6,0,P|321:245|320:158,1,180,4|2,0:0|0:0,0:0:0:0:
232,136,69111,1,10,0:0:0:0:
180,64,69511,2,0,B|140:96|144:148|144:148|76:124,2,135,4|4|8,0:0|0:0|0:0,0:0:0:0:
268,40,71111,6,0,B|312:64|356:56|356:56|428:116|400:216|324:256,1,315,4|4,0:0|0:0,0:0:0:0:
264,300,72911,2,0,L|272:364,1,45,4|4,0:0|0:0,0:0:0:0:
256,192,74311,12,4,75911,0:0:0:0:
179,243,77511,6,0,P|171:199|167:155,1,90,4|8,0:0|0:0,0:0:0:0:
228,88,78311,2,0,P|272:96|316:100,1,90,2|8,0:0|0:0,0:0:0:0:
396,56,79111,2,0,P|460:92|452:192,1,180,0|2,0:0|0:0,0:0:0:0:
380,236,80311,1,10,0:0:0:0:
304,188,80711,6,0,P|252:192|184:184,1,90,2|8,0:0|0:0,0:0:0:0:
128,212,81511,2,0,P|120:280|136:368,2,135,2|2|8,0:0|0:0|0:0,0:0:0:0:
204,164,83111,2,0,P|205:119|199:74,1,90,2|10,0:0|0:0,0:0:0:0:
116,36,83911,6,0,P|71:36|27:47,1,90,2|8,0:0|0:0,0:0:0:0:
20,136,84711,2,0,B|0:172|20:224|20:224|62:236,2,135,2|2|10,0:0|0:0|0:0,0:0:0:0:
108,160,86311,2,0,P|160:156|208:144,1,90,2|10,0:0|0:0,0:0:0:0:
268,92,87111,6,0,P|336:72|400:72,2,135,10|10|10,0:0|0:0|0:0,0:0:0:0:
172,284,90311,6,0,P|120:216|112:156,2,135,10|10|10,0:0|0:0|0:0,0:0:0:0:
252,240,91911,1,10,0:0:0:0:
256,192,93511,12,0,98311,0:0:0:0:
