osu file format v11

[General]
AudioFilename: 1.mp3
AudioLeadIn: 500
PreviewTime: 71306
Countdown: 0
SampleSet: Soft
StackLeniency: 0.5
Mode: 0
LetterboxInBreaks: 0

[Editor]
DistanceSpacing: 1.2
BeatDivisor: 4
GridSize: 4

[Metadata]
Title:God Knows...
TitleUnicode:God Knows...
Artist:KANAN
ArtistUnicode:KANAN
Creator:JauiPlaY
Version:I know...
Source:Suzumiya Haruhi no Yuuutsu
Tags:hirano aya shinki
BeatmapID:179839
BeatmapSetID:60113

[Difficulty]
HPDrainRate:2
CircleSize:3
OverallDifficulty:2
ApproachRate:3
SliderMultiplier:0.8
SliderTickRate:2

[Events]
//Background and Video events
0,0,"e42c2d018f642016fbf1a233747386be.jpg"
//Break Periods
2,20108,22913
2,24553,27357
//Storyboard Layer 0 (Background)
//Storyboard Layer 1 (Fail)
//Storyboard Layer 2 (Pass)
//Storyboard Layer 3 (Foreground)
//Storyboard Sound Samples
//Background Colour Transformations
3,100,0,0,0

[TimingPoints]
2131,555.555555555556,4,2,1,35,1,0
17686,-100,4,2,1,5,0,0
19908,-100,4,2,1,55,0,0
37825,-100,4,2,2,50,0,0
55464,-100,4,2,1,55,0,1
55603,-100,4,2,1,55,0,0
68797,-100,4,2,1,5,0,0
73242,-100,4,2,1,65,0,1
73381,-100,4,2,2,65,0,1
82131,-100,4,2,1,65,0,1
82269,-100,4,2,2,65,0,1
88519,-100,4,2,1,65,0,1
88658,-100,4,2,2,65,0,1
90881,-100,4,2,1,65,0,0
91019,-100,4,2,1,65,0,1
91158,-100,4,2,2,65,0,1
99908,-100,4,2,1,65,0,1
100047,-100,4,2,2,65,0,1
106297,-100,4,2,1,65,0,1
107131,-100,4,2,2,65,0,1
108797,-100,4,2,1,65,0,1
108936,-100,4,2,1,5,0,1
113103,-100,4,2,1,5,0,0
113242,-100,4,2,1,5,0,1
113381,-100,4,2,1,5,0,0

[Colours]
Combo1 : 225,98,91
Combo2 : 111,57,147
Combo3 : 121,236,213
Combo4 : 142,64,99

[HitObjects]
256,192,2130,2,0,B|256:312,2,120,2|8|8,0:0|0:0|0:0,0:0:0
304,112,4353,2,0,B|320:96|320:72|320:72|352:88|376:88|392:80,2,120,2|8|8,0:0|0:0|0:0,0:0:0
208,112,6575,2,0,B|192:96|192:72|192:72|160:88|136:88|120:80,2,120,2|8|8,0:0|0:0|0:0,0:0:0
184,208,8797,5,2,0:0:0
256,272,9353,1,8,0:0:0
328,208,9908,1,0,0:0:0
256,144,10464,2,0,B|256:104,2,40,2|8|2,0:0|0:0|0:0,0:0:0
328,208,11575,6,0,B|351:197|351:197|372:252|344:302|344:302|321:312,1,160,8|8,0:0|0:0,0:0:0
256,380,13242,1,2,0:0:0
192,312,13797,2,0,B|167:301|167:301|139:251|160:196|160:196|184:207,1,160,8|8,0:0|0:0,0:0:0
148,116,15464,6,0,B|193:119|208:76,1,80,2|8,0:0|0:0,0:0:0
303,75,16575,2,0,B|318:119|364:116,1,80,0|8,0:0|0:0,0:0:0
256,192,17686,12,4,19908,0:0:0
256,192,24353,5,2,0:0:0
256,192,28797,5,2,0:0:0
256,192,31019,1,2,0:0:0
256,336,31853,6,0,B|296:320,1,40
388,320,32686,1,0,0:0:0
396,224,33242,6,0,B|353:206|360:160,1,80,2|0,0:0|0:0,0:0:0
304,80,34353,2,0,B|360:40|416:80,2,120,0|0|0,0:0|0:0|0:0,0:0:0
208,56,36575,2,0,B|193:99|147:96,1,80,0|0,0:0|0:0,0:0:0
56,128,37686,6,0,B|40:208,1,80,4|4,0:0|0:0,0:0:0
80,296,38797,2,0,B|160:312,1,80,0|4,0:0|0:0,0:0:0
200,224,39908,2,0,B|280:208,1,80,0|4,0:0|0:0,0:0:0
368,256,41019,2,0,B|384:296,2,40,0|4|4,0:0|0:0|0:0,0:0:0
416,176,42131,6,0,B|396:133|433:104,1,80,0|4,0:0|0:0,0:0:0
352,56,43242,2,0,B|272:80,1,80,0|4,0:0|0:0,0:0:0
232,168,44353,2,0,B|152:168,1,80,0|4,0:0|0:0,0:0:0
72,224,45464,2,0,B|32:176,2,60,0|4|4,0:0|0:0|0:0,0:0:0
64,272,46575,6,0,B|89:291|122:287|122:287|140:291,1,80,0|4,0:0|0:0,0:0:0
208,224,47686,2,0,B|225:227|225:227|259:223|284:243,1,80,0|4,0:0|0:0,0:0:0
376,232,48797,2,0,B|382:300|320:328,2,120,0|4|4,0:0|0:0|0:0,0:0:0
432,152,51019,6,0,B|496:176,2,60,0|4|4,0:0|0:0|0:0,0:0:0
408,112,52131,2,0,B|379:94|348:101|330:129|330:129|298:137,1,120,0|4,0:0|0:0,0:0:0
208,120,53519,2,0,B|227:162|189:191,1,80,0|4,0:0|0:0,0:0:0
96,192,54631,2,0,B|37:227|52:295,1,120,0|4,0:0|0:0,0:0:0
128,352,56019,5,8,0:0:0
224,328,56575,2,0,B|288:328|288:328|304:344,1,80,0|8,0:0|0:0,0:0:0
392,328,57686,1,0,0:0:0
472,272,58242,2,0,B|472:208|472:208|488:192,1,80,8|0,0:0|0:0,0:0:0
440,112,59353,1,8,0:0:0
352,72,59908,6,0,B|370:116|339:164|282:153|263:109,1,160
168,88,61575,1,8,0:0:0
88,144,62131,2,0,B|69:99|12:89|-19:137|0:181,1,160
16,276,63797,1,8,0:0:0
72,352,64353,6,0,B|192:360,2,120,4|8|8,0:0|0:0|0:0,0:0:0
112,264,66575,2,0,B|232:272,2,120,0|8|8,0:0|0:0|0:0,0:0:0
256,192,68797,12,0,71019,0:0:0
256,192,73242,5,4,0:0:0
308,272,73797,1,8,0:0:0
400,296,74353,2,0,B|438:267|419:225,1,80,0|8,0:0|0:0,0:0:0
368,144,75464,5,2,0:0:0
280,104,76019,1,8,0:0:0
184,96,76575,2,0,B|155:134|113:115,1,80,0|8,0:0|0:0,0:0:0
28,160,77686,6,0,B|52:280,1,120,2|8,0:0|0:0,0:0:0
128,336,79075,2,0,B|145:372,2,40,8|8|0,0:0|0:0|0:0,0:0:0
200,273,80186,2,0,P|248:249|288:253,1,80,8|8,0:0|0:0,0:0:0
352,304,81297,2,0,B|400:296,1,40,8|8,0:0|0:0,0:0:0
472,240,82131,6,0,B|440:200|392:200|392:200|376:176,2,120,4|8|8,0:0|0:0|0:0,0:0:0
480,336,84353,1,2,0:0:0
391,297,84908,1,8,0:0:0
296,272,85464,1,0,0:0:0
200,272,86019,1,8,0:0:0
104,296,86575,6,0,B|124:243|98:184|45:164,1,160,2|0,0:0|0:0,0:0:0
64,72,88242,2,0,B|104:64,1,40,8|4,0:0|0:0,0:0:0
248,72,89353,2,0,B|179:73|157:137,2,120,8|8|4,0:0|0:0|0:0,0:0:0
248,168,91575,5,8,0:0:0
336,216,92131,1,0,0:0:0
376,304,92686,1,8,0:0:0
464,264,93242,2,0,B|446:219|484:193,1,80,2|8,0:0|0:0,0:0:0
424,120,94353,2,0,B|461:93|444:49,1,80,0|8,0:0|0:0,0:0:0
352,56,95464,6,0,B|306:38|306:38|278:57|239:50,1,120,2|8,0:0|0:0,0:0:0
192,136,96853,2,0,B|161:109,2,40,8|8|0,0:0|0:0|0:0,0:0:0
115,194,97964,2,0,P|65:200|34:230,1,80,8|8,0:0|0:0,0:0:0
74,308,99075,2,0,B|107:287,1,40,8|8,0:0|0:0,0:0:0
195,325,99908,6,0,B|223:317|243:353|243:353|263:317|291:325,2,120,4|8|8,0:0|0:0|0:0,0:0:0
216,232,102131,1,2,0:0:0
276,156,102686,1,8,0:0:0
356,104,103242,1,0,0:0:0
452,88,103797,1,8,0:0:0
468,184,104353,6,0,B|497:246|449:294,1,120,2|8,0:0|0:0,0:0:0
316,344,106019,2,0,B|276:332,1,40,8|4,0:0|0:0,0:0:0
192,216,107131,2,0,B|241:210|241:210|264:235|304:237,2,120,8|8|4,0:0|0:0|0:0,0:0:0
256,192,108936,12,0,113242,0:0:0
